osu file format v14

[General]
AudioFilename: kors k x marasy - Play Time!! (Unofficial Title).mp3
AudioLeadIn: 0
PreviewTime: 114214
Countdown: 0
SampleSet: Soft
StackLeniency: 0.7
Mode: 3
LetterboxInBreaks: 0
SpecialStyle: 0
WidescreenStoryboard: 0

[Editor]
DistanceSpacing: 0.9
BeatDivisor: 4
GridSize: 8
TimelineZoom: 2

[Metadata]
Title:Play Time!!
TitleUnicode:Play Time!!
Artist:maras k
ArtistUnicode:maras k
Creator:ExVeemon
Version:EZ
Source:
Tags:まらしぃ marasy kors k Beat Piano Music
BeatmapID:704138
BeatmapSetID:309653

[Difficulty]
HPDrainRate:6
CircleSize:4
OverallDifficulty:6
ApproachRate:5
SliderMultiplier:3.59999990463257
SliderTickRate:4

[Events]
//Background and Video events
0,0,"playtime.jpg",0,0
//Break Periods
//Storyboard Layer 0 (Background)
//Storyboard Layer 1 (Fail)
//Storyboard Layer 2 (Pass)
//Storyboard Layer 3 (Foreground)
//Storyboard Sound Samples

[TimingPoints]
1408,324.324324324324,4,2,0,40,1,0
37732,-100,4,2,0,40,0,1
58164,-100,4,2,0,40,0,0
58489,-100,4,2,0,40,0,1
77948,-100,4,2,0,40,0,0
115570,-100,4,2,0,40,0,1
133732,-100,4,2,0,40,0,0
136326,-100,4,2,0,40,0,1
146705,-100,4,2,0,40,0,0
151894,-100,4,2,0,40,0,1
162272,-100,4,2,0,40,0,0

[HitObjects]
64,192,1408,5,0,0:0:0:0:
448,192,1732,1,0,0:0:0:0:
64,192,2056,1,0,0:0:0:0:
448,192,2380,1,0,0:0:0:0:
192,192,2705,1,0,0:0:0:0:
320,192,3029,1,0,0:0:0:0:
192,192,3353,1,0,0:0:0:0:
320,192,3678,1,0,0:0:0:0:
192,192,4002,1,0,0:0:0:0:
448,192,4326,1,0,0:0:0:0:
192,192,4651,1,0,0:0:0:0:
448,192,4975,1,0,0:0:0:0:
64,192,5137,128,0,5299:0:0:0:0:
192,192,5462,1,0,0:0:0:0:
320,192,5624,1,0,0:0:0:0:
64,192,5786,1,0,0:0:0:0:
448,192,5948,1,0,0:0:0:0:
320,192,6272,1,0,0:0:0:0:
64,192,6597,1,0,0:0:0:0:
192,192,6921,1,0,0:0:0:0:
64,192,7245,1,0,0:0:0:0:
192,192,7570,1,0,0:0:0:0:
320,192,7894,1,0,0:0:0:0:
448,192,8218,1,0,0:0:0:0:
320,192,8543,1,0,0:0:0:0:
448,192,8867,1,0,0:0:0:0:
192,192,9191,1,0,0:0:0:0:
320,192,9516,1,0,0:0:0:0:
192,192,9840,1,0,0:0:0:0:
320,192,10164,1,0,0:0:0:0:
64,192,10489,1,0,0:0:0:0:
448,192,10813,1,0,0:0:0:0:
64,192,11137,1,0,0:0:0:0:
448,192,11462,1,0,0:0:0:0:
64,192,11786,1,0,0:0:0:0:
320,192,12110,1,0,0:0:0:0:
64,192,12435,1,0,0:0:0:0:
320,192,12759,1,0,0:0:0:0:
192,192,13083,1,0,0:0:0:0:
320,192,13407,1,0,0:0:0:0:
192,192,13732,1,0,0:0:0:0:
320,192,14056,1,0,0:0:0:0:
448,192,14380,1,0,0:0:0:0:
320,192,14705,1,0,0:0:0:0:
448,192,15029,1,0,0:0:0:0:
320,192,15353,1,0,0:0:0:0:
64,192,15678,1,0,0:0:0:0:
320,192,16002,1,0,0:0:0:0:
64,192,16326,1,0,0:0:0:0:
320,192,16651,1,0,0:0:0:0:
448,192,16975,1,0,0:0:0:0:
320,192,17299,1,0,0:0:0:0:
448,192,17624,1,0,0:0:0:0:
320,192,17948,1,0,0:0:0:0:
192,192,18272,1,0,0:0:0:0:
320,192,18597,1,0,0:0:0:0:
192,192,18921,1,0,0:0:0:0:
320,192,19245,1,0,0:0:0:0:
64,192,19570,1,0,0:0:0:0:
320,192,19894,1,0,0:0:0:0:
64,192,20218,1,0,0:0:0:0:
320,192,20543,1,0,0:0:0:0:
192,192,20705,128,0,21840:0:0:0:0:
320,192,21840,1,0,0:0:0:0:
192,192,22164,128,0,23137:0:0:0:0:
320,192,22489,1,0,0:0:0:0:
320,192,22813,1,0,0:0:0:0:
320,192,23137,1,0,0:0:0:0:
192,192,23462,128,0,24435:0:0:0:0:
320,192,23786,1,0,0:0:0:0:
320,192,24110,1,0,0:0:0:0:
320,192,24435,1,0,0:0:0:0:
64,192,24759,128,0,25407:0:0:0:0:
192,192,24759,128,0,25407:0:0:0:0:
320,192,25407,128,0,26056:0:0:0:0:
448,192,25407,128,0,26056:0:0:0:0:
192,192,26218,1,0,0:0:0:0:
64,192,26380,1,0,0:0:0:0:
448,192,26543,1,0,0:0:0:0:
320,192,26705,1,0,0:0:0:0:
448,192,27029,128,0,27353:0:0:0:0:
64,192,27353,1,0,0:0:0:0:
320,192,27678,1,0,0:0:0:0:
64,192,28002,1,0,0:0:0:0:
320,192,28326,1,0,0:0:0:0:
192,192,28651,1,0,0:0:0:0:
448,192,28975,1,0,0:0:0:0:
192,192,29299,1,0,0:0:0:0:
448,192,29624,1,0,0:0:0:0:
64,192,29948,1,0,0:0:0:0:
448,192,30272,1,0,0:0:0:0:
64,192,30597,1,0,0:0:0:0:
448,192,30921,1,0,0:0:0:0:
320,192,31245,1,0,0:0:0:0:
64,192,31570,1,0,0:0:0:0:
320,192,31894,1,0,0:0:0:0:
64,192,32218,1,0,0:0:0:0:
448,192,32543,1,0,0:0:0:0:
192,192,32543,1,0,0:0:0:0:
320,192,32867,1,0,0:0:0:0:
192,192,33191,1,0,0:0:0:0:
320,192,33516,1,0,0:0:0:0:
64,192,33840,1,0,0:0:0:0:
192,192,33840,1,0,0:0:0:0:
320,192,34164,1,0,0:0:0:0:
192,192,34489,1,0,0:0:0:0:
320,192,34813,1,0,0:0:0:0:
64,192,35137,128,0,35786:0:0:0:0:
448,192,35786,128,0,36435:0:0:0:0:
64,192,36435,1,0,0:0:0:0:
192,192,36759,1,0,0:0:0:0:
320,192,37083,1,0,0:0:0:0:
448,192,37407,1,0,0:0:0:0:
64,192,37732,1,0,0:0:0:0:
320,192,37732,1,0,0:0:0:0:
192,192,38056,1,0,0:0:0:0:
320,192,38380,1,0,0:0:0:0:
192,192,38705,1,0,0:0:0:0:
64,192,39029,1,0,0:0:0:0:
448,192,39029,1,0,0:0:0:0:
320,192,39353,1,0,0:0:0:0:
192,192,39678,1,0,0:0:0:0:
64,192,40002,1,0,0:0:0:0:
320,192,40326,1,0,0:0:0:0:
448,192,40326,1,0,0:0:0:0:
64,192,40651,1,0,0:0:0:0:
192,192,40975,1,0,0:0:0:0:
320,192,41299,1,0,0:0:0:0:
64,192,41624,1,0,0:0:0:0:
192,192,41624,1,0,0:0:0:0:
448,192,41948,1,0,0:0:0:0:
320,192,42272,1,0,0:0:0:0:
192,192,42597,1,0,0:0:0:0:
64,192,42921,1,0,0:0:0:0:
320,192,42921,1,0,0:0:0:0:
192,192,43245,1,0,0:0:0:0:
448,192,43570,1,0,0:0:0:0:
320,192,43894,1,0,0:0:0:0:
192,192,44218,1,0,0:0:0:0:
448,192,44218,1,0,0:0:0:0:
64,192,44543,1,0,0:0:0:0:
192,192,44867,1,0,0:0:0:0:
64,192,45191,1,0,0:0:0:0:
320,192,45516,1,0,0:0:0:0:
448,192,45516,1,0,0:0:0:0:
64,192,45840,1,0,0:0:0:0:
320,192,46164,1,0,0:0:0:0:
448,192,46164,1,0,0:0:0:0:
192,192,46489,1,0,0:0:0:0:
448,192,46975,1,0,0:0:0:0:
192,192,47137,1,0,0:0:0:0:
320,192,47299,1,0,0:0:0:0:
64,192,47462,1,0,0:0:0:0:
448,192,47786,1,0,0:0:0:0:
64,192,48110,1,0,0:0:0:0:
320,192,48110,1,0,0:0:0:0:
192,192,48435,1,0,0:0:0:0:
64,192,48759,1,0,0:0:0:0:
192,192,49083,1,0,0:0:0:0:
448,192,49407,1,0,0:0:0:0:
320,192,49407,1,0,0:0:0:0:
192,192,49732,1,0,0:0:0:0:
64,192,50056,1,0,0:0:0:0:
448,192,50380,1,0,0:0:0:0:
64,192,50705,1,0,0:0:0:0:
192,192,50705,1,0,0:0:0:0:
320,192,51029,1,0,0:0:0:0:
192,192,51353,1,0,0:0:0:0:
320,192,51678,1,0,0:0:0:0:
64,192,52002,1,0,0:0:0:0:
192,192,52002,1,0,0:0:0:0:
320,192,52326,1,0,0:0:0:0:
192,192,52651,1,0,0:0:0:0:
320,192,52975,1,0,0:0:0:0:
192,192,53299,1,0,0:0:0:0:
448,192,53299,1,0,0:0:0:0:
64,192,53624,1,0,0:0:0:0:
320,192,53948,1,0,0:0:0:0:
192,192,54272,1,0,0:0:0:0:
64,192,54597,1,0,0:0:0:0:
448,192,54597,1,0,0:0:0:0:
192,192,54921,1,0,0:0:0:0:
320,192,55245,1,0,0:0:0:0:
448,192,55570,1,0,0:0:0:0:
64,192,55894,1,0,0:0:0:0:
320,192,55894,1,0,0:0:0:0:
448,192,56218,1,0,0:0:0:0:
64,192,56543,1,0,0:0:0:0:
320,192,56543,1,0,0:0:0:0:
192,192,56867,1,0,0:0:0:0:
320,192,57029,128,0,57191:0:0:0:0:
448,192,57191,1,0,0:0:0:0:
64,192,57191,1,0,0:0:0:0:
64,192,57516,1,0,0:0:0:0:
192,192,57516,1,0,0:0:0:0:
320,192,57840,1,0,0:0:0:0:
448,192,57840,1,0,0:0:0:0:
64,192,58489,1,0,0:0:0:0:
448,192,58489,1,0,0:0:0:0:
192,192,58813,1,0,0:0:0:0:
448,192,59137,1,0,0:0:0:0:
192,192,59462,1,0,0:0:0:0:
448,192,59786,1,0,0:0:0:0:
320,192,60110,1,0,0:0:0:0:
64,192,60435,1,0,0:0:0:0:
320,192,60759,1,0,0:0:0:0:
64,192,61083,1,0,0:0:0:0:
448,192,61407,1,0,0:0:0:0:
320,192,61732,1,0,0:0:0:0:
448,192,62056,1,0,0:0:0:0:
192,192,62380,1,0,0:0:0:0:
64,192,62380,128,0,63678:0:0:0:0:
448,192,62705,1,0,0:0:0:0:
320,192,63029,1,0,0:0:0:0:
192,192,63353,1,0,0:0:0:0:
448,192,63678,1,0,0:0:0:0:
320,192,64002,1,0,0:0:0:0:
192,192,64326,1,0,0:0:0:0:
64,192,64651,1,0,0:0:0:0:
192,192,64975,1,0,0:0:0:0:
320,192,65299,1,0,0:0:0:0:
64,192,65624,1,0,0:0:0:0:
320,192,65948,1,0,0:0:0:0:
64,192,66435,1,0,0:0:0:0:
320,192,66435,1,0,0:0:0:0:
192,192,66921,1,0,0:0:0:0:
448,192,66921,1,0,0:0:0:0:
320,192,67407,1,0,0:0:0:0:
448,192,67407,1,0,0:0:0:0:
192,192,67570,128,0,68218:0:0:0:0:
320,192,68218,128,0,68867:0:0:0:0:
64,192,68867,1,0,0:0:0:0:
192,192,69191,1,0,0:0:0:0:
320,192,69516,1,0,0:0:0:0:
448,192,69840,1,0,0:0:0:0:
192,192,70164,1,0,0:0:0:0:
448,192,70489,1,0,0:0:0:0:
320,192,70813,1,0,0:0:0:0:
192,192,71137,1,0,0:0:0:0:
64,192,71462,1,0,0:0:0:0:
320,192,71786,128,0,72110:0:0:0:0:
192,192,72110,128,0,72435:0:0:0:0:
320,192,72435,128,0,72759:0:0:0:0:
448,192,72759,128,0,73407:0:0:0:0:
64,192,73407,128,0,73732:0:0:0:0:
320,192,73732,128,0,74056:0:0:0:0:
64,192,74056,1,0,0:0:0:0:
448,192,74380,1,0,0:0:0:0:
192,192,74705,1,0,0:0:0:0:
320,192,75029,1,0,0:0:0:0:
448,192,75353,1,0,0:0:0:0:
192,192,75678,1,0,0:0:0:0:
64,192,76002,1,0,0:0:0:0:
320,192,76326,1,0,0:0:0:0:
64,192,76651,1,0,0:0:0:0:
192,192,76651,1,0,0:0:0:0:
192,192,76975,1,0,0:0:0:0:
64,192,76975,1,0,0:0:0:0:
192,192,77299,1,0,0:0:0:0:
64,192,77299,1,0,0:0:0:0:
192,192,77624,1,0,0:0:0:0:
64,192,77624,1,0,0:0:0:0:
448,192,77948,128,0,79245:0:0:0:0:
64,192,78597,1,0,0:0:0:0:
64,192,78921,1,0,0:0:0:0:
192,192,79245,1,0,0:0:0:0:
320,192,79570,1,0,0:0:0:0:
64,192,79894,1,0,0:0:0:0:
448,192,80218,1,0,0:0:0:0:
64,192,80543,128,0,80867:0:0:0:0:
192,192,80867,128,0,81191:0:0:0:0:
320,192,81191,128,0,81516:0:0:0:0:
448,192,81516,128,0,81840:0:0:0:0:
320,192,81840,128,0,83137:0:0:0:0:
64,192,83137,128,0,84435:0:0:0:0:
192,192,84435,128,0,85083:0:0:0:0:
320,192,85083,128,0,85570:0:0:0:0:
448,192,85570,128,0,87029:0:0:0:0:
320,192,87029,128,0,87678:0:0:0:0:
448,192,87678,128,0,88002:0:0:0:0:
192,192,88002,128,0,88164:0:0:0:0:
64,192,88326,128,0,89624:0:0:0:0:
320,192,89624,128,0,90759:0:0:0:0:
448,192,90759,128,0,92218:0:0:0:0:
64,192,92218,1,0,0:0:0:0:
64,192,92543,1,0,0:0:0:0:
448,192,92543,1,0,0:0:0:0:
64,192,92867,1,0,0:0:0:0:
448,192,92867,1,0,0:0:0:0:
192,192,93191,1,0,0:0:0:0:
448,192,93516,1,0,0:0:0:0:
192,192,93840,1,0,0:0:0:0:
320,192,94164,1,0,0:0:0:0:
192,192,94489,1,0,0:0:0:0:
64,192,94813,128,0,95137:0:0:0:0:
448,192,95137,128,0,95462:0:0:0:0:
192,192,95462,1,0,0:0:0:0:
320,192,95786,1,0,0:0:0:0:
448,192,96110,1,0,0:0:0:0:
320,192,96435,1,0,0:0:0:0:
192,192,96759,1,0,0:0:0:0:
448,192,97083,1,0,0:0:0:0:
64,192,97407,1,0,0:0:0:0:
320,192,97407,1,0,0:0:0:0:
64,192,97732,1,0,0:0:0:0:
320,192,97732,1,0,0:0:0:0:
64,192,98056,1,0,0:0:0:0:
320,192,98056,1,0,0:0:0:0:
448,192,98380,1,0,0:0:0:0:
320,192,98705,1,0,0:0:0:0:
192,192,99029,1,0,0:0:0:0:
64,192,99353,1,0,0:0:0:0:
192,192,99678,1,0,0:0:0:0:
448,192,100002,128,0,100326:0:0:0:0:
64,192,100326,128,0,100651:0:0:0:0:
320,192,100651,1,0,0:0:0:0:
448,192,100975,1,0,0:0:0:0:
64,192,101299,1,0,0:0:0:0:
320,192,101624,1,0,0:0:0:0:
192,192,101948,1,0,0:0:0:0:
64,192,102597,1,0,0:0:0:0:
192,192,102597,1,0,0:0:0:0:
64,192,102921,1,0,0:0:0:0:
192,192,102921,1,0,0:0:0:0:
448,192,103245,128,0,103570:0:0:0:0:
320,192,103570,1,0,0:0:0:0:
320,192,103894,1,0,0:0:0:0:
448,192,103894,1,0,0:0:0:0:
320,192,104218,1,0,0:0:0:0:
448,192,104218,1,0,0:0:0:0:
64,192,104543,128,0,104867:0:0:0:0:
192,192,104867,1,0,0:0:0:0:
192,192,105191,1,0,0:0:0:0:
448,192,105191,1,0,0:0:0:0:
192,192,105516,1,0,0:0:0:0:
448,192,105516,1,0,0:0:0:0:
320,192,105840,128,0,106164:0:0:0:0:
192,192,106164,1,0,0:0:0:0:
64,192,106489,1,0,0:0:0:0:
320,192,106489,1,0,0:0:0:0:
64,192,106813,1,0,0:0:0:0:
320,192,106813,1,0,0:0:0:0:
192,192,107137,128,0,107462:0:0:0:0:
320,192,107462,1,0,0:0:0:0:
64,192,107786,1,0,0:0:0:0:
448,192,107786,1,0,0:0:0:0:
320,192,108110,1,0,0:0:0:0:
64,192,108435,1,0,0:0:0:0:
448,192,108435,1,0,0:0:0:0:
192,192,108759,1,0,0:0:0:0:
320,192,109083,1,0,0:0:0:0:
448,192,109083,1,0,0:0:0:0:
64,192,109407,1,0,0:0:0:0:
64,192,109732,1,0,0:0:0:0:
192,192,109732,1,0,0:0:0:0:
448,192,110056,1,0,0:0:0:0:
64,192,110380,1,0,0:0:0:0:
192,192,110380,1,0,0:0:0:0:
64,192,110705,1,0,0:0:0:0:
192,192,110705,1,0,0:0:0:0:
320,192,111029,1,0,0:0:0:0:
448,192,111029,1,0,0:0:0:0:
320,192,111353,1,0,0:0:0:0:
448,192,111353,1,0,0:0:0:0:
64,192,111678,128,0,114272:0:0:0:0:
448,192,112975,1,0,0:0:0:0:
320,192,113299,1,0,0:0:0:0:
448,192,113624,1,0,0:0:0:0:
320,192,113948,1,0,0:0:0:0:
448,192,114272,128,0,114597:0:0:0:0:
320,192,114597,128,0,114921:0:0:0:0:
192,192,114921,128,0,115245:0:0:0:0:
64,192,115245,128,0,115570:0:0:0:0:
448,192,115570,1,0,0:0:0:0:
320,192,115894,1,0,0:0:0:0:
448,192,116218,1,0,0:0:0:0:
320,192,116543,1,0,0:0:0:0:
192,192,116867,1,0,0:0:0:0:
64,192,116867,128,0,117191:0:0:0:0:
448,192,117191,128,0,117516:0:0:0:0:
320,192,117516,128,0,117840:0:0:0:0:
64,192,117840,1,0,0:0:0:0:
192,192,117840,1,0,0:0:0:0:
64,192,118164,1,0,0:0:0:0:
192,192,118164,1,0,0:0:0:0:
320,192,118489,1,0,0:0:0:0:
448,192,118813,1,0,0:0:0:0:
192,192,119137,1,0,0:0:0:0:
448,192,119462,1,0,0:0:0:0:
320,192,119462,128,0,119786:0:0:0:0:
64,192,119786,1,0,0:0:0:0:
192,192,120110,1,0,0:0:0:0:
64,192,120435,1,0,0:0:0:0:
448,192,120435,1,0,0:0:0:0:
64,192,120759,1,0,0:0:0:0:
448,192,120759,128,0,121083:0:0:0:0:
320,192,121083,1,0,0:0:0:0:
64,192,121407,1,0,0:0:0:0:
320,192,121732,1,0,0:0:0:0:
64,192,122056,1,0,0:0:0:0:
448,192,122056,128,0,122380:0:0:0:0:
320,192,122380,128,0,122705:0:0:0:0:
192,192,122705,128,0,123029:0:0:0:0:
320,192,123029,1,0,0:0:0:0:
448,192,123029,1,0,0:0:0:0:
320,192,123353,1,0,0:0:0:0:
448,192,123353,1,0,0:0:0:0:
64,192,123678,1,0,0:0:0:0:
448,192,124002,1,0,0:0:0:0:
192,192,124326,1,0,0:0:0:0:
448,192,124651,1,0,0:0:0:0:
64,192,124651,1,0,0:0:0:0:
320,192,124975,128,0,125299:0:0:0:0:
64,192,125299,128,0,125624:0:0:0:0:
192,192,125624,128,0,125948:0:0:0:0:
64,192,125948,1,0,0:0:0:0:
448,192,125948,1,0,0:0:0:0:
192,192,126272,1,0,0:0:0:0:
320,192,126597,1,0,0:0:0:0:
448,192,126921,1,0,0:0:0:0:
64,192,127245,1,0,0:0:0:0:
320,192,127245,128,0,127570:0:0:0:0:
192,192,127570,128,0,127894:0:0:0:0:
448,192,127894,128,0,128218:0:0:0:0:
64,192,128218,1,0,0:0:0:0:
320,192,128218,1,0,0:0:0:0:
64,192,128543,1,0,0:0:0:0:
320,192,128543,128,0,128867:0:0:0:0:
448,192,128867,1,0,0:0:0:0:
64,192,129191,1,0,0:0:0:0:
192,192,129516,1,0,0:0:0:0:
448,192,129840,1,0,0:0:0:0:
320,192,129840,128,0,130164:0:0:0:0:
64,192,130164,1,0,0:0:0:0:
320,192,130489,1,0,0:0:0:0:
448,192,130813,1,0,0:0:0:0:
64,192,130813,1,0,0:0:0:0:
448,192,131137,1,0,0:0:0:0:
64,192,131137,128,0,131462:0:0:0:0:
192,192,131462,1,0,0:0:0:0:
64,192,131786,1,0,0:0:0:0:
192,192,132110,1,0,0:0:0:0:
320,192,132110,128,0,132435:0:0:0:0:
448,192,132435,1,0,0:0:0:0:
64,192,132759,1,0,0:0:0:0:
320,192,133083,1,0,0:0:0:0:
64,192,133407,128,0,133732:0:0:0:0:
320,192,133732,1,0,0:0:0:0:
192,192,134056,1,0,0:0:0:0:
320,192,134380,1,0,0:0:0:0:
448,192,134705,1,0,0:0:0:0:
320,192,135029,1,0,0:0:0:0:
64,192,135353,128,0,135678:0:0:0:0:
192,192,135678,128,0,136002:0:0:0:0:
320,192,136002,128,0,136326:0:0:0:0:
448,192,136326,1,0,0:0:0:0:
64,192,136651,1,0,0:0:0:0:
320,192,136975,1,0,0:0:0:0:
192,192,137299,1,0,0:0:0:0:
320,192,137624,1,0,0:0:0:0:
64,192,137624,1,0,0:0:0:0:
448,192,137948,1,0,0:0:0:0:
192,192,138272,128,0,138597:0:0:0:0:
64,192,138597,1,0,0:0:0:0:
320,192,138921,1,0,0:0:0:0:
448,192,138921,1,0,0:0:0:0:
64,192,139245,1,0,0:0:0:0:
448,192,139570,1,0,0:0:0:0:
64,192,139894,1,0,0:0:0:0:
192,192,140218,1,0,0:0:0:0:
448,192,140218,1,0,0:0:0:0:
320,192,140543,1,0,0:0:0:0:
64,192,140867,128,0,141191:0:0:0:0:
320,192,141191,1,0,0:0:0:0:
64,192,141516,1,0,0:0:0:0:
448,192,141516,1,0,0:0:0:0:
320,192,141840,1,0,0:0:0:0:
192,192,142164,1,0,0:0:0:0:
320,192,142489,1,0,0:0:0:0:
64,192,142813,1,0,0:0:0:0:
448,192,142813,1,0,0:0:0:0:
320,192,143137,1,0,0:0:0:0:
64,192,143462,128,0,143786:0:0:0:0:
192,192,143786,1,0,0:0:0:0:
320,192,144110,1,0,0:0:0:0:
448,192,144110,1,0,0:0:0:0:
192,192,144435,1,0,0:0:0:0:
64,192,144759,1,0,0:0:0:0:
192,192,145083,1,0,0:0:0:0:
320,192,145407,1,0,0:0:0:0:
448,192,145407,1,0,0:0:0:0:
64,192,145732,128,0,146056:0:0:0:0:
192,192,146056,128,0,146380:0:0:0:0:
320,192,146380,128,0,146705:0:0:0:0:
64,192,146705,1,0,0:0:0:0:
448,192,146705,1,0,0:0:0:0:
64,192,147029,1,0,0:0:0:0:
448,192,147029,1,0,0:0:0:0:
64,192,147353,1,0,0:0:0:0:
448,192,147353,1,0,0:0:0:0:
64,192,147678,1,0,0:0:0:0:
448,192,147678,1,0,0:0:0:0:
192,192,148002,1,0,0:0:0:0:
320,192,148002,1,0,0:0:0:0:
192,192,148326,1,0,0:0:0:0:
320,192,148326,1,0,0:0:0:0:
192,192,148651,1,0,0:0:0:0:
320,192,148651,1,0,0:0:0:0:
192,192,148975,1,0,0:0:0:0:
320,192,148975,1,0,0:0:0:0:
64,192,149299,128,0,149786:0:0:0:0:
192,192,149786,128,0,150272:0:0:0:0:
320,192,150272,128,0,150597:0:0:0:0:
64,192,150597,128,0,151245:0:0:0:0:
448,192,151245,128,0,151570:0:0:0:0:
192,192,151570,128,0,151894:0:0:0:0:
320,192,151894,1,0,0:0:0:0:
320,192,152218,1,0,0:0:0:0:
320,192,152543,1,0,0:0:0:0:
64,192,152867,1,0,0:0:0:0:
192,192,153191,1,0,0:0:0:0:
448,192,153191,1,0,0:0:0:0:
320,192,153516,1,0,0:0:0:0:
64,192,153840,1,0,0:0:0:0:
320,192,154164,1,0,0:0:0:0:
64,192,154489,1,0,0:0:0:0:
448,192,154489,1,0,0:0:0:0:
320,192,154813,1,0,0:0:0:0:
192,192,155137,1,0,0:0:0:0:
64,192,155462,1,0,0:0:0:0:
192,192,155786,1,0,0:0:0:0:
448,192,155786,1,0,0:0:0:0:
64,192,156110,1,0,0:0:0:0:
448,192,156110,1,0,0:0:0:0:
192,192,156435,1,0,0:0:0:0:
448,192,156435,1,0,0:0:0:0:
320,192,156759,1,0,0:0:0:0:
448,192,156759,1,0,0:0:0:0:
192,192,157083,128,0,157407:0:0:0:0:
320,192,157407,1,0,0:0:0:0:
320,192,157732,1,0,0:0:0:0:
320,192,158056,1,0,0:0:0:0:
192,192,158380,128,0,158705:0:0:0:0:
320,192,158705,1,0,0:0:0:0:
320,192,159029,1,0,0:0:0:0:
320,192,159353,1,0,0:0:0:0:
192,192,159678,1,0,0:0:0:0:
448,192,159678,1,0,0:0:0:0:
448,192,160002,1,0,0:0:0:0:
448,192,160326,128,0,160975:0:0:0:0:
192,192,160651,1,0,0:0:0:0:
64,192,160975,1,0,0:0:0:0:
192,192,161299,1,0,0:0:0:0:
192,192,161624,1,0,0:0:0:0:
448,192,161948,1,0,0:0:0:0:
192,192,162272,1,0,0:0:0:0:
192,192,162597,1,0,0:0:0:0:
320,192,162921,1,0,0:0:0:0:
64,192,163245,1,0,0:0:0:0:
320,192,163570,1,0,0:0:0:0:
320,192,163894,1,0,0:0:0:0:
192,192,164218,128,0,164543:0:0:0:0:
320,192,164543,1,0,0:0:0:0:
64,192,164867,1,0,0:0:0:0:
320,192,165191,1,0,0:0:0:0:
192,192,165516,1,0,0:0:0:0:
320,192,165840,1,0,0:0:0:0:
448,192,166002,1,0,0:0:0:0:
320,192,166326,1,0,0:0:0:0:
64,192,166489,1,0,0:0:0:0:
192,192,166813,128,0,167137:0:0:0:0:
64,192,167137,1,0,0:0:0:0:
448,192,167462,1,0,0:0:0:0:
320,192,167786,1,0,0:0:0:0:
192,192,168110,1,0,0:0:0:0:
64,192,168435,1,0,0:0:0:0:
448,192,168597,1,0,0:0:0:0:
192,192,168921,1,0,0:0:0:0:
320,192,169083,1,0,0:0:0:0:
448,192,169245,1,0,0:0:0:0:
64,192,169570,1,0,0:0:0:0:
320,192,169894,1,0,0:0:0:0:
448,192,170056,1,0,0:0:0:0:
64,192,170705,1,0,0:0:0:0:
192,192,171029,1,0,0:0:0:0:
448,192,171191,128,0,171516:0:0:0:0:
192,192,171516,1,0,0:0:0:0:
320,192,171678,1,0,0:0:0:0:
192,192,171840,1,0,0:0:0:0:
64,192,172002,128,0,172326:0:0:0:0:
448,192,172326,128,0,172651:0:0:0:0:
