osu file format v14

[General]
AudioFilename: audio.mp3
AudioLeadIn: 0
PreviewTime: 114191
Countdown: 0
SampleSet: Soft
StackLeniency: 0.7
Mode: 2
LetterboxInBreaks: 0
WidescreenStoryboard: 1

[Editor]
DistanceSpacing: 1.8
BeatDivisor: 4
GridSize: 32
TimelineZoom: 2.3

[Metadata]
Title:Play Time!!
TitleUnicode:Play Time!!
Artist:maras k
ArtistUnicode:maras k
Creator:AJamez
Version:Rain!!
Source:
Tags:alienflybot afb icekalt Beat Piano Music kors k まらしぃ marasy
BeatmapID:1799363
BeatmapSetID:836171

[Difficulty]
HPDrainRate:6
CircleSize:3.8
OverallDifficulty:9
ApproachRate:9
SliderMultiplier:1.85
SliderTickRate:2

[Events]
//Background and Video events
0,0,"bluu.jpg",0,0
//Break Periods
//Storyboard Layer 0 (Background)
//Storyboard Layer 1 (Fail)
//Storyboard Layer 2 (Pass)
//Storyboard Layer 3 (Foreground)
//Storyboard Sound Samples

[TimingPoints]
1408,324.324324324324,4,2,1,70,1,0
1408,-100,4,2,1,70,0,0
11299,-100,4,2,1,60,0,0
11786,-100,4,2,10,75,0,0
11867,-100,4,2,1,75,0,0
19570,-100,4,2,1,65,0,0
20705,-100,4,2,1,75,0,0
27353,-100,4,2,10,75,0,0
27435,-100,4,2,1,75,0,0
28651,-100,4,2,1,60,0,0
35137,-100,4,2,2,20,0,0
35462,-100,4,2,2,30,0,0
35786,-100,4,2,2,40,0,0
36110,-100,4,2,2,50,0,0
36435,-100,4,2,1,60,0,0
37732,-100,4,2,10,80,0,1
37813,-100,4,2,1,80,0,1
46002,-100,4,2,1,60,0,1
46164,-100,4,2,1,80,0,1
47786,-100,4,2,1,70,0,1
48029,-100,4,2,1,70,0,0
48110,-100,4,2,10,80,0,1
48191,-100,4,2,1,80,0,1
56380,-100,4,2,1,60,0,1
56543,-100,4,2,1,80,0,1
57191,-100,4,2,1,80,0,1
57840,-100,4,2,1,80,0,1
58083,-100,4,2,1,5,0,1
58164,-100,4,2,1,90,0,0
58489,-100,4,1,10,75,0,1
58570,-100,4,2,1,75,0,1
66272,-100,4,2,1,70,0,1
67570,-100,4,2,1,75,0,1
68543,-100,4,2,1,60,0,1
68867,-100,4,2,1,75,0,1
77948,-100,4,2,1,50,0,0
78272,-100,4,2,1,60,0,0
78597,-100,4,2,1,70,0,0
78921,-100,4,2,1,80,0,0
79245,-100,4,2,1,90,0,0
80543,-100,4,1,2,20,0,0
80867,-100,4,1,2,30,0,0
81191,-100,4,1,2,40,0,0
81516,-100,4,1,2,50,0,0
81840,-100,4,2,10,60,0,0
81921,-100,4,2,1,60,0,0
92218,-100,4,2,1,70,0,0
102597,-100,4,2,1,75,0,0
114272,-100,4,1,1,40,0,0
114921,-100,4,1,1,50,0,0
115570,-100,4,2,3,65,0,1
115651,-100,4,2,1,85,0,1
125867,-100,4,2,1,85,0,0
125948,-100,4,2,1,85,0,1
133407,-100,4,2,1,50,0,1
133651,-100,4,2,1,5,0,1
133732,-100,4,2,1,75,0,0
135353,-100,4,2,1,55,0,0
135678,-100,4,2,1,65,0,0
136002,-100,4,2,1,75,0,0
136326,-100,4,2,3,70,0,1
136407,-100,4,2,2,80,0,1
146705,-100,4,1,1,50,0,0
147353,-100,4,1,1,60,0,0
148002,-100,4,1,1,40,0,0
148651,-100,4,1,1,60,0,0
149299,-100,4,1,1,50,0,0
149786,-100,4,1,1,40,0,0
150272,-100,4,1,1,30,0,0
150597,-100,4,1,1,50,0,0
151245,-100,4,1,1,60,0,0
151570,-100,4,1,1,40,0,0
151894,-100,4,2,3,70,0,1
151975,-100,4,2,2,80,0,1
157002,-100,4,2,1,80,0,0
157083,-100,4,2,1,60,0,1
157164,-100,4,2,1,60,0,0
160975,-100,4,2,1,70,0,0
162272,-100,4,1,10,70,0,0
162353,-100,4,2,1,50,0,0
170056,-100,4,2,1,60,0,0
172326,-100,4,2,1,60,0,0
172651,-100,4,2,1,5,0,0

[Colours]
Combo1 : 1,254,254
Combo2 : 1,254,172
Combo3 : 2,184,253

[HitObjects]
81,337,1408,6,0,L|54:214,1,92.5
193,191,1732,2,0,L|200:77,1,92.5
344,93,2056,2,0,L|357:-17,1,92.5
403,4,2299,1,0,0:0:0:0:
456,29,2380,2,0,L|321:53,1,92.5
197,130,2705,5,0,0:0:0:0:
277,169,2867,1,0,0:0:0:0:
300,255,3029,1,0,0:0:0:0:
249,329,3191,1,0,0:0:0:0:
99,347,3353,2,0,P|40:310|37:182,1,185
103,120,3840,1,0,0:0:0:0:
272,55,4002,6,0,L|179:35,1,92.5
313,155,4326,2,0,P|384:157|474:245,1,185
355,263,4813,1,0,0:0:0:0:
468,347,4975,1,0,0:0:0:0:
279,365,5137,2,0,L|73:346,1,185
182,338,5624,5,0,0:0:0:0:
221,258,5786,1,0,0:0:0:0:
174,183,5948,1,0,0:0:0:0:
85,183,6110,1,0,0:0:0:0:
208,96,6272,1,0,0:0:0:0:
240,63,6353,1,0,0:0:0:0:
280,40,6434,1,0,0:0:0:0:
325,29,6515,1,0,0:0:0:0:
371,30,6597,6,0,P|406:90|409:137,1,92.5
278,188,6921,2,0,P|243:247|240:294,1,92.5
77,301,7245,2,0,P|94:349|142:371,1,92.5
181,362,7489,1,0,0:0:0:0:
230,353,7570,2,0,P|300:347|332:328,1,92.5
164,187,7894,6,0,P|94:193|62:212,1,92.5
230,353,8218,2,0,P|300:347|332:328,1,92.5
481,271,8543,2,0,L|465:76,1,185
361,43,9029,1,0,0:0:0:0:
183,155,9191,2,0,L|281:169,1,92.5
125,255,9516,2,0,P|82:211|114:64,1,185
206,55,10002,1,0,0:0:0:0:
328,51,10164,1,0,0:0:0:0:
503,240,10326,6,0,L|316:284,1,185
256,218,10813,1,0,0:0:0:0:
176,172,10975,1,0,0:0:0:0:
87,147,11137,1,0,0:0:0:0:
237,77,11299,2,0,L|232:25,1,46.25
210,0,11462,2,0,L|57:-21,1,138.75
260,288,11786,6,0,L|451:235,2,185
402,350,12597,1,0,0:0:0:0:
392,304,12678,1,0,0:0:0:0:
382,259,12759,1,0,0:0:0:0:
267,173,12921,1,0,0:0:0:0:
74,157,13083,5,0,0:0:0:0:
59,55,13245,1,0,0:0:0:0:
232,373,13407,1,0,0:0:0:0:
247,271,13569,1,0,0:0:0:0:
415,226,13732,2,0,L|401:129,1,92.5
348,113,13975,1,0,0:0:0:0:
294,101,14056,1,0,0:0:0:0:
423,48,14218,1,0,0:0:0:0:
246,228,14380,6,0,L|336:253,1,92.5
188,134,14705,2,0,L|3:200,1,185
135,268,15191,1,0,0:0:0:0:
21,345,15353,1,0,0:0:0:0:
195,384,15516,6,0,L|380:318,1,185
234,259,16002,2,0,L|228:146,1,92.5
95,113,16326,2,0,L|99:-6,1,92.5
260,35,16651,1,0,0:0:0:0:
125,212,16813,1,0,0:0:0:0:
385,318,16975,6,0,P|411:273|426:140,1,185
166,127,17624,1,0,0:0:0:0:
155,171,17705,1,0,0:0:0:0:
144,216,17786,1,0,0:0:0:0:
133,261,17867,1,0,0:0:0:0:
122,306,17948,2,0,L|217:322,1,92.5
395,208,18272,6,0,L|300:223,1,92.5
450,101,18597,2,0,L|352:118,1,92.5
194,59,18921,2,0,L|390:21,1,185
133,186,19407,1,0,0:0:0:0:
263,200,19570,5,0,0:0:0:0:
307,209,19651,1,0,0:0:0:0:
341,240,19732,1,0,0:0:0:0:
355,283,19813,1,0,0:0:0:0:
346,328,19894,1,0,0:0:0:0:
316,363,19975,1,0,0:0:0:0:
273,377,20056,1,0,0:0:0:0:
110,358,20218,5,0,0:0:0:0:
67,341,20299,1,0,0:0:0:0:
43,303,20380,1,0,0:0:0:0:
45,257,20461,1,0,0:0:0:0:
73,221,20543,2,0,L|154:202,1,46.25
320,176,20705,6,0,P|318:104|259:-5,1,185
159,25,21191,1,0,0:0:0:0:
268,4,21353,1,0,0:0:0:0:
379,43,21516,2,0,P|428:81|482:226,1,185
369,311,22002,1,0,0:0:0:0:
110,340,22164,6,0,P|164:268|294:232,1,185
139,179,22651,1,0,0:0:0:0:
268,140,22813,2,0,P|245:94|108:40,1,185
399,313,23299,6,0,L|407:118,1,185
256,75,23786,1,0,0:0:0:0:
397,29,23948,1,0,0:0:0:0:
223,215,24110,2,0,P|286:241|421:238,1,185
134,353,24597,5,0,0:0:0:0:
263,336,24759,2,0,L|270:237,1,92.5
134,353,25083,1,0,0:0:0:0:
263,337,25245,1,0,0:0:0:0:
32,196,25407,6,0,L|22:84,1,92.5
159,135,25732,1,0,0:0:0:0:
23,103,25894,2,0,P|60:56|192:5,1,185
463,93,26380,5,0,0:0:0:0:
116,287,26543,1,0,0:0:0:0:
262,325,26705,2,0,P|337:336|472:308,1,185
418,281,27110,1,0,0:0:0:0:
380,254,27191,1,0,0:0:0:0:
336,241,27272,1,0,0:0:0:0:
126,171,27353,6,0,P|125:57|175:-17,1,185
390,204,28002,2,0,L|175:258,1,185
430,348,28651,2,0,L|457:258,1,92.5
354,132,28975,6,0,P|358:86|314:37,1,92.5
290,15,29218,1,0,0:0:0:0:
249,0,29299,1,0,0:0:0:0:
205,0,29380,1,0,0:0:0:0:
159,0,29461,1,0,0:0:0:0:
301,80,29705,1,0,0:0:0:0:
48,214,29948,6,0,P|96:251|200:261,2,138.75
252,145,30759,1,0,0:0:0:0:
455,219,31083,1,0,0:0:0:0:
409,226,31164,1,0,0:0:0:0:
374,255,31245,1,0,0:0:0:0:
359,298,31326,1,0,0:0:0:0:
369,343,31407,1,0,0:0:0:0:
400,377,31488,1,0,0:0:0:0:
443,390,31569,5,0,0:0:0:0:
488,378,31651,1,0,0:0:0:0:
455,346,31732,1,0,0:0:0:0:
417,320,31813,1,0,0:0:0:0:
374,302,31894,1,0,0:0:0:0:
329,292,31975,1,0,0:0:0:0:
283,290,32056,2,0,L|396:263,2,92.5
33,204,32543,6,0,L|192:175,1,138.75
29,101,33029,1,0,0:0:0:0:
289,139,33353,2,0,P|237:104|131:84,1,138.75
398,279,33840,6,0,L|250:318,2,138.75
253,204,34489,2,0,L|235:91,1,92.5
83,78,34813,2,0,L|52:-11,1,92.5
296,27,35137,5,0,0:0:0:0:
339,42,35218,1,0,0:0:0:0:
371,74,35299,1,0,0:0:0:0:
389,117,35380,1,0,0:0:0:0:
387,163,35461,1,0,0:0:0:0:
367,204,35542,1,0,0:0:0:0:
332,234,35623,1,0,0:0:0:0:
287,246,35704,1,0,0:0:0:0:
238,246,35786,6,0,L|178:254,3,46.25
141,261,36110,1,0,0:0:0:0:
97,248,36191,1,0,0:0:0:0:
68,213,36272,1,0,0:0:0:0:
64,168,36353,1,0,0:0:0:0:
290,338,36435,5,0,0:0:0:0:
474,213,36759,2,0,L|479:172,1,23.125
343,123,37083,2,0,L|331:82,1,23.125
193,86,37407,2,0,P|250:46|348:24,1,138.75
109,182,37732,6,0,L|135:289,1,92.5
282,276,38056,2,0,L|272:394,1,92.5
158,380,38380,1,0,0:0:0:0:
328,169,38543,1,0,0:0:0:0:
281,164,38624,1,0,0:0:0:0:
235,159,38705,1,0,0:0:0:0:
374,173,38867,1,0,0:0:0:0:
146,91,39029,6,0,L|259:60,1,92.5
397,280,39353,2,0,L|286:253,1,92.5
61,353,39678,1,0,0:0:0:0:
188,291,39840,1,0,0:0:0:0:
186,244,39921,1,0,0:0:0:0:
184,198,40002,1,0,0:0:0:0:
308,115,40164,1,0,0:0:0:0:
55,51,40326,6,0,L|43:170,1,92.5
220,356,40651,2,0,L|32:300,1,185
148,231,41137,1,0,0:0:0:0:
42,223,41299,1,0,0:0:0:0:
311,324,41462,6,0,P|306:270|219:164,1,185
105,115,41948,2,0,L|105:14,1,92.5
236,59,42272,1,0,0:0:0:0:
282,61,42353,1,0,0:0:0:0:
328,64,42434,1,0,0:0:0:0:
208,302,42597,2,0,L|107:330,1,92.5
366,353,42921,6,0,P|441:319|443:248,1,138.75
389,235,43245,2,0,L|289:216,1,92.5
437,130,43570,1,0,0:0:0:0:
391,122,43651,1,0,0:0:0:0:
345,114,43732,1,0,0:0:0:0:
232,66,43894,1,0,0:0:0:0:
343,30,44056,2,0,L|295:22,1,46.25
127,168,44218,6,0,L|124:275,1,92.5
257,286,44543,2,0,L|259:224,2,46.25
28,365,44867,1,0,0:0:0:0:
167,354,45029,2,0,L|153:301,1,46.25
125,257,45191,2,0,L|31:235,1,92.5
284,144,45516,5,0,0:0:0:0:
170,111,45678,1,0,0:0:0:0:
285,46,45840,2,0,L|389:29,1,92.5
387,94,46083,1,0,0:0:0:0:
222,242,46164,2,0,L|103:266,2,92.5
385,344,46651,6,0,L|168:362,1,185
215,315,47056,1,0,0:0:0:0:
248,284,47137,1,0,0:0:0:0:
381,231,47299,2,0,L|279:200,2,92.5
224,144,47786,1,0,0:0:0:0:
178,137,47867,1,0,0:0:0:0:
132,130,47948,1,0,0:0:0:0:
86,123,48029,1,0,0:0:0:0:
