osu file format v14

[General]
AudioFilename: maoto - Himawari no Saku Basho ~daydream flowers~.mp3
AudioLeadIn: 1000
PreviewTime: 77484
Countdown: 0
SampleSet: Soft
StackLeniency: 0.7
Mode: 0
LetterboxInBreaks: 0
WidescreenStoryboard: 1

[Editor]
Bookmarks: 590,10695,17011,27116,37221,47326,57432,67537,77642,87747,97853
DistanceSpacing: 0.7
BeatDivisor: 8
GridSize: 4
TimelineZoom: 1.8

[Metadata]
Title:Himawari no Saku Basho ~daydream flowers~
TitleUnicode:向日葵の咲く場所 ~daydream flowers~
Artist:maoto
ArtistUnicode:maoto
Creator:Kencho
Version:Lunatic
Source:東方夢想夏郷
Tags:Touhou Musou Kakyou -A Summer Day's Dream- 2話 時音 TOKINE 舞風 MAIKAZE IamKwaN DreaM117er 23konG
BeatmapID:786538
BeatmapSetID:357575

[Difficulty]
HPDrainRate:6
CircleSize:4
OverallDifficulty:8
ApproachRate:9
SliderMultiplier:3
SliderTickRate:2

[Events]
//Background and Video events
Video,-1000,"video.flv"
0,0,"BG.jpg",0,0
//Break Periods
2,14525,16411
//Storyboard Layer 0 (Background)
//Storyboard Layer 1 (Fail)
//Storyboard Layer 2 (Pass)
//Storyboard Layer 3 (Foreground)
//Storyboard Sound Samples

[TimingPoints]
590,631.578947368421,4,2,1,40,1,0
590,-200,4,2,1,40,0,0
17011,631.578947368421,4,2,1,80,1,0
34695,-100,4,2,1,90,0,0
37221,-100,4,2,1,80,0,0
54905,-100,4,2,1,90,0,0
56168,-83.3333333333333,4,2,1,100,0,0
57432,-133.333333333333,4,2,1,80,0,0
67537,-100,4,2,1,90,0,0
75116,-83.3333333333333,4,2,1,100,0,0
77642,-90.9090909090909,4,2,1,100,0,1
97853,-90.9090909090909,4,2,1,100,0,0
98011,-100,4,2,1,70,0,0
99116,-100,4,2,1,60,0,0
100379,-100,4,2,1,50,0,0
101642,-100,4,2,1,40,0,0
102274,-100,4,2,1,30,0,0
102905,-100,4,2,1,25,0,0
103537,-100,4,2,1,20,0,0
104168,-100,4,2,1,15,0,0
104800,-100,4,2,1,10,0,0
105432,-100,4,2,1,5,0,0

[Colours]
Combo1 : 192,64,192
Combo2 : 255,64,64
Combo3 : 255,128,64
Combo4 : 255,255,96
Combo5 : 96,255,64
Combo6 : 0,128,255

[HitObjects]
107,271,590,6,0,B|158:271|158:271|207:261|207:261|256:261,1,150,6|0,0:1|0:0,0:0:0:0:
107,271,1537,2,0,L|110:308,1,37.5,4|0,0:1|0:0,0:0:0:0:
405,113,3116,6,0,B|354:113|354:113|305:123|305:123|256:123,1,150,6|0,0:1|0:0,0:0:0:0:
405,113,4063,2,0,L|401:150,1,37.5,4|0,0:1|0:0,0:0:0:0:
97,205,5011,5,8,0:1:0:0:
92,216,5326,1,8,0:1:0:0:
224,292,5642,6,0,P|261:297|298:298,1,75,6|8,0:1|0:1,0:0:0:0:
404,192,6274,2,0,P|366:193|329:198,1,75,0|4,0:0|0:1,0:0:0:0:
116,275,7537,2,0,P|119:220|95:170,1,112.5
36,236,8168,5,6,0:1:0:0:
188,184,8800,5,0,0:0:0:0:
116,276,9116,2,0,L|114:313,1,37.5,4|0,0:1|0:0,0:0:0:0:
158,341,9432,6,0,P|213:346|264:324,1,112.5
261,230,10063,5,8,0:1:0:0:
262,241,10379,1,8,0:1:0:0:
426,257,10695,6,0,P|422:184|366:137,1,150,6|0,0:1|0:0,0:0:0:0:
340,303,11642,2,0,L|334:339,1,37.5,4|0,0:1|0:0,0:0:0:0:
176,332,13221,6,0,P|103:328|56:272,1,150,6|0,0:1|0:0,0:0:0:0:
256,246,14168,2,0,L|262:282,1,37.5,4|0,0:1|0:0,0:0:0:0:
349,189,17011,6,0,P|349:263|303:320,1,150,6|0,0:0|0:0,0:0:0:0:
109,333,17642,2,0,P|109:259|155:202,1,150,8|0,0:0|0:0,0:0:0:0:
254,146,18116,1,0,0:0:0:0:
253,258,18274,5,0,0:0:0:0:
461,140,18589,1,0,0:0:0:0:
255,18,18905,1,8,0:0:0:0:
217,124,19063,1,2,0:0:0:0:
144,38,19221,1,2,0:0:0:0:
290,90,19379,1,8,0:3:0:0:
290,90,19537,6,0,P|318:157|289:224,1,150,2|0,0:0|0:0,0:0:0:0:
106,158,20168,2,0,P|77:90|106:23,1,150,8|0,0:0|0:0,0:0:0:0:
195,93,20642,1,0,0:0:0:0:
258,167,20800,6,0,B|307:167|307:167|351:147|351:147|403:147,1,150
506,295,21432,2,0,P|509:332|509:369,1,75,10|0,0:0|0:0,0:0:0:0:
366,278,21747,2,0,P|362:240|362:203,1,75,8|0,0:3|0:0,0:0:0:0:
263,95,22063,6,0,P|197:127|127:106,1,150,2|0,0:0|0:0,0:0:0:0:
78,295,22695,2,0,P|143:262|213:283,1,150,8|0,0:0|0:0,0:0:0:0:
305,349,23168,1,0,0:0:0:0:
316,237,23326,5,0,0:0:0:0:
151,354,23642,1,0,0:0:0:0:
119,115,23958,1,10,0:0:0:0:
181,200,24116,1,0,0:0:0:0:
78,294,24274,2,0,P|74:257|77:220,1,75,0|8,0:0|0:3,0:0:0:0:
198,120,24589,6,0,P|270:141|341:120,1,150,2|0,0:0|0:0,0:0:0:0:
443,72,25063,1,0,0:0:0:0:
350,8,25221,1,8,0:0:0:0:
350,233,25537,1,2,0:0:0:0:
350,233,25853,6,0,L|346:307,1,75
240,271,26168,2,0,L|236:345,1,75,2|0,0:0|0:0,0:0:0:0:
131,305,26484,1,8,0:0:0:0:
195,186,26642,1,2,0:0:0:0:
76,204,26800,1,0,0:0:0:0:
166,66,26958,1,2,0:0:0:0:
166,66,27037,1,0,0:0:0:0:
166,66,27116,6,0,P|235:95|308:84,1,150,2|0,0:0|0:0,0:0:0:0:
410,39,27589,1,0,0:0:0:0:
481,126,27747,2,0,P|491:199|462:267,1,150,8|0,0:0|0:0,0:0:0:0:
376,340,28221,1,0,0:0:0:0:
481,378,28379,5,0,0:0:0:0:
323,177,28695,1,0,0:0:0:0:
142,335,29011,1,8,0:0:0:0:
90,236,29168,1,2,0:0:0:0:
202,240,29326,1,2,0:0:0:0:
64,313,29484,1,8,0:3:0:0:
64,313,29642,6,0,P|13:260|24:188,1,150,2|0,0:0|0:0,0:0:0:0:
99,104,30116,1,0,0:0:0:0:
205,141,30274,2,0,P|276:156|339:118,1,150,8|0,0:0|0:0,0:0:0:0:
257,41,30747,1,0,0:0:0:0:
205,141,30905,5,0,0:0:0:0:
323,332,31221,1,0,0:0:0:0:
473,164,31537,2,0,P|476:127|476:90,1,75,8|0,0:0|0:0,0:0:0:0:
362,187,31853,2,0,P|358:225|358:262,1,75,8|8,0:3|0:0,0:0:0:0:
241,211,32168,6,0,P|175:179|105:200,1,150,2|0,0:0|0:0,0:0:0:0:
167,275,32642,1,0,0:0:0:0:
307,286,32800,2,0,P|339:220|318:150,1,150,8|0,0:0|0:0,0:0:0:0:
241,211,33274,1,0,0:0:0:0:
233,349,33432,6,0,P|299:381|369:360,1,150,10|0,0:3|0:0,0:0:0:0:
307,286,33905,1,0,0:0:0:0:
167,275,34063,2,0,P|145:305|134:341,1,75,10|0,0:0|0:0,0:0:0:0:
273,277,34379,2,0,P|262:241|240:210,1,75,0|8,0:0|0:3,0:0:0:0:
89,111,34695,6,0,L|163:106,1,75,10|0,0:3|0:0,0:0:0:0:
276,97,35011,1,0,0:0:0:0:
276,97,35168,1,2,0:0:0:0:
135,204,35326,6,0,L|209:199,1,75,10|0,0:0|0:0,0:0:0:0:
322,190,35642,1,0,0:0:0:0:
322,190,35800,1,2,0:0:0:0:
276,97,35958,6,0,L|272:22,1,75,10|0,0:3|0:0,0:0:0:0:
182,137,36274,1,0,0:0:0:0:
322,190,36432,1,10,0:3:0:0:
322,190,36511,1,0,0:0:0:0:
322,190,36589,6,0,P|359:191|396:187,1,75,10|0,0:0|0:0,0:0:0:0:
226,232,36905,2,0,P|224:269|228:306,1,75,8|0,0:3|0:0,0:0:0:0:
402,282,37221,5,4,0:0:0:0:
402,282,37537,2,0,L|406:356,1,75
230,306,37853,2,0,L|226:232,1,75,8|0,0:0|0:0,0:0:0:0:
327,115,38168,2,0,L|322:189,1,75,2|0,0:0|0:0,0:0:0:0:
402,282,38484,6,0,B|403:233|403:233|425:189|425:189|427:137,1,150,2|0,0:0|0:0,0:0:0:0:
327,115,38958,1,2,0:0:0:0:
319,227,39116,2,0,L|314:301,1,75,10|0,0:0|0:0,0:0:0:0:
245,150,39432,2,0,L|240:75,1,75,2|8,0:0|0:3,0:0:0:0:
319,227,39747,6,0,P|251:256|180:237,1,150,10|0,0:3|0:0,0:0:0:0:
86,188,40221,2,0,L|80:262,1,75,0|8,0:0|0:0,0:0:0:0:
187,368,40537,1,0,0:0:0:0:
320,298,40695,1,2,0:0:0:0:
244,213,40853,1,0,0:0:0:0:
244,213,41011,6,0,P|221:242|209:278,1,75,2|0,0:3|0:0,0:0:0:0:
320,298,41326,2,0,P|356:301|392:296,1,75,0|2,0:0|0:0,0:0:0:0:
355,193,41642,2,0,P|339:158|316:129,1,75,8|0,0:0|0:0,0:0:0:0:
204,76,41958,1,10,0:3:0:0:
244,213,42116,1,8,0:0:0:0:
355,193,42274,6,0,P|391:129|378:56,1,150,10|0,0:3|0:0,0:0:0:0:
245,138,42747,2,0,P|241:175|244:213,1,75,2|8,0:0|0:0,0:0:0:0:
361,294,43063,2,0,P|364:256|362:219,1,75,0|2,0:0|0:0,0:0:0:0:
339,108,43379,1,0,0:0:0:0:
244,213,43537,6,0,P|309:249|383:243,1,150,2|0,0:0|0:0,0:0:0:0:
410,104,44011,2,0,P|375:169|382:243,1,150,2|0,0:0|0:0,0:0:0:0:
496,142,44484,2,0,P|499:104|497:67,1,75,2|8,0:0|0:3,0:0:0:0:
340,192,44800,6,0,P|269:215|198:192,1,150,10|0,0:3|0:0,0:0:0:0:
99,157,45274,1,2,0:0:0:0:
86,261,45432,2,0,P|83:298|85:335,1,75,8|0,0:0|0:0,0:0:0:0:
199,193,45747,2,0,P|201:155|199:118,1,75,2|8,0:0|0:3,0:0:0:0:
305,74,46063,6,0,P|342:68|379:73,2,75,2|0|2,0:0|0:0|0:0,0:0:0:0:
443,154,46537,2,0,P|475:88|462:15,1,150,10|0,0:3|0:0,0:0:0:0:
343,155,47011,2,0,P|337:192|342:229,1,75,10|8,0:3|0:0,0:0:0:0:
373,336,47326,6,0,P|299:344|235:308,1,150,10|0,0:3|0:0,0:0:0:0:
163,229,47800,1,2,0:0:0:0:
260,197,47958,2,0,P|265:159|260:122,1,75,8|2,0:0|0:0,0:0:0:0:
145,83,48274,2,0,P|140:119|144:156,1,75,2|0,0:0|0:0,0:0:0:0:
217,300,48589,5,10,0:3:0:0:
217,300,48905,2,0,L|212:374,1,75,0|2,0:0|0:0,0:0:0:0:
311,262,49221,2,0,L|311:187,1,75,8|0,0:0|0:0,0:0:0:0:
410,300,49537,2,0,L|414:374,1,75,2|8,0:0|0:3,0:0:0:0:
488,243,49853,6,0,P|505:171|469:107,1,150,10|0,0:3|0:0,0:0:0:0:
333,190,50326,2,0,P|370:192|406:184,1,75,2|8,0:0|0:0,0:0:0:0:
362,88,50642,1,0,0:0:0:0:
241,145,50800,2,0,P|232:181|235:218,1,75,2|0,0:0|0:0,0:0:0:0:
212,327,51116,6,0,P|140:312|75:347,1,150,2|0,0:0|0:0,0:0:0:0:
131,232,51589,2,0,P|145:160|110:95,1,150,2|0,0:0|0:0,0:0:0:0:
226,151,52063,2,0,P|260:165|297:165,1,75,10|8,0:3|0:0,0:0:0:0:
425,147,52379,6,0,P|446:217|433:290,1,150,10|0,0:3|0:0,0:0:0:0:
311,332,52853,2,0,P|307:295|312:258,1,75,2|8,0:0|0:0,0:0:0:0:
343,158,53168,1,0,0:0:0:0:
433,291,53326,1,2,0:0:0:0:
312,258,53484,1,0,0:0:0:0:
425,147,53642,5,2,0:0:0:0:
425,147,53958,2,0,P|423:109|411:74,1,75,0|2,0:0|0:0,0:0:0:0:
357,230,54274,2,0,P|390:247|426:254,1,75,8|0,0:0|0:0,0:0:0:0:
318,130,54589,2,0,P|286:150|261:178,1,75,2|8,0:0|0:3,0:0:0:0:
425,147,54905,6,0,P|413:74|356:28,1,150,10|0,0:3|0:0,0:0:0:0:
228,61,55379,1,0,0:0:0:0:
186,166,55537,2,0,P|259:173|318:130,1,150,10|0,0:0|0:0,0:0:0:0:
223,43,56011,1,0,0:0:0:0:
61,130,56168,6,0,P|7:199|25:284,1,179.999994506836,10|0,0:3|0:0,0:0:0:0:
186,166,56642,1,10,0:3:0:0:
186,166,56721,1,0,0:0:0:0:
186,166,56800,2,0,P|191:121|185:76,1,89.9999972534181,10|2,0:0|0:0,0:0:0:0:
61,131,57116,1,10,0:3:0:0:
144,290,57274,1,8,0:0:0:0:
309,251,57432,6,0,P|364:243|420:251,1,112.500004291535,6|8,0:0|0:3,0:0:0:0:
297,166,57905,2,0,P|241:173|186:166,1,112.500004291535,10|8,0:0|0:3,0:0:0:0:
94,197,58379,2,0,P|90:224|91:253,1,56.2500021457673,2|8,0:0|0:3,0:0:0:0:
185,277,58695,6,0,P|193:221|186:166,1,112.500004291535,2|0,0:0|0:0,0:0:0:0:
144,79,59168,1,8,0:3:0:0:
144,79,59326,2,0,P|199:86|255:78,1,112.500004291535,10|0,0:0|0:0,0:0:0:0:
348,58,59800,1,8,0:3:0:0:
348,58,59958,6,0,L|344:170,1,112.500004291535,10|8,0:3|0:3,0:0:0:0:
253,200,60432,2,0,L|256:312,1,112.500004291535,10|8,0:0|0:3,0:0:0:0:
163,292,60905,2,0,L|164:348,1,56.2500021457673,2|8,0:0|0:3,0:0:0:0:
72,321,61221,6,0,L|70:264,2,56.2500021457673,2|0|0,0:0|0:0|0:0,0:0:0:0:
163,292,61695,2,0,P|170:236|163:180,1,112.500004291535,10|0,0:3|0:0,0:0:0:0:
112,100,62168,2,0,L|74:142,1,56.2500021457673,2|8,0:0|0:0,0:0:0:0:
163,181,62484,6,0,P|218:188|274:180,1,112.500004291535,10|8,0:3|0:3,0:0:0:0:
337,253,62958,2,0,P|329:308|337:364,1,112.500004291535,10|8,0:0|0:3,0:0:0:0:
245,335,63432,2,0,L|188:335,1,56.2500021457673,2|8,0:0|0:3,0:0:0:0:
98,364,63747,6,0,P|105:308|97:252,1,112.500004291535,2|0,0:0|0:0,0:0:0:0:
163,181,64221,1,10,0:3:0:0:
163,181,64379,2,0,L|158:124,1,56.2500021457673,10|0,0:0|0:0,0:0:0:0:
76,74,64695,2,0,L|71:130,1,56.2500021457673,10|8,0:3|0:0,0:0:0:0:
107,238,65011,6,0,P|162:230|218:237,1,112.500004291535,10|8,0:3|0:3,0:0:0:0:
275,335,65484,2,0,P|219:342|163:335,1,112.500004291535,10|8,0:0|0:3,0:0:0:0:
52,310,65958,2,0,L|53:366,1,56.2500021457673,2|8,0:0|0:3,0:0:0:0:
141,295,66274,6,0,L|144:183,1,112.500004291535,2|0,0:0|0:0,0:0:0:0:
41,235,66747,1,8,0:3:0:0:
41,235,66905,2,0,L|38:347,1,112.500004291535,10|8,0:0|0:3,0:0:0:0:
141,295,67379,1,8,0:0:0:0:
141,295,67537,5,6,0:0:0:0:
222,241,67695,1,0,0:0:0:0:
135,197,67853,1,0,0:0:0:0:
229,338,68011,2,0,B|280:339|280:339|325:321|325:321|374:323,1,150,10|8,0:0|0:3,0:0:0:0:
438,248,68484,2,0,L|439:173,1,75,2|8,0:0|0:3,0:0:0:0:
374,99,68800,6,0,P|302:117|235:88,1,150,2|0,0:0|0:0,0:0:0:0:
163,22,69274,1,10,0:3:0:0:
130,129,69432,2,0,P|126:166|126:203,1,75,8|0,0:0|0:0,0:0:0:0:
305,232,69747,2,0,P|305:194|301:157,1,75,10|8,0:3|0:0,0:0:0:0:
245,65,70063,6,0,B|196:65|196:65|152:45|152:45|100:45,1,150,10|8,0:3|0:3,0:0:0:0:
43,188,70537,2,0,P|103:229|176:222,1,150,10|0,0:0|0:0,0:0:0:0:
272,266,71011,2,0,L|275:340,1,75,2|0,0:0|0:3,0:0:0:0:
380,220,71326,6,0,L|383:145,2,75,2|0|0,0:0|0:0|0:0,0:0:0:0:
372,325,71800,1,8,0:3:0:0:
272,266,71958,2,0,P|234:262|197:264,1,75,10|0,0:0|0:0,0:0:0:0:
108,335,72274,2,0,P|70:337|33:334,1,75,8|8,0:3|0:0,0:0:0:0:
120,183,72589,6,0,P|123:220|120:257,1,75,10|0,0:3|0:0,0:0:0:0:
20,223,72905,1,0,0:0:0:0:
82,84,73063,2,0,P|119:80|156:83,1,75,0|8,0:0|0:0,0:0:0:0:
252,129,73379,1,0,0:0:0:0:
120,183,73537,1,2,0:0:0:0:
156,84,73695,1,8,0:3:0:0:
214,226,73853,6,0,P|228:299|197:367,1,150,10|0,0:3|0:0,0:0:0:0:
117,287,74326,1,2,0:0:0:0:
85,179,74484,2,0,P|79:141|80:104,1,75,8|0,0:0|0:0,0:0:0:0:
106,9,74800,1,2,0:0:0:0:
195,131,74958,1,8,0:3:0:0:
117,287,75116,5,10,0:3:0:0:
117,287,75274,2,0,L|27:294,1,89.9999972534181,0|2,0:0|0:0,0:0:0:0:
214,226,75589,1,2,0:0:0:0:
214,226,75747,2,0,L|303:218,1,89.9999972534181,8|2,0:0|0:0,0:0:0:0:
195,131,76063,1,2,0:0:0:0:
146,304,76221,1,0,0:0:0:0:
304,218,76379,6,0,P|325:131|305:44,1,179.999994506836,10|0,0:3|0:0,0:0:0:0:
114,131,76853,1,8,0:3:0:0:
114,131,76932,1,0,0:0:0:0:
114,131,77011,5,10,0:0:0:0:
304,218,77168,1,8,0:3:0:0:
197,85,77326,1,2,0:0:0:0:
220,262,77484,1,8,0:0:0:0:
283,125,77642,6,0,P|288:85|283:44,1,82.5000025177003,4|2,0:0|0:0,0:0:0:0:
132,220,77958,2,0,P|126:260|131:301,1,82.5000025177003,2|0,0:0|0:0,0:0:0:0:
220,262,78274,1,8,0:0:0:0:
114,131,78432,1,2,0:0:0:0:
76,295,78589,2,0,P|155:309|220:262,1,165.000005035401,2|8,0:0|0:3,0:0:0:0:
263,154,79063,5,0,0:0:0:0:
347,233,79221,2,0,P|386:242|427:240,1,82.5000025177003,2|0,0:0|0:0,0:0:0:0:
246,259,79537,2,0,P|264:295|292:325,1,82.5000025177003,8|2,0:0|0:0,0:0:0:0:
164,196,79853,2,0,P|147:233|143:274,1,82.5000025177003,0|8,0:0|0:3,0:0:0:0:
236,118,80168,6,0,P|157:96|83:128,1,165.000005035401,8|0,0:3|0:0,0:0:0:0:
48,233,80642,1,0,0:0:0:0:
161,277,80800,2,0,P|167:237|164:196,1,82.5000025177003,8|0,0:0|0:0,0:0:0:0:
280,131,81116,2,0,L|291:212,1,82.5000025177003,2|0,0:0|0:0,0:0:0:0:
191,101,81432,6,0,L|202:19,1,82.5000025177003,10|0,0:3|0:0,0:0:0:0:
122,204,81747,1,0,0:0:0:0:
191,101,81905,1,2,0:0:0:0:
315,250,82063,1,10,0:0:0:0:
280,131,82221,1,0,0:0:0:0:
161,277,82379,2,0,P|157:318|162:358,1,82.5000025177003,10|8,0:0|0:0,0:0:0:0:
321,309,82695,6,0,P|338:229|306:154,1,165.000005035401,10|2,0:3|0:0,0:0:0:0:
247,65,83168,1,0,0:0:0:0:
377,87,83326,2,0,P|417:82|456:69,1,82.5000025177003,8|2,0:0|0:0,0:0:0:0:
279,22,83642,2,0,P|238:26|199:39,1,82.5000025177003
222,213,83958,6,0,P|227:253|222:294,1,82.5000025177003,10|0,0:3|0:0,0:0:0:0:
148,124,84274,1,0,0:0:0:0:
261,143,84432,6,0,P|293:168|318:200,1,82.5000025177003,2|8,0:0|0:0,0:0:0:0:
148,124,84747,1,0,0:0:0:0:
247,65,84905,6,0,P|287:59|328:64,1,82.5000025177003,2|8,0:0|0:3,0:0:0:0:
423,164,85221,6,0,P|421:245|372:309,1,165.000005035401,10|0,0:3|0:0,0:0:0:0:
195,200,85695,2,0,L|112:200,1,82.5000025177003,0|8,0:0|0:0,0:0:0:0:
219,311,86011,1,0,0:0:0:0:
304,233,86168,2,0,L|386:233,1,82.5000025177003,0|8,0:0|0:3,0:0:0:0:
424,108,86484,6,0,L|424:25,1,82.5000025177003,10|0,0:3|0:0,0:0:0:0:
512,72,86800,1,0,0:0:0:0:
424,212,86958,1,2,0:0:0:0:
424,108,87116,1,10,0:0:0:0:
512,248,87274,1,0,0:0:0:0:
334,158,87432,2,0,P|329:117|340:77,1,82.5000025177003,10|8,0:3|0:0,0:0:0:0:
424,212,87747,6,0,P|363:263|284:250,1,165.000005035401,6|2,0:0|0:0,0:0:0:0:
240,115,88221,1,0,0:0:0:0:
334,158,88379,1,8,0:0:0:0:
208,219,88537,2,0,P|199:260|203:300,1,82.5000025177003,2|0,0:0|0:0,0:0:0:0:
324,269,88853,1,8,0:3:0:0:
378,157,89011,6,0,P|382:116|378:75,1,82.5000025177003,8|0,0:3|0:0,0:0:0:0:
324,269,89326,2,0,L|324:351,1,82.5000025177003,0|8,0:0|0:3,0:0:0:0:
299,143,89642,2,0,P|258:138|217:142,1,82.5000025177003,10|0,0:0|0:0,0:0:0:0:
404,269,89958,2,0,L|486:269,1,82.5000025177003,2|8,0:0|0:3,0:0:0:0:
439,63,90274,6,0,P|361:37|284:63,1,165.000005035401,10|0,0:3|0:0,0:0:0:0:
243,170,90747,2,0,P|237:211|242:252,1,82.5000025177003,0|8,0:0|0:0,0:0:0:0:
359,212,91063,1,0,0:0:0:0:
285,62,91221,2,0,P|244:56|203:61,1,82.5000025177003
136,166,91537,6,0,L|141:249,1,82.5000025177003,10|0,0:3|0:0,0:0:0:0:
147,365,91853,1,0,0:0:0:0:
68,281,92011,1,2,0:0:0:0:
225,211,92168,1,10,0:0:0:0:
231,343,92326,1,0,0:0:0:0:
354,295,92484,2,0,L|359:212,1,82.5000025177003,10|8,0:3|0:0,0:0:0:0:
278,128,92800,6,0,P|199:116|136:166,1,165.000005035401,10|2,0:3|0:0,0:0:0:0:
68,281,93274,1,0,0:0:0:0:
5,164,93432,1,8,0:0:0:0:
164,266,93589,2,0,L|159:349,1,82.5000025177003,2|0,0:0|0:0,0:0:0:0:
290,309,93905,1,0,0:0:0:0:
309,203,94063,6,0,L|304:120,1,82.5000025177003,10|0,0:3|0:0,0:0:0:0:
290,309,94379,1,0,0:0:0:0:
281,185,94537,6,0,L|276:102,1,82.5000025177003,2|8,0:0|0:0,0:0:0:0:
290,309,94853,1,0,0:0:0:0:
252,169,95011,6,0,L|247:86,1,82.5000025177003,2|8,0:0|0:3,0:0:0:0:
290,309,95326,6,0,P|222:352|143:336,1,165.000005035401,10|0,0:3|0:0,0:0:0:0:
202,246,95800,1,0,0:0:0:0:
370,269,95958,2,0,P|376:309|369:349,1,82.5000025177003,8|0,0:0|0:0,0:0:0:0:
299,221,96274,2,0,L|305:138,1,82.5000025177003
370,42,96589,5,10,0:3:0:0:
436,138,96747,1,0,0:0:0:0:
305,138,96905,1,0,0:0:0:0:
370,269,97063,1,0,0:0:0:0:
396,284,97141,1,0,0:0:0:0:
426,291,97220,1,8,0:0:0:0:
457,289,97299,1,0,0:0:0:0:
485,277,97378,1,0,0:0:0:0:
436,138,97537,2,0,L|433:179,3,41.2500012588501
430,208,97853,5,6,0:0:0:0:
256,192,98011,12,0,105432,0:0:0:0:
