osu file format v14

[General]
AudioFilename: audio.mp3
AudioLeadIn: 0
PreviewTime: 29367
Countdown: 0
SampleSet: Soft
StackLeniency: 0.7
Mode: 0
LetterboxInBreaks: 0
WidescreenStoryboard: 1

[Editor]
Bookmarks: 6141,13882,29366,44850,58400,73883,89367,103883
DistanceSpacing: 1
BeatDivisor: 4
GridSize: 32
TimelineZoom: 1

[Metadata]
Title:floatable
TitleUnicode:floatable
Artist:mao
ArtistUnicode:mao
Creator:chaser01
Version:yuuki noa's normal,
Source:Code:Realize ~創世の姫君~
Tags:resahc sainoo miy yuuki noa snowy wind otoge otome video game op opening short ver version j-pop jpop pop folk japanese Code:Realize ~Guardian of Rebirth~ myu yoshie isogai 磯谷佳江
BeatmapID:3740059
BeatmapSetID:1812746

[Difficulty]
HPDrainRate:3
CircleSize:3.4
OverallDifficulty:4
ApproachRate:5
SliderMultiplier:1.1
SliderTickRate:1

[Events]
//Background and Video events
0,0,"toho.jpg",0,0
//Break Periods
//Storyboard Layer 0 (Background)
//Storyboard Layer 1 (Fail)
//Storyboard Layer 2 (Pass)
//Storyboard Layer 3 (Foreground)
//Storyboard Layer 4 (Overlay)
//Storyboard Sound Samples

[TimingPoints]
6142,322.58064516129,3,2,1,30,1,0
13883,-100,3,2,1,65,0,0
21625,-100,3,2,1,71,0,0
28722,-100,3,2,1,45,0,0
29367,-111.111111111111,3,2,1,35,0,0
44529,-111.111111111111,3,2,1,35,0,0
44851,-111.111111111111,3,2,1,55,0,0
58400,-90.9090909090909,3,2,2,80,0,0
65174,-90.9090909090909,3,2,2,70,0,0
65496,-90.9090909090909,3,2,2,73,0,0
65819,-90.9090909090909,3,2,2,76,0,0
66141,-90.9090909090909,3,2,2,80,0,0
73883,-100,3,2,1,75,0,0
85819,-100,3,2,1,55,0,0
86141,-100,3,2,1,60,0,0
86787,-100,3,2,1,64,0,0
87109,-100,3,2,1,67,0,0
87432,-100,3,2,1,71,0,0
89045,-100,3,2,1,75,0,0
89367,-111.111111111111,3,2,1,69,0,0
97109,-100,3,2,1,72,0,0
100980,-100,3,2,1,74,0,0
102916,-100,3,2,1,77,0,0
103883,-100,3,2,1,81,0,0

[Colours]
Combo1 : 255,226,130
Combo2 : 255,124,62

[HitObjects]
256,192,6142,12,0,12916,0:0:0:0:
11,48,13883,6,0,B|90:22|90:22|149:83,1,165,4|0,3:2|3:0,0:0:0:0:
83,233,14851,1,0,3:0:0:0:
142,325,15174,1,8,3:0:0:0:
237,271,15496,1,0,1:0:0:0:
296,363,15819,6,0,B|408:341|408:341|424:291,1,165,0|0,3:0|3:0,0:0:0:0:
506,149,16787,2,0,L|481:29,1,110,0|8,3:0|3:0,0:0:0:0:
376,14,17432,1,8,3:0:0:0:
286,77,17754,6,0,B|307:186|307:186|267:231,1,165,0|0,3:0|3:0,0:0:0:0:
106,245,18722,1,0,3:0:0:0:
22,174,19045,1,8,3:0:0:0:
32,64,19367,1,8,3:0:0:0:
134,24,19690,2,0,B|216:47|216:47|301:-3,2,165,2|2|2,3:2|3:2|3:2,0:0:0:0:
32,64,20980,2,0,P|38:99|42:140,1,55,2|0,3:2|1:0,0:0:0:0:
40,173,21303,1,2,0:0:0:0:
79,275,21625,6,0,P|148:248|251:236,1,165,4|2,3:2|1:2,0:0:0:0:
336,183,22432,1,0,0:0:0:0:
336,183,22593,2,0,P|388:199|443:209,1,110,2|8,3:2|3:0,0:0:0:0:
437,99,23238,1,8,3:0:0:0:
353,27,23561,2,0,P|298:32|245:48,1,110,0|8,3:0|3:0,0:0:0:0:
191,42,24045,2,0,P|206:99|204:164,1,110,2|2,3:2|3:2,0:0:0:0:
181,199,24529,1,8,1:3:0:0:
83,148,24851,1,8,3:0:0:0:
20,238,25174,1,2,1:2:0:0:
107,304,25496,6,0,P|161:303|228:322,1,110,4|0,3:2|3:0,0:0:0:0:
264,341,25980,1,8,3:0:0:0:
370,361,26303,1,0,0:0:0:0:
452,287,26625,1,0,0:0:0:0:
452,287,26787,2,0,P|440:233|437:155,1,110,8|8,3:0|0:0,0:0:0:0:
355,106,27432,2,0,P|370:52|373:-9,2,110,2|2|2,3:2|3:2|3:2,0:0:0:0:
260,163,28400,1,2,1:2:0:0:
143,13,29367,6,0,P|91:14|41:30,1,98.9999969787599,2|0,0:0|0:0,0:0:0:0:
44,126,30012,2,0,P|91:139|140:140,1,98.9999969787599,0|2,0:0|0:0,0:0:0:0:
304,28,30980,1,0,0:0:0:0:
392,73,31303,2,0,P|374:114|363:176,1,98.9999969787599,2|0,0:0|0:0,0:0:0:0:
371,319,32109,1,0,0:0:0:0:
371,319,32270,2,0,P|335:321|256:345,1,98.9999969787599
107,232,33238,6,0,P|115:181|137:127,1,98.9999969787599,2|0,0:0|0:0,0:0:0:0:
224,98,33883,2,0,P|245:139|258:204,1,98.9999969787599,0|2,0:0|0:0,0:0:0:0:
194,351,34851,1,0,0:0:0:0:
122,282,35174,2,0,P|73:298|12:302,2,98.9999969787599,2|2|2,0:0|0:0|0:0,0:0:0:0:
188,208,36141,1,2,0:0:0:0:
113,143,36464,1,2,0:0:0:0:
253,3,37109,6,0,P|305:3|369:15,1,98.9999969787599,2|0,0:0|0:0,0:0:0:0:
428,73,37754,1,0,0:0:0:0:
504,9,38077,1,2,0:0:0:0:
418,187,38722,1,2,0:0:0:0:
449,280,39045,2,0,P|401:284|333:306,1,98.9999969787599,2|0,0:0|0:0,0:0:0:0:
212,341,39851,1,0,0:0:0:0:
212,341,40012,2,0,P|160:340|98:319,1,98.9999969787599,2|0,0:0|0:0,0:0:0:0:
47,254,40658,1,2,0:0:0:0:
80,161,40980,6,0,P|127:147|176:147,1,98.9999969787599,2|0,0:0|0:0,0:0:0:0:
243,73,41625,2,0,P|286:97|333:109,1,98.9999969787599,2|2,0:0|0:0,0:0:0:0:
249,289,42593,1,2,0:0:0:0:
164,340,42916,6,0,P|150:292|150:243,1,98.9999969787599,2|0,0:0|1:0,0:0:0:0:
210,164,43561,1,2,0:0:0:0:
128,107,43883,2,0,P|128:57|116:9,2,98.9999969787599,2|0|2,0:0|1:0|0:0,0:0:0:0:
215,163,44851,5,4,3:2:0:0:
215,163,45012,2,0,P|240:166|280:162,1,49.4999984893799,2|2,0:0|0:0,0:0:0:0:
305,137,45335,2,0,P|356:122|412:124,1,98.9999969787599,2|0,0:0|0:0,0:0:0:0:
450,132,45819,1,2,0:0:0:0:
367,311,46464,5,2,0:0:0:0:
284,255,46787,2,0,P|211:258|129:288,1,148.49999546814,2|0,0:0|0:0,0:0:0:0:
105,318,47432,1,2,0:0:0:0:
18,269,47754,1,2,0:0:0:0:
62,75,48400,5,8,1:0:0:0:
140,134,48722,2,0,P|189:146|248:144,1,98.9999969787599,4|2,3:2|0:0,0:0:0:0:
283,128,49206,1,0,0:0:0:0:
283,128,49367,2,0,P|333:132|388:155,1,98.9999969787599,2|2,0:0|0:0,0:0:0:0:
248,0,50335,1,2,3:2:0:0:
181,73,50658,6,0,P|134:89|85:84,1,98.9999969787599,4|0,3:2|0:0,0:0:0:0:
42,60,51141,1,2,0:0:0:0:
10,156,51464,1,2,0:0:0:0:
10,156,51625,2,0,P|12:200|43:257,2,98.9999969787599,2|2|2,3:2|0:0|0:0,0:0:0:0:
106,177,52593,5,6,3:2:0:0:
177,246,52916,1,2,0:0:0:0:
104,313,53238,1,2,0:0:0:0:
182,373,53561,2,0,P|224:349|295:350,1,98.9999969787599,8|2,3:2|0:0,0:0:0:0:
365,383,54206,1,2,0:0:0:0:
430,308,54529,6,0,P|445:261|439:203,2,98.9999969787599,4|0|0,3:2|0:0|0:0,0:0:0:0:
346,254,55496,1,0,3:0:0:0:
249,278,55819,1,8,3:0:0:0:
222,182,56141,1,8,3:2:0:0:
133,137,56464,1,4,3:0:0:0:
260,60,56948,5,2,3:2:0:0:
354,104,57271,1,0,1:0:0:0:
354,104,57432,2,0,P|392:83|453:86,1,98.9999969787599,8|8,3:0|0:0,0:0:0:0:
493,321,58400,6,0,P|430:307|374:357,1,121.000003692627,12|4,3:2|3:0,0:0:0:0:
332,363,58883,2,0,P|279:371|228:332,1,121.000003692627,12|0,3:2|0:0,0:0:0:0:
216,272,59367,1,12,3:2:0:0:
105,321,59690,2,0,P|92:351|98:384,2,60.5000018463135,4|2|4,3:0|0:0|3:0,0:0:0:0:
57,209,60335,6,0,B|70:173|47:145|43:157|24:127|31:94,1,121.000003692627,12|4,3:2|3:0,0:0:0:0:
9,39,60819,2,0,P|60:16|120:61,1,121.000003692627,12|4,3:2|3:0,0:0:0:0:
145,97,61303,1,12,3:2:0:0:
255,48,61625,1,4,3:0:0:0:
340,134,61948,1,4,3:0:0:0:
451,84,62271,6,0,P|488:128|479:187,1,121.000003692627,4|4,3:2|3:0,0:0:0:0:
431,222,62754,2,0,P|378:226|353:288,1,121.000003692627,12|0,3:2|0:0,0:0:0:0:
370,340,63238,1,12,3:2:0:0:
255,301,63561,2,0,P|269:271|265:233,1,60.5000018463135,4|2,3:0|0:0,0:0:0:0:
243,189,63883,1,4,3:0:0:0:
147,263,64206,1,4,3:2:0:0:
57,189,64529,5,2,3:2:0:0:
57,189,64690,2,0,P|9:143|9:79,1,121.000003692627,2|8,0:0|0:0,0:0:0:0:
34,38,65174,2,0,B|63:16|97:30|88:37|121:48|149:33,1,121.000003692627,10|2,3:2|3:2,0:0:0:0:
270,84,65819,1,0,3:0:0:0:
270,84,65980,1,8,0:0:0:0:
270,84,66141,6,0,P|219:121|204:185,1,121.000003692627,12|4,3:2|3:0,0:0:0:0:
215,234,66625,2,0,B|245:239|269:263|269:263|302:248|335:263,1,121.000003692627,12|0,3:2|0:0,0:0:0:0:
373,298,67109,1,12,3:2:0:0:
446,201,67432,2,0,P|466:225|512:230,2,60.5000018463135,4|0|4,3:0|0:0|3:0,0:0:0:0:
398,89,68077,6,0,B|367:63|334:75|344:83|309:91|282:74,1,121.000003692627,12|4,3:2|3:0,0:0:0:0:
231,45,68561,2,0,P|180:95|193:152,1,121.000003692627,12|4,3:2|3:0,0:0:0:0:
226,184,69045,1,12,3:2:0:0:
114,230,69367,1,4,3:0:0:0:
130,350,69690,1,4,3:0:0:0:
249,370,70012,6,0,P|295:325|363:339,1,121.000003692627,4|4,3:2|3:0,0:0:0:0:
399,360,70496,2,0,P|450:333|452:256,1,121.000003692627,12|0,3:2|0:0,0:0:0:0:
433,220,70980,2,0,B|420:185|447:161|450:176|474:150|461:109,1,121.000003692627,12|4,3:2|3:0,0:0:0:0:
438,54,71464,1,0,3:0:0:0:
345,132,71787,5,0,3:0:0:0:
345,132,71948,2,0,P|318:77|250:79,1,121.000003692627,4|4,3:2|3:0,0:0:0:0:
214,107,72432,1,12,3:2:0:0:
112,54,72754,1,8,0:0:0:0:
112,54,72916,2,0,P|76:102|105:173,1,121.000003692627,12|4,3:2|3:0,0:0:0:0:
190,244,73561,1,4,3:0:0:0:
190,244,73722,1,8,0:0:0:0:
190,244,73883,6,0,P|129:244|84:283,2,110,6|0|10,3:2|1:0|0:0,0:0:0:0:
251,335,74851,2,0,P|304:362|365:335,1,110,2|0,3:2|1:0,0:0:0:0:
431,274,75496,1,2,3:2:0:0:
381,175,75819,2,0,P|336:149|263:164,1,110,2|2,3:2|3:2,0:0:0:0:
230,178,76303,2,0,P|178:188|129:155,1,110,8|2,0:0|0:0,0:0:0:0:
118,105,76787,5,2,3:2:0:0:
269,35,77271,1,2,3:2:0:0:
269,35,77432,1,8,0:0:0:0:
366,84,77754,2,0,P|329:131|348:190,1,110,2|0,3:2|1:0,0:0:0:0:
381,219,78238,1,2,3:2:0:0:
381,219,78400,1,8,0:0:0:0:
445,308,78722,6,0,P|385:301|345:346,1,110,2|0,3:2|1:0,0:0:0:0:
202,269,79529,1,2,0:0:0:0:
202,269,79690,2,0,P|216:213|185:168,1,110,2|8,3:2|0:0,0:0:0:0:
142,142,80174,2,0,P|115:95|129:44,1,110,8|8,3:0|3:0,0:0:0:0:
170,6,80658,1,2,3:2:0:0:
272,38,80980,1,8,3:0:0:0:
234,141,81303,1,4,3:0:0:0:
271,244,81625,6,0,P|350:232|412:283,1,165,6|0,3:2|3:0,0:0:0:0:
424,337,82271,1,10,0:0:0:0:
505,263,82593,2,0,P|508:204|458:154,1,110,2|0,3:2|1:0,0:0:0:0:
373,131,83238,2,0,P|376:163|362:189,1,55,2|0,3:2|0:0,0:0:0:0:
320,214,83561,5,2,3:2:0:0:
233,146,83883,1,2,3:2:0:0:
275,44,84206,1,2,3:2:0:0:
164,39,84529,2,0,P|120:70|64:57,2,110,2|8|8,3:2|0:0|0:0,0:0:0:0:
275,44,85496,1,6,3:2:0:0:
367,243,86141,6,0,P|311:237|261:275,1,110,10|0,3:2|3:0,0:0:0:0:
197,350,86787,1,0,3:0:0:0:
99,298,87109,1,8,1:2:0:0:
75,190,87432,2,0,P|133:183|174:143,1,110,0|0,3:0|3:0,0:0:0:0:
180,98,87916,1,8,3:0:0:0:
180,98,88077,1,0,3:0:0:0:
271,159,88400,1,2,3:2:0:0:
373,113,88722,1,2,3:2:0:0:
373,113,88883,2,0,P|405:113|436:131,1,55,2|0,1:0|3:0,0:0:0:0:
476,207,89367,6,0,B|371:223|371:223|359:274,1,148.49999546814,4|0,3:2|3:0,0:0:0:0:
222,211,90335,1,0,3:0:0:0:
158,134,90658,1,8,3:0:0:0:
240,79,90980,1,8,3:0:0:0:
163,15,91303,6,0,B|94:-2|94:-2|34:53,1,148.49999546814,0|0,3:0|3:0,0:0:0:0:
15,197,92271,2,0,L|36:299,1,98.9999969787599,0|8,3:0|3:0,0:0:0:0:
115,351,92916,1,8,3:0:0:0:
212,337,93238,2,0,L|232:172,1,148.49999546814,4|0,3:2|3:0,0:0:0:0:
239,41,94206,1,0,3:0:0:0:
332,6,94529,1,8,3:0:0:0:
420,49,94851,1,8,3:0:0:0:
431,147,95174,6,0,B|331:169|331:169|288:139,2,148.49999546814,2|2|2,3:2|3:2|3:2,0:0:0:0:
488,225,96464,2,0,P|476:257|475:293,1,49.4999984893799,8|0,3:0|3:0,0:0:0:0:
478,321,96787,1,10,0:0:0:0:
378,339,97109,6,0,P|335:306|271:318,1,110,6|2,3:2|0:0,0:0:0:0:
247,354,97593,2,0,P|198:377|144:369,1,110,8|0,3:0|0:0,0:0:0:0:
97,340,98076,1,8,3:0:0:0:
0,303,98400,1,2,3:2:0:0:
77,225,98722,1,8,3:2:0:0:
5,141,99045,6,0,P|-2:93|42:46,1,110,0|8,3:0|3:0,0:0:0:0:
92,65,99529,1,8,3:2:0:0:
92,65,99690,2,0,P|137:92|202:74,1,110,8|0,0:0|3:0,0:0:0:0:
286,26,100335,2,0,P|331:-1|396:17,1,110,8|8,3:0|3:0,0:0:0:0:
442,105,100980,6,0,B|482:143|459:189|453:180|425:226|468:272,2,165,0|0|0,3:0|3:0|3:0,0:0:0:0:
331,104,102271,2,0,P|310:135|314:172,1,55,8|8,3:2|0:0,0:0:0:0:
317,206,102593,1,8,3:0:0:0:
389,289,102916,5,8,3:0:0:0:
224,296,103400,1,8,3:0:0:0:
146,150,103883,1,8,3:2:0:0:
