osu file format v14

[General]
AudioFilename: audio.mp3
AudioLeadIn: 0
PreviewTime: 44000
Countdown: 0
SampleSet: Normal
StackLeniency: 0.7
Mode: 1
LetterboxInBreaks: 0
WidescreenStoryboard: 0

[Editor]
Bookmarks: 22800,23000,24300,24400,24500,24600,26000,26100,26200,27000,27200,27400,31600,31700,31800,32400,32600,32800,33200,33400,33600,40600,40700,40800,40900,41000,56600,56700,56800,57400,57500,57600,63600,63700,63800,63900,64000,90200,90300,91000,91100,91200
DistanceSpacing: 1.5
BeatDivisor: 4
GridSize: 32
TimelineZoom: 2.3

[Metadata]
Title:Owaranai Sekai
TitleUnicode:終わらない世界
Artist:mao
ArtistUnicode:mao
Creator:toara_fict
Version:Oni
Source:アガレスト戦記 ZERO
Tags:Agarest Senki Zero Record of Agarest War Zero OP Duca yuzu__rinrin
BeatmapID:1295702
BeatmapSetID:614169

[Difficulty]
HPDrainRate:6
CircleSize:6
OverallDifficulty:5
ApproachRate:10
SliderMultiplier:1.4
SliderTickRate:1

[Events]
//Background and Video events
0,0,"Konachan.com - 240509 animal bird blush book original owl pink_eyes pink_hair shuuichi_(gothics) twintails.jpg",0,0
//Break Periods
//Storyboard Layer 0 (Background)
//Storyboard Layer 1 (Fail)
//Storyboard Layer 2 (Pass)
//Storyboard Layer 3 (Foreground)
//Storyboard Sound Samples

[TimingPoints]
6400,400,4,1,0,80,1,0
19200,-100,4,1,0,85,0,0
22400,-100,4,1,0,80,0,0
28800,-100,4,1,0,85,0,0
32000,-100,4,1,0,80,0,0
41600,-100,4,1,0,90,0,0
44800,-100,4,1,0,100,0,1
56800,-100,4,1,0,100,0,0
57600,-100,4,1,0,100,0,1
70400,-100,4,1,0,80,0,0

[HitObjects]
288,160,6400,5,0,0:0:0:0:
224,160,6800,1,8,0:0:0:0:
224,160,7200,1,8,0:0:0:0:
288,160,7600,1,0,0:0:0:0:
288,160,7800,1,0,0:0:0:0:
224,160,8000,1,8,0:0:0:0:
288,160,8400,1,0,0:0:0:0:
224,160,8800,1,8,0:0:0:0:
224,160,9200,1,8,0:0:0:0:
224,160,9400,1,8,0:0:0:0:
288,160,9600,1,0,0:0:0:0:
224,160,10000,1,8,0:0:0:0:
224,160,10400,1,8,0:0:0:0:
288,160,10800,1,0,0:0:0:0:
288,160,11000,1,0,0:0:0:0:
224,160,11200,1,8,0:0:0:0:
224,160,11400,1,8,0:0:0:0:
288,160,11600,1,0,0:0:0:0:
224,160,12000,1,8,0:0:0:0:
224,160,12400,1,8,0:0:0:0:
224,160,12600,1,8,0:0:0:0:
288,224,12800,1,4,0:0:0:0:
288,160,13200,1,0,0:0:0:0:
288,160,13600,1,0,0:0:0:0:
288,160,13800,1,0,0:0:0:0:
224,160,14000,1,8,0:0:0:0:
288,160,14200,1,0,0:0:0:0:
224,160,14400,1,8,0:0:0:0:
288,160,14800,1,0,0:0:0:0:
224,160,15200,1,8,0:0:0:0:
288,160,15400,1,0,0:0:0:0:
224,160,15600,1,8,0:0:0:0:
224,160,16000,1,8,0:0:0:0:
288,160,16400,1,0,0:0:0:0:
288,160,16600,1,0,0:0:0:0:
224,160,16800,1,8,0:0:0:0:
224,160,17200,1,8,0:0:0:0:
288,160,17400,1,0,0:0:0:0:
288,160,17800,1,0,0:0:0:0:
224,160,18000,1,8,0:0:0:0:
224,160,18200,1,8,0:0:0:0:
288,160,18400,1,0,0:0:0:0:
288,160,18600,1,0,0:0:0:0:
288,160,18800,1,0,0:0:0:0:
288,160,18900,1,0,0:0:0:0:
224,160,19000,1,8,0:0:0:0:
288,224,19200,1,4,0:0:0:0:
224,160,19600,1,8,0:0:0:0:
288,160,20000,1,0,0:0:0:0:
288,160,20200,1,0,0:0:0:0:
224,160,20400,1,8,0:0:0:0:
288,160,20800,1,0,0:0:0:0:
288,160,21000,1,0,0:0:0:0:
224,160,21200,1,8,0:0:0:0:
288,160,21400,1,0,0:0:0:0:
288,160,21500,1,0,0:0:0:0:
224,160,21600,1,8,0:0:0:0:
288,160,21800,1,0,0:0:0:0:
224,160,22000,1,8,0:0:0:0:
288,160,22100,1,0,0:0:0:0:
224,160,22200,1,8,0:0:0:0:
288,224,22400,1,4,0:0:0:0:
224,160,22800,1,8,0:0:0:0:
224,160,23000,1,8,0:0:0:0:
288,160,23200,1,0,0:0:0:0:
224,160,23400,1,8,0:0:0:0:
224,160,23500,1,8,0:0:0:0:
256,160,23600,1,0,0:0:0:0:
224,160,23800,1,8,0:0:0:0:
288,160,24000,1,0,0:0:0:0:
288,160,24200,1,0,0:0:0:0:
288,160,24300,1,0,0:0:0:0:
224,160,24400,1,8,0:0:0:0:
224,160,24500,1,8,0:0:0:0:
288,160,24600,1,0,0:0:0:0:
288,160,24800,1,0,0:0:0:0:
224,160,25000,1,8,0:0:0:0:
224,160,25100,1,8,0:0:0:0:
288,160,25200,1,0,0:0:0:0:
224,160,25400,1,8,0:0:0:0:
288,160,25600,1,0,0:0:0:0:
288,160,26000,1,0,0:0:0:0:
224,160,26200,1,8,0:0:0:0:
224,160,26400,1,8,0:0:0:0:
224,160,26500,1,8,0:0:0:0:
288,160,26600,1,0,0:0:0:0:
288,160,26800,1,0,0:0:0:0:
224,160,27000,1,8,0:0:0:0:
224,160,27200,1,8,0:0:0:0:
288,160,27400,1,0,0:0:0:0:
288,160,27600,1,0,0:0:0:0:
288,160,27700,1,0,0:0:0:0:
224,160,27800,1,8,0:0:0:0:
224,160,28000,1,8,0:0:0:0:
288,160,28200,1,0,0:0:0:0:
224,160,28400,1,8,0:0:0:0:
224,160,28500,1,8,0:0:0:0:
224,160,28600,1,0,0:0:0:0:
288,224,28800,1,4,0:0:0:0:
224,160,29200,1,8,0:0:0:0:
288,160,29600,1,0,0:0:0:0:
288,160,29800,1,0,0:0:0:0:
224,160,30000,1,8,0:0:0:0:
288,160,30400,1,0,0:0:0:0:
288,160,30600,1,0,0:0:0:0:
224,160,30800,1,8,0:0:0:0:
288,160,31000,1,0,0:0:0:0:
288,160,31100,1,0,0:0:0:0:
224,160,31200,1,8,0:0:0:0:
288,160,31400,1,0,0:0:0:0:
224,160,31600,1,8,0:0:0:0:
224,160,31700,1,8,0:0:0:0:
288,160,31800,1,0,0:0:0:0:
288,224,32000,1,4,0:0:0:0:
224,160,32400,1,8,0:0:0:0:
288,160,32600,1,0,0:0:0:0:
288,160,33000,1,0,0:0:0:0:
224,160,33200,1,8,0:0:0:0:
224,160,33600,1,8,0:0:0:0:
224,160,33800,1,8,0:0:0:0:
288,160,34000,1,0,0:0:0:0:
224,160,34400,1,8,0:0:0:0:
288,160,34600,1,0,0:0:0:0:
224,160,34800,1,8,0:0:0:0:
224,160,35000,1,8,0:0:0:0:
288,160,35200,1,0,0:0:0:0:
224,160,35600,1,8,0:0:0:0:
288,160,35800,1,0,0:0:0:0:
224,160,36000,1,8,0:0:0:0:
288,160,36400,1,0,0:0:0:0:
224,160,36600,1,8,0:0:0:0:
224,160,37000,1,8,0:0:0:0:
288,160,37200,1,0,0:0:0:0:
288,160,37400,1,0,0:0:0:0:
224,160,37600,1,8,0:0:0:0:
288,160,37800,1,0,0:0:0:0:
224,160,38000,1,8,0:0:0:0:
224,160,38100,1,8,0:0:0:0:
224,160,38200,1,8,0:0:0:0:
288,224,38400,1,4,0:0:0:0:
224,160,38800,1,8,0:0:0:0:
288,160,39200,1,0,0:0:0:0:
288,160,39400,1,0,0:0:0:0:
224,160,39600,1,8,0:0:0:0:
288,160,39800,1,0,0:0:0:0:
288,160,39900,1,0,0:0:0:0:
224,160,40000,1,8,0:0:0:0:
288,160,40200,1,0,0:0:0:0:
224,160,40400,1,8,0:0:0:0:
288,160,40600,1,0,0:0:0:0:
288,160,40700,1,0,0:0:0:0:
224,160,40800,1,8,0:0:0:0:
288,160,40900,1,0,0:0:0:0:
288,160,41000,1,0,0:0:0:0:
224,160,41200,1,8,0:0:0:0:
224,160,41300,1,8,0:0:0:0:
288,160,41400,1,0,0:0:0:0:
224,224,41600,1,12,0:0:0:0:
288,160,41800,1,0,0:0:0:0:
288,160,42000,1,0,0:0:0:0:
224,224,42200,1,12,0:0:0:0:
288,160,42400,1,0,0:0:0:0:
288,160,42600,1,0,0:0:0:0:
224,224,42800,1,12,0:0:0:0:
288,160,43000,1,0,0:0:0:0:
288,160,43200,1,0,0:0:0:0:
224,224,43400,1,12,0:0:0:0:
288,160,43600,1,0,0:0:0:0:
288,160,43800,1,0,0:0:0:0:
224,224,44000,1,12,0:0:0:0:
288,224,44800,1,4,0:0:0:0:
224,160,45200,1,8,0:0:0:0:
288,160,45600,1,0,0:0:0:0:
288,160,45800,1,0,0:0:0:0:
224,160,46000,1,8,0:0:0:0:
288,160,46200,1,0,0:0:0:0:
224,160,46400,1,8,0:0:0:0:
288,160,46600,1,0,0:0:0:0:
224,160,46700,1,0,0:0:0:0:
224,160,46800,1,8,0:0:0:0:
288,160,47000,1,0,0:0:0:0:
224,160,47100,1,8,0:0:0:0:
288,160,47200,1,0,0:0:0:0:
288,160,47400,1,0,0:0:0:0:
224,160,47600,1,8,0:0:0:0:
224,160,47700,1,8,0:0:0:0:
288,160,47800,1,0,0:0:0:0:
224,224,48000,1,12,0:0:0:0:
224,160,48400,1,8,0:0:0:0:
288,160,48800,1,0,0:0:0:0:
288,160,49000,1,0,0:0:0:0:
224,160,49200,1,8,0:0:0:0:
288,160,49400,1,0,0:0:0:0:
224,160,49500,1,8,0:0:0:0:
288,160,49600,1,0,0:0:0:0:
288,160,49800,1,0,0:0:0:0:
224,160,50000,1,8,0:0:0:0:
288,160,50200,1,0,0:0:0:0:
288,160,50300,1,0,0:0:0:0:
224,160,50400,1,8,0:0:0:0:
288,160,50600,1,0,0:0:0:0:
224,160,50700,1,0,0:0:0:0:
224,160,50800,1,8,0:0:0:0:
224,160,50900,1,8,0:0:0:0:
288,160,51000,1,0,0:0:0:0:
224,224,51200,1,12,0:0:0:0:
224,160,51600,1,8,0:0:0:0:
288,160,52000,1,0,0:0:0:0:
288,160,52200,1,0,0:0:0:0:
288,160,52300,1,0,0:0:0:0:
224,160,52400,1,8,0:0:0:0:
288,160,52600,1,0,0:0:0:0:
288,160,52800,1,0,0:0:0:0:
288,160,53000,1,0,0:0:0:0:
288,160,53100,1,0,0:0:0:0:
224,160,53200,1,8,0:0:0:0:
224,160,53300,1,8,0:0:0:0:
288,160,53400,1,0,0:0:0:0:
224,160,53600,1,8,0:0:0:0:
288,160,53800,1,0,0:0:0:0:
224,160,54000,1,8,0:0:0:0:
224,160,54100,1,8,0:0:0:0:
288,160,54200,1,0,0:0:0:0:
224,160,54400,1,8,0:0:0:0:
288,160,54800,1,0,0:0:0:0:
224,160,55000,1,8,0:0:0:0:
224,160,55100,1,8,0:0:0:0:
288,160,55200,1,0,0:0:0:0:
288,160,55400,1,0,0:0:0:0:
224,160,55600,1,8,0:0:0:0:
288,160,55800,1,0,0:0:0:0:
288,160,55900,1,0,0:0:0:0:
224,160,56000,1,8,0:0:0:0:
288,160,56200,1,0,0:0:0:0:
224,224,56400,1,12,0:0:0:0:
224,160,56600,1,8,0:0:0:0:
224,160,56700,1,8,0:0:0:0:
288,160,56800,1,0,0:0:0:0:
288,160,56900,1,0,0:0:0:0:
288,160,57000,1,0,0:0:0:0:
288,160,57100,1,0,0:0:0:0:
224,160,57200,1,8,0:0:0:0:
224,160,57400,1,8,0:0:0:0:
288,224,57600,1,4,0:0:0:0:
224,160,58000,1,8,0:0:0:0:
224,160,58200,1,8,0:0:0:0:
224,160,58300,1,8,0:0:0:0:
288,160,58400,1,0,0:0:0:0:
288,160,58600,1,0,0:0:0:0:
224,160,58800,1,8,0:0:0:0:
288,160,59000,1,0,0:0:0:0:
288,160,59100,1,8,0:0:0:0:
288,160,59200,1,0,0:0:0:0:
288,160,59400,1,0,0:0:0:0:
224,160,59600,1,8,0:0:0:0:
288,160,59800,1,0,0:0:0:0:
288,160,59900,1,0,0:0:0:0:
288,160,60000,1,0,0:0:0:0:
288,160,60200,1,0,0:0:0:0:
288,160,60300,1,0,0:0:0:0:
224,160,60400,1,8,0:0:0:0:
224,160,60500,1,8,0:0:0:0:
288,160,60600,1,0,0:0:0:0:
224,224,60800,1,12,0:0:0:0:
224,160,61200,1,8,0:0:0:0:
224,160,61400,1,8,0:0:0:0:
224,160,61500,1,8,0:0:0:0:
288,160,61600,1,0,0:0:0:0:
288,160,61800,1,0,0:0:0:0:
224,160,62000,1,8,0:0:0:0:
224,160,62200,1,8,0:0:0:0:
288,160,62400,1,0,0:0:0:0:
288,160,62500,1,8,0:0:0:0:
288,160,62600,1,0,0:0:0:0:
224,160,62800,1,8,0:0:0:0:
288,160,63000,1,0,0:0:0:0:
288,160,63100,1,0,0:0:0:0:
224,160,63200,1,8,0:0:0:0:
288,160,63400,1,0,0:0:0:0:
224,160,63600,1,8,0:0:0:0:
224,160,63700,1,8,0:0:0:0:
224,160,63800,1,8,0:0:0:0:
288,160,64000,1,4,0:0:0:0:
224,160,64400,1,8,0:0:0:0:
224,160,64600,1,8,0:0:0:0:
224,160,64700,1,8,0:0:0:0:
288,160,64800,1,0,0:0:0:0:
288,160,65000,1,0,0:0:0:0:
224,160,65200,1,8,0:0:0:0:
288,160,65400,1,0,0:0:0:0:
288,160,65500,1,8,0:0:0:0:
288,160,65600,1,0,0:0:0:0:
288,160,65800,1,0,0:0:0:0:
224,160,66000,1,8,0:0:0:0:
288,160,66200,1,0,0:0:0:0:
288,160,66300,1,0,0:0:0:0:
224,160,66400,1,8,0:0:0:0:
288,160,66500,1,0,0:0:0:0:
288,160,66600,1,8,0:0:0:0:
224,160,66700,1,8,0:0:0:0:
224,160,66800,1,0,0:0:0:0:
224,160,67000,1,8,0:0:0:0:
288,160,67200,1,0,0:0:0:0:
288,160,67400,1,0,0:0:0:0:
224,160,67600,1,8,0:0:0:0:
224,160,67800,1,8,0:0:0:0:
224,160,67900,1,8,0:0:0:0:
288,160,68000,1,0,0:0:0:0:
288,160,68200,1,0,0:0:0:0:
224,160,68400,1,8,0:0:0:0:
288,224,68600,1,4,0:0:0:0:
288,160,69000,1,0,0:0:0:0:
224,160,69200,1,8,0:0:0:0:
288,160,69400,1,0,0:0:0:0:
288,160,69600,1,0,0:0:0:0:
288,160,69700,1,0,0:0:0:0:
288,160,69800,1,0,0:0:0:0:
288,160,69900,1,0,0:0:0:0:
224,160,70000,1,8,0:0:0:0:
224,160,70200,1,8,0:0:0:0:
288,224,70400,1,4,0:0:0:0:
288,160,71200,1,0,0:0:0:0:
288,160,71400,1,0,0:0:0:0:
224,160,71600,1,8,0:0:0:0:
288,160,72000,1,0,0:0:0:0:
288,160,72400,1,0,0:0:0:0:
224,160,72600,1,8,0:0:0:0:
224,160,73000,1,8,0:0:0:0:
288,160,73200,1,0,0:0:0:0:
288,160,73600,1,0,0:0:0:0:
224,160,74000,1,8,0:0:0:0:
288,160,74400,1,0,0:0:0:0:
256,160,74600,1,8,0:0:0:0:
256,160,75000,1,8,0:0:0:0:
224,160,76800,1,8,0:0:0:0:
224,160,77200,1,8,0:0:0:0:
288,224,77600,1,0,0:0:0:0:
288,224,77700,1,0,0:0:0:0:
224,160,77800,1,8,0:0:0:0:
288,160,77900,1,0,0:0:0:0:
224,160,78000,1,8,0:0:0:0:
224,160,78200,1,8,0:0:0:0:
288,224,78400,1,4,0:0:0:0:
224,160,78800,1,8,0:0:0:0:
224,160,79200,1,8,0:0:0:0:
288,160,79400,1,0,0:0:0:0:
288,160,79600,1,8,0:0:0:0:
224,160,80000,1,8,0:0:0:0:
288,160,80200,1,8,0:0:0:0:
288,160,80400,1,0,0:0:0:0:
288,160,80600,1,0,0:0:0:0:
288,160,80700,1,0,0:0:0:0:
224,160,80800,1,8,0:0:0:0:
288,160,81000,1,0,0:0:0:0:
224,160,81200,1,8,0:0:0:0:
224,160,81400,1,8,0:0:0:0:
288,160,81600,1,0,0:0:0:0:
224,160,82000,1,8,0:0:0:0:
288,160,82200,1,0,0:0:0:0:
288,160,82300,1,0,0:0:0:0:
224,160,82400,1,8,0:0:0:0:
224,160,82600,1,8,0:0:0:0:
288,160,82800,1,0,0:0:0:0:
288,160,83000,1,0,0:0:0:0:
224,160,83200,1,8,0:0:0:0:
224,160,83400,1,8,0:0:0:0:
288,160,83600,1,0,0:0:0:0:
288,160,83800,1,0,0:0:0:0:
288,160,83900,1,0,0:0:0:0:
224,160,84000,1,8,0:0:0:0:
288,160,84200,1,0,0:0:0:0:
224,160,84400,1,8,0:0:0:0:
224,160,84500,1,8,0:0:0:0:
288,160,84600,1,0,0:0:0:0:
288,224,84800,1,12,0:0:0:0:
224,160,85200,1,8,0:0:0:0:
224,160,85600,1,8,0:0:0:0:
288,160,85800,1,0,0:0:0:0:
288,160,86000,1,8,0:0:0:0:
224,160,86400,1,8,0:0:0:0:
224,224,86600,1,8,0:0:0:0:
288,160,86800,1,0,0:0:0:0:
288,160,87000,1,0,0:0:0:0:
288,160,87100,1,0,0:0:0:0:
224,160,87200,1,8,0:0:0:0:
288,160,87400,1,0,0:0:0:0:
224,160,87600,1,8,0:0:0:0:
224,160,87800,1,8,0:0:0:0:
288,160,88000,1,0,0:0:0:0:
224,160,88400,1,8,0:0:0:0:
288,160,88600,1,0,0:0:0:0:
288,160,88700,1,0,0:0:0:0:
224,160,88800,1,8,0:0:0:0:
224,160,89000,1,8,0:0:0:0:
288,160,89200,1,0,0:0:0:0:
224,160,89400,1,8,0:0:0:0:
224,160,89600,1,8,0:0:0:0:
288,160,89800,1,0,0:0:0:0:
224,224,90000,1,12,0:0:0:0:
288,160,90400,1,0,0:0:0:0:
288,160,90500,1,0,0:0:0:0:
288,160,90600,1,8,0:0:0:0:
288,160,90700,1,0,0:0:0:0:
288,160,90800,1,8,0:0:0:0:
224,160,91000,1,8,0:0:0:0:
288,224,91200,1,4,0:0:0:0:
