osu file format v14

[General]
AudioFilename: audio.mp3
AudioLeadIn: 0
PreviewTime: 44000
Countdown: 0
SampleSet: Soft
StackLeniency: 0.7
Mode: 0
LetterboxInBreaks: 0
WidescreenStoryboard: 1

[Editor]
Bookmarks: 22800,22900,23000,23400,23500,23600,23800,24300,24400,24500,24600,24800,24900,25000,26000,26100,26200,26400,26500,26600,27000,27200,27400,31600,31700,31800,32400,32600,33200,33400,33600,40600,40700,40800,40900,41000,46800,56600,56700,56800,57400,57500,57600,63600,63700,63800,63900,64000,90200,90300,91000,91100,91200
DistanceSpacing: 1.4
BeatDivisor: 4
GridSize: 4
TimelineZoom: 2.599999

[Metadata]
Title:Owaranai Sekai
TitleUnicode:終わらない世界
Artist:mao
ArtistUnicode:mao
Creator:toara_fict
Version:Insane
Source:アガレスト戦記 ZERO
Tags:Agarest Senki Zero Record of Agarest War Zero OP Duca yuzu__rinrin
BeatmapID:1295821
BeatmapSetID:614169

[Difficulty]
HPDrainRate:6.8
CircleSize:4.2
OverallDifficulty:7.2
ApproachRate:8.2
SliderMultiplier:1.6
SliderTickRate:1

[Events]
//Background and Video events
0,0,"Konachan.com - 240509 animal bird blush book original owl pink_eyes pink_hair shuuichi_(gothics) twintails.jpg",0,0
//Break Periods
//Storyboard Layer 0 (Background)
//Storyboard Layer 1 (Fail)
//Storyboard Layer 2 (Pass)
//Storyboard Layer 3 (Foreground)
//Storyboard Sound Samples

[TimingPoints]
6400,400,4,2,0,80,1,0
19200,-100,4,2,1,85,0,0
22400,-100,4,2,0,80,0,0
28800,-100,4,2,1,85,0,0
32000,-133.333333333333,4,2,1,80,0,0
38400,-100,4,2,1,80,0,0
41600,-100,4,3,0,90,0,0
44800,-90.9090909090909,4,2,2,100,0,1
56800,-100,4,2,1,100,0,0
57600,-90.9090909090909,4,2,2,100,0,1
70800,-133.333333333333,4,2,1,80,0,0
76800,-100,4,2,1,80,0,0

[HitObjects]
472,88,6400,5,2,0:0:0:0:
472,88,6800,2,0,L|482:181,1,80,8|0,0:0|0:0,0:0:0:0:
370,153,7200,2,0,L|370:249,1,80
255,193,7600,2,0,L|245:284,1,80,8|0,0:0|0:0,0:0:0:0:
38,298,8000,5,2,0:0:0:0:
38,298,8400,2,8,L|28:205,1,80,8|0,0:0|0:0,0:0:0:0:
140,232,8800,2,0,L|140:136,1,80
255,193,9200,2,0,L|265:102,1,80,8|0,0:0|0:0,0:0:0:0:
306,10,9600,6,0,P|364:65|371:143,1,160,2|8,0:0|0:0,0:0:0:0:
263,113,10200,1,0,0:0:0:0:
167,54,10400,2,0,P|131:36|91:29,1,80
129,135,10800,2,0,P|89:130|50:137,1,80,8|0,0:0|0:0,0:0:0:0:
110,232,11200,6,0,P|189:211|223:138,1,160,2|8,2:0|2:0,2:0:0:0:
222,145,11800,1,0,0:0:0:0:
319,309,12000,2,0,P|294:278|280:241,1,80,2|0,0:0|0:0,0:0:0:0:
349,152,12400,2,0,P|374:182|388:220,1,80,2|0,0:0|0:0,0:0:0:0:
411,330,12800,5,4,0:0:0:0:
224,268,13200,2,0,B|131:212|131:212|112:164,1,160,8|0,0:0|0:0,0:0:0:0:
222,145,13800,1,0,0:0:0:0:
327,182,14000,2,0,P|358:206|397:214,1,80,8|0,0:0|0:0,0:0:0:0:
482,144,14400,2,0,P|450:119|411:111,1,80
328,35,14800,2,0,P|303:66|295:105,1,80,8|0,0:0|0:0,0:0:0:0:
397,214,15200,2,0,P|388:252|364:284,1,80,0|8,0:0|0:0,0:0:0:0:
268,342,15600,1,8,0:0:0:0:
268,342,16000,5,0,0:0:0:0:
206,155,16400,2,0,B|150:62|150:62|102:43,1,160,8|0,0:0|0:0,0:0:0:0:
90,132,17000,1,0,0:0:0:0:
248,71,17200,2,0,P|279:46|318:38,1,80,8|0,0:0|0:0,0:0:0:0:
323,151,17600,6,0,P|347:182|355:221,1,80
194,161,18000,1,8,0:0:0:0:
258,222,18200,1,8,0:0:0:0:
248,70,18400,2,0,P|171:58|104:104,1,160,0|8,0:0|0:0,0:0:0:0:
92,212,19000,1,2,0:0:0:0:
92,212,19100,1,2,0:0:0:0:
92,212,19200,5,4,0:0:0:0:
286,322,19600,2,0,B|322:300|364:301|404:300|453:275,1,160,8|0,0:0|0:0,0:0:0:0:
375,188,20200,1,0,0:0:0:0:
273,140,20400,2,0,P|292:105|325:84,1,80,8|0,0:0|0:0,0:0:0:0:
429,125,20800,5,0,0:0:0:0:
292,223,21000,1,0,0:0:0:0:
236,58,21200,2,0,P|203:38|163:32,1,80,8|0,0:0|0:0,0:0:0:0:
85,112,21600,2,0,P|118:132|158:138,1,80
325,84,22000,1,12,0:0:0:0:
397,233,22200,1,2,0:0:0:0:
397,233,22300,1,2,0:0:0:0:
397,233,22400,6,0,P|320:216|243:236,1,160,4|8,0:0|0:0,0:0:0:0:
323,314,23000,1,0,0:0:0:0:
212,331,23200,2,0,P|176:312|150:277,1,80
160,141,23600,2,0,P|179:105|214:79,1,80,8|0,0:0|0:0,0:0:0:0:
267,180,24000,5,0,0:0:0:0:
369,78,24200,1,2,0:0:0:0:
369,78,24300,1,2,0:0:0:0:
369,78,24400,1,8,0:0:0:0:
348,204,24600,1,0,0:0:0:0:
209,81,24800,2,0,P|174:63|136:52,1,80,2|8,0:0|0:0,0:0:0:0:
136,52,25200,5,0,0:0:0:0:
199,174,25400,1,8,0:0:0:0:
130,275,25600,2,0,P|92:264|57:246,1,80,4|0,0:0|0:0,0:0:0:0:
56,100,26000,2,0,P|46:80|44:58,2,40,2|2|8,0:0|0:0|0:0,0:0:0:0:
199,174,26400,2,0,P|206:216|197:256,1,80
57,246,26800,1,8,0:0:0:0:
136,123,27000,6,0,P|165:97|204:91,1,80,2|0,0:0|0:0,0:0:0:0:
268,221,27400,2,0,P|238:247|199:253,1,80,0|8,0:0|0:0,0:0:0:0:
104,194,27800,1,0,0:0:0:0:
53,354,28000,1,4,0:0:0:0:
53,354,28400,1,12,0:0:0:0:
220,350,28600,1,2,0:0:0:0:
220,350,28700,1,2,0:0:0:0:
220,350,28800,6,0,B|259:364|300:351|337:338|385:345,1,160,4|8,0:0|0:0,0:0:0:0:
448,257,29400,1,0,0:0:0:0:
382,166,29600,2,0,P|363:131|330:110,1,80
279,210,30000,1,8,0:0:0:0:
424,80,30200,1,0,0:3:0:0:
448,257,30400,6,0,P|428:291|395:314,1,80
279,210,30800,2,0,P|244:190|221:157,1,80,8|0,0:0|0:0,0:0:0:0:
324,115,31200,2,0,P|343:80|376:57,1,80
432,154,31600,1,12,0:0:0:0:
237,77,31800,1,2,0:0:0:0:
237,77,31900,1,2,0:0:0:0:
237,77,32000,6,0,P|160:63|86:76,1,120.000004577637,4|8,0:0|0:0,0:0:0:0:
70,136,32600,1,0,0:0:0:0:
47,216,32800,2,0,B|40:234|51:275,1,60.0000022888184
171,236,33200,1,8,0:0:0:0:
211,309,33400,1,0,0:0:0:0:
291,331,33600,6,0,B|309:337|350:333,1,60.0000022888184
309,214,34000,1,8,0:0:0:0:
364,151,34200,1,0,0:0:0:0:
281,133,34400,2,0,P|270:104|255:78,1,60.0000022888184,0|0,0:0|2:0,0:0:0:0:
200,142,34800,2,0,P|210:170|225:196,1,60.0000022888184,8|0,0:0|2:0,0:0:0:0:
225,280,35200,6,0,P|186:323|128:326,1,120.000004577637,0|8,0:0|0:0,0:0:0:0:
149,244,35799,1,0,0:0:0:0:
126,162,36000,2,0,P|113:134|105:105,1,60.0000022888184
189,106,36399,1,8,0:0:0:0:
268,134,36600,6,0,L|311:199,2,60.0000022888184
318,66,37200,2,0,P|345:53|373:45,1,60.0000022888184,8|0,0:0|0:0,0:0:0:0:
432,106,37600,2,0,P|404:118|376:126,1,60.0000022888184,8|0,0:0|0:0,0:0:0:0:
225,196,38000,1,8,0:0:0:0:
225,196,38100,1,2,0:0:0:0:
225,196,38200,1,2,0:0:0:0:
103,323,38400,5,4,0:0:0:0:
91,123,38800,2,0,B|174:101|174:101|205:113|245:107|267:75,1,160,8|0,0:0|0:0,0:0:0:0:
205,26,39400,1,0,0:0:0:0:
170,188,39600,2,0,P|209:191|248:182,1,80,8|0,0:0|0:0,0:0:0:0:
259,194,39900,1,0,0:0:0:0:
270,207,40000,1,0,0:0:0:0:
356,263,40200,6,0,P|328:292|291:310,1,80,0|8,0:0|0:0,0:0:0:0:
248,181,40600,2,0,P|276:152|313:134,1,80
317,120,40900,1,0,0:0:0:0:
321,104,41000,1,0,0:0:0:0:
380,9,41200,2,0,P|408:36|426:72,1,80,8|0,0:0|0:0,0:0:0:0:
419,214,41600,6,8,L|355:262,1,80,12|8,0:2|0:0,0:0:0:0:
265,329,42000,1,0,0:0:0:0:
352,108,42200,6,0,L|308:175,1,80,8|0,0:0|0:0,0:0:0:0:
246,267,42600,1,0,0:0:0:0:
229,77,42800,6,0,L|210:154,1,80,8|0,0:0|0:0,0:0:0:0:
183,262,43200,1,0,0:0:0:0:
106,95,43400,6,0,L|115:174,1,80,8|0,0:0|0:0,0:0:0:0:
126,284,43800,1,0,0:0:0:0:
298,63,44000,1,12,0:2:0:0:
422,313,44800,5,4,0:0:0:0:
262,121,45200,2,0,B|185:103|185:103|155:123|112:123|88:97,1,176.000005371094,8|0,0:0|0:0,0:0:0:0:
138,34,45800,1,0,0:0:0:0:
193,180,46000,2,0,L|229:262,1,88.000002685547,8|0,0:0|0:0,0:0:0:0:
326,332,46400,6,0,P|365:350|409:350,1,88.000002685547
482,250,46800,2,0,P|442:231|398:231,1,88.000002685547,8|0,0:0|0:0,0:0:0:0:
278,256,47200,2,0,B|231:256|231:256|193:293,1,88.000002685547,12|0,0:0|0:0,0:0:0:0:
107,370,47600,1,12,0:0:0:0:
452,194,48000,5,4,0:0:0:0:
234,80,48400,2,0,B|207:87|190:125|195:160|195:160|146:223,1,176.000005371094,8|0,0:0|0:0,0:0:0:0:
95,130,49000,2,0,L|10:105,1,88.000002685547,0|8,0:0|0:0,0:0:0:0:
138,26,49400,1,0,0:0:0:0:
289,153,49600,6,0,B|300:173|324:178|347:182|358:205,1,88.000002685547
296,328,50000,2,0,B|284:307|260:302|237:299|225:274,1,88.000002685547,8|0,0:0|0:0,0:0:0:0:
120,212,50400,1,8,0:0:0:0:
133,89,50600,2,0,P|169:61|211:52,1,88.000002685547,0|12,0:0|0:0,0:0:0:0:
392,83,51000,1,0,0:0:0:0:
392,83,51100,1,0,0:0:0:0:
392,83,51200,1,4,0:0:0:0:
394,303,51600,6,0,B|276:262|276:262|215:281,1,176.000005371094,8|0,0:0|0:0,0:0:0:0:
146,223,52200,2,0,L|64:255,1,88.000002685547,0|8,0:0|0:0,0:0:0:0:
273,355,52600,1,0,0:0:0:0:
355,248,52800,2,0,P|379:212|391:170,1,88.000002685547,2|0,0:0|0:0,0:0:0:0:
306,33,53200,6,0,P|281:69|271:112,2,88.000002685547,8|2|0,0:0|0:0|0:0,0:0:0:0:
393,121,53800,1,0,0:0:0:0:
160,103,54000,2,0,P|119:120|88:151,1,88.000002685547,8|0,0:0|0:0,0:0:0:0:
189,223,54400,6,0,B|307:264|307:264|368:245,1,176.000005371094,4|8,0:0|0:0,0:0:0:0:
314,64,55000,2,0,L|285:147,1,88.000002685547
216,316,55400,1,0,0:0:0:0:
92,312,55600,2,0,P|102:270|127:234,1,88.000002685547,8|0,0:0|0:0,0:0:0:0:
160,103,56000,6,0,P|202:113|238:137,1,88.000002685547
281,252,56400,2,0,P|318:231|345:196,1,88.000002685547,12|0,0:0|0:0,0:0:0:0:
339,80,56800,2,2,L|382:54,4,40,6|2|2|2|0,0:0|0:0|0:0|0:0|0:0,0:0:0:0:
160,103,57400,1,2,0:0:0:0:
160,103,57500,1,2,0:0:0:0:
160,103,57600,5,4,0:0:0:0:
370,56,58000,2,0,B|347:84|349:123|364:146|364:146|348:229,1,176.000005371094,8|0,0:0|0:0,0:0:0:0:
451,105,58600,1,0,0:0:0:0:
261,176,58800,2,0,B|243:190|219:189|197:190|177:201,1,88.000002685547,8|0,0:0|0:0,0:0:0:0:
97,295,59200,6,0,P|59:217|81:134,1,176.000005371094,0|8,0:0|0:0,0:0:0:0:
242,61,59800,1,0,0:0:0:0:
270,253,60000,2,0,B|284:270|283:294|284:317|295:336,1,88.000002685547,12|0,0:0|0:0,0:0:0:0:
433,103,60400,1,12,0:0:0:0:
97,295,60800,1,4,0:0:0:0:
265,87,61200,6,0,B|309:111|309:111|313:151|338:192|391:212,1,176.000005371094,8|0,0:0|0:0,0:0:0:0:
431,96,61800,1,0,0:0:0:0:
225,8,62000,2,0,P|191:33|177:74,1,88.000002685547,8|0,0:0|0:0,0:0:0:0:
380,207,62400,6,0,P|414:181|428:140,1,88.000002685547
176,75,62800,2,0,B|152:76|138:96|125:115|98:116,1,88.000002685547,8|0,0:0|0:0,0:0:0:0:
109,301,63200,2,0,B|132:299|146:279|159:260|186:259,1,88.000002685547,8|0,0:0|0:0,0:0:0:0:
350,141,63600,1,12,0:0:0:0:
462,288,63800,1,0,0:0:0:0:
462,288,63900,1,0,0:0:0:0:
462,288,64000,1,4,0:0:0:0:
76,203,64400,6,0,B|120:227|120:227|124:267|149:308|202:328,1,176.000005371094,8|0,0:0|0:0,0:0:0:0:
236,217,65000,2,0,P|275:185|293:152,1,88.000002685547,0|8,0:0|0:0,0:0:0:0:
233,44,65400,2,0,P|194:76|176:109,2,88.000002685547
341,319,66000,1,8,0:0:0:0:
459,178,66200,2,0,B|341:137|341:137|280:156,1,176.000005371094
339,232,66800,2,0,B|344:254|339:275|332:298|341:319,1,88.000002685547,8|2,0:0|0:0,0:0:0:0:
467,97,67200,6,0,B|445:100|425:87|405:76|382:76,1,88.000002685547,4|0,0:0|0:0,0:0:0:0:
175,108,67600,2,0,P|141:134|120:173,1,88.000002685547,8|0,0:0|0:0,0:0:0:0:
138,354,68000,1,0,0:0:0:0:
97,269,68200,2,0,B|113:255|146:249|184:267|184:267|218:241|238:202,1,176.000005371094
248,79,68800,6,0,P|290:88|327:115,1,88.000002685547
339,232,69200,1,10,0:0:0:0:
165,33,69400,1,0,0:0:0:0:
335,33,69600,2,2,L|375:9,4,44.0000013427735,6|2|2|2|0,0:0|0:0|0:0|0:0|0:0,0:0:0:0:
180,118,70200,1,2,0:0:0:0:
161,130,70300,1,2,0:0:0:0:
142,141,70400,1,4,0:0:0:0:
374,109,70800,6,0,P|413:149|414:213,1,120.000004577637,2|0,0:0|0:0,0:0:0:0:
335,185,71400,1,0,0:0:0:0:
265,232,71600,1,2,0:0:0:0:
227,307,71800,6,0,P|188:267|186:202,1,120.000004577637,2|0,0:0|0:0,0:0:0:0:
228,133,72400,1,2,0:0:0:0:
295,83,72600,2,0,P|323:73|352:77,2,60.0000022888184
228,133,73200,2,0,B|187:116|187:116|146:53,1,120.000004577637,2|0,0:0|0:0,0:0:0:0:
99,214,74000,5,2,0:0:0:0:
248,289,74400,2,0,B|296:273|296:273|306:250,1,60.0000022888184,0|2,0:0|0:0,0:0:0:0:
256,192,75000,12,0,76400,0:0:0:0:
344,100,76800,5,8,0:0:0:0:
125,149,77200,1,8,0:0:0:0:
283,307,77600,1,2,0:0:0:0:
283,307,77700,1,2,0:0:0:0:
283,307,77800,1,8,0:0:0:0:
384,260,78000,2,0,P|361:228|328:206,1,80,8|8,0:0|0:0,0:0:0:0:
315,199,78300,1,2,0:0:0:0:
303,190,78400,6,0,P|274:115|302:41,1,160,4|8,0:0|0:0,0:0:0:0:
388,114,79000,1,0,0:0:0:0:
365,311,79200,2,0,P|325:303|290:286,1,80
303,190,79600,2,0,P|342:183|381:188,1,80,8|0,0:0|0:0,0:0:0:0:
290,286,80000,6,0,P|221:248|203:173,1,160,0|8,0:0|0:0,0:0:0:0:
210,46,80600,1,0,0:0:0:0:
371,150,80800,2,0,P|339:175|302:189,1,80
362,47,81200,2,0,P|401:47|439:60,1,80,8|0,0:0|0:0,0:0:0:0:
458,171,81600,6,0,P|442:247|379:293,1,160,0|8,0:0|0:0,0:0:0:0:
269,267,82200,1,0,0:0:0:0:
170,210,82400,2,0,P|139:186|102:170,1,80
17,242,82800,2,0,P|48:266|85:282,1,80,8|0,0:0|0:0,0:0:0:0:
170,208,83200,6,0,B|188:133|188:133|168:103|168:60|195:21,1,160,0|8,0:0|0:0,0:0:0:0:
270,83,83800,1,0,0:0:0:0:
113,144,84000,2,0,L|38:175,1,80
85,282,84400,1,8,0:0:0:0:
269,267,84600,1,2,0:0:0:0:
269,267,84700,1,2,0:0:0:0:
269,267,84800,6,0,P|346:258|400:201,1,160,4|8,0:0|0:0,0:0:0:0:
296,158,85400,1,0,0:0:0:0:
209,86,85600,2,0,P|181:56|147:35,1,80
144,148,86000,2,0,P|108:128|69:121,1,80,8|0,0:0|0:0,0:0:0:0:
128,246,86400,6,0,P|207:225|241:152,1,160,0|8,0:0|0:0,0:0:0:0:
240,159,87000,1,0,0:0:0:0:
367,166,87200,2,0,P|392:196|406:234,1,80
336,322,87599,2,0,P|311:291|297:254,1,80,8|2,0:0|0:0,0:0:0:0:
240,159,88000,6,0,B|184:66|184:66|136:47,1,160,4|8,0:0|0:0,0:0:0:0:
105,154,88600,1,0,0:0:0:0:
170,246,88800,2,0,P|184:283|209:314,1,80
279,227,89199,2,0,P|265:189|239:158,1,80,8|0,0:0|0:0,0:0:0:0:
253,60,89600,5,0,0:0:0:0:
389,158,89800,1,0,0:0:0:0:
239,158,90000,1,8,0:0:0:0:
350,32,90200,2,0,L|378:3,2,40,2|2|8,0:0|0:0|0:0,0:0:0:0:
239,158,90600,2,8,L|211:187,2,40,2|2|8,0:0|0:0|0:0,0:0:0:0:
407,158,91000,5,2,0:0:0:0:
427,158,91100,1,2,0:0:0:0:
447,158,91200,1,4,0:0:0:0:
256,192,91300,12,0,92800,0:0:0:0:
