osu file format v14

[General]
AudioFilename: 123.mp3
AudioLeadIn: 0
PreviewTime: -1
Countdown: 1
SampleSet: Soft
StackLeniency: 0.7
Mode: 3
LetterboxInBreaks: 0
SpecialStyle: 0
WidescreenStoryboard: 1

[Editor]
Bookmarks: 18500,22000,22125,26000,26500,28500,31000
DistanceSpacing: 1
BeatDivisor: 2
GridSize: 16
TimelineZoom: 1.400006

[Metadata]
Title:ou xiang lai le
TitleUnicode:偶像来了
Artist:mango TV
ArtistUnicode:芒果TV
Creator:WMG Fan
Version:PLAY
Source:
Tags:
BeatmapID:1013822
BeatmapSetID:472962

[Difficulty]
HPDrainRate:0
CircleSize:4
OverallDifficulty:0
ApproachRate:0
SliderMultiplier:0.700000005960464
SliderTickRate:1

[Events]
//Background and Video events
0,0,"171832mp0wpf8sp6s6gyyl.jpg",0,0
//Break Periods
2,76200,84700
//Storyboard Layer 0 (Background)
//Storyboard Layer 1 (Fail)
//Storyboard Layer 2 (Pass)
//Storyboard Layer 3 (Foreground)
//Storyboard Sound Samples

[TimingPoints]
500,500,4,2,0,13,1,0

[Colours]
Combo1 : 57,153,26
Combo2 : 255,255,0
Combo3 : 9,1,152
Combo4 : 180,12,3

[HitObjects]
64,192,500,128,2,2000:0:0:0:0:
192,192,1250,128,4,2000:0:0:0:0:
448,192,2500,1,0,0:0:0:0:
448,192,2750,128,0,4250:0:0:0:0:
192,192,4500,1,0,0:0:0:0:
320,192,4500,1,0,0:0:0:0:
64,192,5000,128,0,6000:0:0:0:0:
192,192,5500,128,0,6000:0:0:0:0:
192,192,6250,128,0,8250:0:0:0:0:
448,192,7500,128,0,8250:0:0:0:0:
192,192,8500,1,0,0:0:0:0:
320,192,9250,1,0,0:0:0:0:
192,192,10000,1,0,0:0:0:0:
192,192,10750,128,0,12500:0:0:0:0:
64,192,13000,128,0,13750:0:0:0:0:
320,192,14250,128,0,16000:0:0:0:0:
448,192,15500,128,0,16000:0:0:0:0:
192,192,16250,128,0,18500:0:0:0:0:
320,192,18750,1,0,0:0:0:0:
320,192,19000,128,0,19250:0:0:0:0:
448,192,19500,128,0,20250:0:0:0:0:
192,192,20500,1,0,0:0:0:0:
320,192,20500,1,0,0:0:0:0:
320,192,21000,128,0,22500:0:0:0:0:
64,192,23000,128,0,25500:0:0:0:0:
192,192,24000,128,0,25500:0:0:0:0:
192,192,26000,1,0,0:0:0:0:
320,192,26000,1,0,0:0:0:0:
320,192,26250,1,0,0:0:0:0:
192,192,26250,1,0,0:0:0:0:
320,192,27000,128,0,28000:0:0:0:0:
448,192,27500,128,0,28000:0:0:0:0:
320,192,28500,128,0,30000:0:0:0:0:
64,192,29000,128,0,30000:0:0:0:0:
192,192,31000,128,0,32500:0:0:0:0:
448,192,32000,128,0,32500:0:0:0:0:
320,192,32750,128,0,33750:0:0:0:0:
192,192,34000,128,0,34500:0:0:0:0:
320,192,34000,128,0,34500:0:0:0:0:
64,192,35000,128,0,35750:0:0:0:0:
192,192,36250,1,0,0:0:0:0:
320,192,36250,1,0,0:0:0:0:
320,192,37000,128,0,37500:0:0:0:0:
448,192,37000,128,0,37500:0:0:0:0:
448,192,37750,128,0,38500:0:0:0:0:
64,192,38000,128,0,38500:0:0:0:0:
320,192,39000,128,0,40000:0:0:0:0:
64,192,39500,128,0,40000:0:0:0:0:
64,192,40250,128,0,41250:0:0:0:0:
192,192,40750,128,0,41250:0:0:0:0:
320,192,41500,128,0,42750:0:0:0:0:
64,192,42500,1,0,0:0:0:0:
192,192,43000,128,0,44000:0:0:0:0:
320,192,43500,1,0,0:0:0:0:
320,192,43750,1,0,0:0:0:0:
320,192,44250,128,0,44750:0:0:0:0:
192,192,45000,128,0,45500:0:0:0:0:
320,192,45750,128,0,46250:0:0:0:0:
448,192,46500,128,0,46750:0:0:0:0:
320,192,46500,128,0,46750:0:0:0:0:
320,192,47000,128,0,50000:0:0:0:0:
192,192,48250,128,0,50000:0:0:0:0:
192,192,50500,128,0,51750:0:0:0:0:
64,192,52500,128,0,54000:0:0:0:0:
192,192,54500,128,0,56250:0:0:0:0:
320,192,54500,128,0,56250:0:0:0:0:
320,192,56500,128,0,58000:0:0:0:0:
64,192,56500,128,0,58000:0:0:0:0:
192,192,58500,128,0,58750:0:0:0:0:
320,192,58500,128,0,58750:0:0:0:0:
64,192,59000,128,0,59500:0:0:0:0:
192,192,59750,128,0,60250:0:0:0:0:
64,192,60750,1,0,0:0:0:0:
320,192,61000,128,0,62250:0:0:0:0:
448,192,61750,128,0,62250:0:0:0:0:
192,192,62500,1,0,0:0:0:0:
320,192,62500,1,0,0:0:0:0:
64,192,63000,128,0,63500:0:0:0:0:
320,192,64250,128,0,66000:0:0:0:0:
192,192,65250,128,0,66000:0:0:0:0:
64,192,66500,128,0,68500:0:0:0:0:
192,192,67250,128,0,68500:0:0:0:0:
192,192,68750,1,0,0:0:0:0:
320,192,68750,1,0,0:0:0:0:
192,192,69000,1,0,0:0:0:0:
320,192,69000,1,0,0:0:0:0:
192,192,69250,128,0,69500:0:0:0:0:
64,192,69250,128,0,69500:0:0:0:0:
320,192,69750,128,0,70000:0:0:0:0:
448,192,69750,128,0,70000:0:0:0:0:
192,192,71000,128,0,72000:0:0:0:0:
448,192,71000,128,0,72000:0:0:0:0:
448,192,72250,128,0,76000:0:0:0:0:
320,192,73250,128,0,76000:0:0:0:0:
64,192,86500,132,0,88250:0:0:0:0:
192,192,87000,128,0,88250:0:0:0:0:
192,192,88750,128,0,90500:0:0:0:0:
64,192,89750,128,0,90500:0:0:0:0:
320,192,91000,128,0,94000:0:0:0:0:
448,192,92250,128,0,94000:0:0:0:0:
320,192,94250,1,0,0:0:0:0:
448,192,94250,1,0,0:0:0:0:
64,192,95000,128,0,96250:0:0:0:0:
192,192,96500,1,0,0:0:0:0:
320,192,96500,1,0,0:0:0:0:
192,192,97000,128,0,98250:0:0:0:0:
448,192,99000,128,0,101500:0:0:0:0:
192,192,100000,128,0,101500:0:0:0:0:
320,192,102000,128,0,102500:0:0:0:0:
192,192,102000,128,0,102500:0:0:0:0:
192,192,103000,128,0,105750:0:0:0:0:
320,192,104500,128,0,105750:0:0:0:0:
192,192,106500,1,0,0:0:0:0:
320,192,106500,1,0,0:0:0:0:
192,192,107000,128,0,110250:0:0:0:0:
320,192,108000,128,0,110250:0:0:0:0:
192,192,111000,128,0,111750:0:0:0:0:
320,192,112250,128,0,113250:0:0:0:0:
192,192,112250,128,0,113250:0:0:0:0:
320,192,113750,1,0,0:0:0:0:
320,192,114000,128,0,114750:0:0:0:0:
192,192,115000,128,0,117250:0:0:0:0:
64,192,116250,128,0,117250:0:0:0:0:
320,192,117500,128,0,118500:0:0:0:0:
192,192,119000,128,0,119750:0:0:0:0:
320,192,120250,128,0,120500:0:0:0:0:
192,192,121000,1,0,0:0:0:0:
192,192,121250,1,0,0:0:0:0:
64,192,121750,128,0,122500:0:0:0:0:
448,192,123000,128,0,126250:0:0:0:0:
320,192,124250,128,0,126250:0:0:0:0:
192,192,126500,128,0,127750:0:0:0:0:
320,192,128250,128,0,130000:0:0:0:0:
192,192,130500,128,0,132250:0:0:0:0:
320,192,130500,128,0,132250:0:0:0:0:
320,192,132500,128,0,134000:0:0:0:0:
448,192,132500,128,0,134000:0:0:0:0:
192,192,134500,128,0,136000:0:0:0:0:
64,192,134500,128,0,136000:0:0:0:0:
64,192,136750,1,0,0:0:0:0:
192,192,136750,1,0,0:0:0:0:
64,192,137000,1,0,0:0:0:0:
192,192,137000,1,0,0:0:0:0:
64,192,137250,1,0,0:0:0:0:
192,192,137250,1,0,0:0:0:0:
192,192,137750,128,0,138250:0:0:0:0:
320,192,139000,128,0,139750:0:0:0:0:
192,192,139500,128,0,139750:0:0:0:0:
192,192,140250,128,0,140750:0:0:0:0:
320,192,140250,128,0,140750:0:0:0:0:
320,192,141000,1,0,0:0:0:0:
320,192,141250,1,0,0:0:0:0:
320,192,141500,1,0,0:0:0:0:
320,192,141750,1,0,0:0:0:0:
320,192,142000,1,0,0:0:0:0:
192,192,142500,128,0,144000:0:0:0:0:
64,192,143250,128,0,144000:0:0:0:0:
320,192,144750,1,0,0:0:0:0:
192,192,145000,1,0,0:0:0:0:
320,192,145250,128,0,146250:0:0:0:0:
448,192,145750,128,0,146250:0:0:0:0:
64,192,146500,1,0,0:0:0:0:
448,192,146500,1,0,0:0:0:0:
192,192,147000,128,0,147750:0:0:0:0:
320,192,148250,128,0,149250:0:0:0:0:
192,192,149500,1,0,0:0:0:0:
192,192,149750,128,0,151750:0:0:0:0:
320,192,150250,128,0,151750:0:0:0:0:
64,192,152500,128,0,154250:0:0:0:0:
192,192,154750,128,0,156250:0:0:0:0:
320,192,156750,128,0,158250:0:0:0:0:
192,192,158750,128,0,160250:0:0:0:0:
448,192,160750,128,0,162250:0:0:0:0:
320,192,160750,128,0,162250:0:0:0:0:
64,192,162750,128,0,164500:0:0:0:0:
192,192,162750,128,0,164500:0:0:0:0:
320,192,165000,128,0,166250:0:0:0:0:
192,192,165000,128,0,166250:0:0:0:0:
192,192,166750,128,0,168500:0:0:0:0:
320,192,166750,128,0,168500:0:0:0:0:
64,192,168500,128,0,170000:0:0:0:0:
320,192,170500,128,0,172250:0:0:0:0:
448,192,170500,128,0,172250:0:0:0:0:
192,192,172500,128,0,174250:0:0:0:0:
64,192,174500,128,0,176000:0:0:0:0:
448,192,174500,128,0,176000:0:0:0:0:
192,192,176500,128,0,178000:0:0:0:0:
320,192,177250,1,0,0:0:0:0:
320,192,178000,1,0,0:0:0:0:
320,192,178500,128,0,179250:0:0:0:0:
192,192,179750,128,0,180250:0:0:0:0:
320,192,179750,128,0,180250:0:0:0:0:
320,192,180750,128,0,181750:0:0:0:0:
192,192,182250,128,0,182750:0:0:0:0:
448,192,182250,128,0,182750:0:0:0:0:
320,192,183000,1,0,0:0:0:0:
448,192,183000,1,0,0:0:0:0:
320,192,183250,1,0,0:0:0:0:
448,192,183250,1,0,0:0:0:0:
320,192,183500,1,0,0:0:0:0:
448,192,183500,1,0,0:0:0:0:
320,192,183750,1,0,0:0:0:0:
448,192,183750,1,0,0:0:0:0:
192,192,184000,128,0,184250:0:0:0:0:
64,192,184000,128,0,184250:0:0:0:0:
320,192,184500,128,0,186250:0:0:0:0:
192,192,185500,128,0,186250:0:0:0:0:
192,192,186750,1,0,0:0:0:0:
192,192,187000,1,0,0:0:0:0:
192,192,187250,128,0,187500:0:0:0:0:
64,192,187250,128,0,187500:0:0:0:0:
320,192,187750,128,0,188250:0:0:0:0:
448,192,187750,128,0,188250:0:0:0:0:
320,192,188500,1,0,0:0:0:0:
192,192,188500,1,0,0:0:0:0:
192,192,189000,128,0,189750:0:0:0:0:
448,192,189250,128,0,189750:0:0:0:0:
320,192,190250,128,0,190750:0:0:0:0:
192,192,191000,128,0,192000:0:0:0:0:
320,192,191500,128,0,192000:0:0:0:0:
64,192,192250,128,0,193000:0:0:0:0:
192,192,193250,128,0,193500:0:0:0:0:
448,192,193250,128,0,193500:0:0:0:0:
320,192,194000,128,0,194500:0:0:0:0:
192,192,194750,128,0,195500:0:0:0:0:
64,192,195750,128,0,196500:0:0:0:0:
192,192,197000,128,0,197750:0:0:0:0:
320,192,198250,128,0,199250:0:0:0:0:
192,192,199500,128,0,200000:0:0:0:0:
64,192,200500,128,0,200750:0:0:0:0:
192,192,201250,128,0,201500:0:0:0:0:
320,192,202000,128,0,202250:0:0:0:0:
192,192,202750,128,0,203500:0:0:0:0:
192,192,203750,1,0,0:0:0:0:
192,192,204000,1,0,0:0:0:0:
320,192,205000,1,0,0:0:0:0:
192,192,205000,1,0,0:0:0:0:
192,192,205250,1,0,0:0:0:0:
320,192,205250,1,0,0:0:0:0:
192,192,205500,1,0,0:0:0:0:
320,192,205500,1,0,0:0:0:0:
192,192,205750,1,0,0:0:0:0:
320,192,205750,1,0,0:0:0:0:
320,192,206250,128,0,206750:0:0:0:0:
192,192,207000,128,0,207250:0:0:0:0:
320,192,207500,128,0,207750:0:0:0:0:
192,192,208250,128,0,213750:0:0:0:0:
