osu file format v14

[General]
AudioFilename: audio.mp3
AudioLeadIn: 0
PreviewTime: -1
Countdown: 1
SampleSet: None
StackLeniency: 0.7
Mode: 0
LetterboxInBreaks: 0
WidescreenStoryboard: 0

[Editor]
DistanceSpacing: 0.8
BeatDivisor: 1
GridSize: 32
TimelineZoom: 1

[Metadata]
Title:eta terangkan lah
TitleUnicode:eta terangkan lah
Artist:mang opaic
ArtistUnicode:mang opaic
Creator:ottongu
Version:muka penuh jembud
Source:shit hole
Tags:shit
BeatmapID:1375647
BeatmapSetID:649301

[Difficulty]
HPDrainRate:10
CircleSize:5
OverallDifficulty:10
ApproachRate:10
SliderMultiplier:1.4
SliderTickRate:1

[Events]
//Background and Video events
Video,0,"Parody Eta Terangkan lah.mp4"
0,0,"mqdefault.jpg",0,0
//Break Periods
//Storyboard Layer 0 (Background)
//Storyboard Layer 1 (Fail)
//Storyboard Layer 2 (Pass)
//Storyboard Layer 3 (Foreground)
//Storyboard Sound Samples

[TimingPoints]
0,60,4,2,0,100,1,0

[HitObjects]
256,192,3120,5,0,0:0:0:0:
160,128,3180,1,0,0:0:0:0:
160,160,3240,1,0,0:0:0:0:
224,256,3300,1,0,0:0:0:0:
320,192,3360,1,0,0:0:0:0:
320,96,3420,1,0,0:0:0:0:
224,64,3720,1,0,0:0:0:0:
128,64,3780,1,0,0:0:0:0:
96,160,3840,1,0,0:0:0:0:
160,256,3900,1,0,0:0:0:0:
256,288,3960,1,0,0:0:0:0:
288,192,4020,1,0,0:0:0:0:
192,160,4080,1,0,0:0:0:0:
288,96,4140,1,0,0:0:0:0:
320,192,4200,1,0,0:0:0:0:
224,128,4260,1,0,0:0:0:0:
416,32,4380,1,0,0:0:0:0:
192,160,4440,1,0,0:0:0:0:
192,64,4500,1,0,0:0:0:0:
288,96,4560,1,0,0:0:0:0:
288,192,4680,1,0,0:0:0:0:
192,192,4740,1,0,0:0:0:0:
128,64,4800,1,0,0:0:0:0:
192,160,4860,1,0,0:0:0:0:
256,288,4920,1,0,0:0:0:0:
224,192,4980,1,0,0:0:0:0:
448,128,5100,1,0,0:0:0:0:
352,128,5160,1,0,0:0:0:0:
224,128,5220,1,0,0:0:0:0:
256,224,5280,1,0,0:0:0:0:
352,256,5340,1,0,0:0:0:0:
288,160,5400,1,0,0:0:0:0:
288,64,5460,1,0,0:0:0:0:
288,192,5580,1,0,0:0:0:0:
192,128,5640,1,0,0:0:0:0:
256,32,5700,1,0,0:0:0:0:
256,128,5760,1,0,0:0:0:0:
32,192,5880,1,0,0:0:0:0:
128,160,5940,1,0,0:0:0:0:
64,256,6000,1,0,0:0:0:0:
160,288,6060,1,0,0:0:0:0:
192,128,6120,1,0,0:0:0:0:
256,224,6180,1,0,0:0:0:0:
320,128,6240,1,0,0:0:0:0:
224,64,6300,1,0,0:0:0:0:
128,64,6360,1,0,0:0:0:0:
192,160,6420,1,0,0:0:0:0:
224,256,6480,1,0,0:0:0:0:
128,224,6540,1,0,0:0:0:0:
224,192,6600,1,0,0:0:0:0:
320,192,6660,1,0,0:0:0:0:
352,96,6720,1,0,0:0:0:0:
320,32,6780,1,0,0:0:0:0:
256,128,6840,1,0,0:0:0:0:
160,96,6900,1,0,0:0:0:0:
160,32,6960,1,0,0:0:0:0:
224,192,7020,1,0,0:0:0:0:
128,160,7080,1,0,0:0:0:0:
192,256,7140,1,0,0:0:0:0:
288,288,7200,1,0,0:0:0:0:
288,192,7260,1,0,0:0:0:0:
256,96,7320,1,0,0:0:0:0:
192,0,7380,1,0,0:0:0:0:
288,64,7440,1,0,0:0:0:0:
256,32,7500,1,0,0:0:0:0:
192,128,7560,1,0,0:0:0:0:
256,224,7620,1,0,0:0:0:0:
320,320,7680,1,0,0:0:0:0:
224,320,7740,1,0,0:0:0:0:
192,224,7800,1,0,0:0:0:0:
288,160,7860,1,0,0:0:0:0:
192,96,7920,1,0,0:0:0:0:
96,96,7980,1,0,0:0:0:0:
128,160,8040,1,0,0:0:0:0:
160,256,8100,1,0,0:0:0:0:
160,160,8160,1,0,0:0:0:0:
256,128,8220,2,0,B|256:0|256:0|416:128|416:128|192:320|192:288|192:160|192:160|192:32|-160:160,1,980
32,192,8700,1,0,0:0:0:0:
128,192,8760,1,0,0:0:0:0:
224,160,8820,1,0,0:0:0:0:
320,96,8880,1,0,0:0:0:0:
384,192,8940,1,0,0:0:0:0:
384,288,9000,1,0,0:0:0:0:
288,320,9060,1,0,0:0:0:0:
256,224,9120,1,0,0:0:0:0:
224,128,9180,1,0,0:0:0:0:
128,64,9240,1,0,0:0:0:0:
160,160,9300,1,0,0:0:0:0:
192,256,9360,1,0,0:0:0:0:
288,320,9420,1,0,0:0:0:0:
320,224,9480,1,0,0:0:0:0:
256,128,9540,1,0,0:0:0:0:
192,224,9600,1,0,0:0:0:0:
96,192,9660,1,0,0:0:0:0:
160,96,9720,1,0,0:0:0:0:
160,320,9840,1,0,0:0:0:0:
192,224,9900,1,0,0:0:0:0:
224,320,9960,1,0,0:0:0:0:
352,128,10080,1,0,0:0:0:0:
256,192,10140,1,0,0:0:0:0:
160,160,10200,1,0,0:0:0:0:
160,96,10260,1,0,0:0:0:0:
224,192,10320,1,0,0:0:0:0:
256,96,10380,1,0,0:0:0:0:
320,192,10440,1,0,0:0:0:0:
224,224,10500,1,0,0:0:0:0:
128,192,10560,1,0,0:0:0:0:
224,128,10620,1,0,0:0:0:0:
448,128,10740,1,0,0:0:0:0:
416,224,10800,1,0,0:0:0:0:
224,192,10920,1,0,0:0:0:0:
288,64,11040,1,0,0:0:0:0:
320,160,11340,1,0,0:0:0:0:
96,128,11700,1,0,0:0:0:0:
384,288,12000,1,0,0:0:0:0:
192,224,12360,1,0,0:0:0:0:
256,96,12600,1,0,0:0:0:0:
448,160,12960,2,0,B|192:192|224:64|192:96,3,280
160,256,13260,2,0,B|480:256|256:224|320:224|224:96,3,280
320,64,13500,2,0,P|96:160|224:224,1,420
32,64,14640,2,0,L|256:224,2,280
128,96,14940,2,0,P|352:288|160:256,1,700
160,128,15360,2,0,P|480:160|224:288,1,700
288,192,15900,2,0,B|32:64|256:288|192:288,1,280
448,64,16200,2,0,L|352:192,1,140
32,192,16500,2,0,B|32:352|32:352|96:352|160:352|96:192|128:288|160:320|160:320|224:352|192:256|192:256|192:192|384:192|448:192|448:96|0:96|32:160,1,980
96,32,16980,1,0,0:0:0:0:
192,64,17040,1,0,0:0:0:0:
96,128,17100,1,0,0:0:0:0:
192,160,17160,1,0,0:0:0:0:
96,224,17220,1,0,0:0:0:0:
192,256,17280,1,0,0:0:0:0:
96,320,17340,1,0,0:0:0:0:
192,352,17400,1,0,0:0:0:0:
288,288,17460,1,0,0:0:0:0:
352,224,17520,1,0,0:0:0:0:
256,160,17580,1,0,0:0:0:0:
352,96,17640,1,0,0:0:0:0:
256,64,17700,1,0,0:0:0:0:
352,64,17760,1,0,0:0:0:0:
448,128,17820,1,0,0:0:0:0:
416,224,17880,1,0,0:0:0:0:
320,160,17940,1,0,0:0:0:0:
288,256,18000,1,0,0:0:0:0:
384,256,18060,1,0,0:0:0:0:
320,352,18120,1,0,0:0:0:0:
224,288,18180,1,0,0:0:0:0:
192,256,18240,1,0,0:0:0:0:
160,160,18300,1,0,0:0:0:0:
192,64,18360,1,0,0:0:0:0:
96,96,18420,1,0,0:0:0:0:
96,192,18480,1,0,0:0:0:0:
160,288,18540,1,0,0:0:0:0:
64,352,18600,1,0,0:0:0:0:
160,352,18660,1,0,0:0:0:0:
256,352,18720,1,0,0:0:0:0:
320,352,18780,1,0,0:0:0:0:
416,352,18840,1,0,0:0:0:0:
384,256,18900,1,0,0:0:0:0:
320,160,18960,1,0,0:0:0:0:
288,256,19020,1,0,0:0:0:0:
160,160,19080,1,0,0:0:0:0:
96,64,19140,1,0,0:0:0:0:
32,32,19200,1,0,0:0:0:0:
128,32,19260,1,0,0:0:0:0:
96,128,19320,1,0,0:0:0:0:
64,128,19380,1,0,0:0:0:0:
128,224,19440,1,0,0:0:0:0:
32,160,19500,1,0,0:0:0:0:
128,224,19560,1,0,0:0:0:0:
192,128,19620,1,0,0:0:0:0:
224,224,19680,1,0,0:0:0:0:
160,320,19740,1,0,0:0:0:0:
64,256,19800,1,0,0:0:0:0:
160,224,19860,1,0,0:0:0:0:
224,128,19920,1,0,0:0:0:0:
160,32,19980,1,0,0:0:0:0:
160,128,20040,1,0,0:0:0:0:
256,160,20100,1,0,0:0:0:0:
320,256,20160,1,0,0:0:0:0:
224,256,20220,1,0,0:0:0:0:
64,96,20340,1,0,0:0:0:0:
32,32,20400,2,0,B|480:32|416:32|416:32|416:352|416:352|0:352|0:352|0:288|0:288|352:288|352:288|352:224|352:224|0:224|0:224|0:160|0:160|352:160|352:160|352:96|352:96|0:96|0:96,1,2800
0,32,21660,1,0,0:0:0:0:
448,352,23400,1,0,0:0:0:0:
32,352,25020,1,0,0:0:0:0:
256,192,26340,1,0,0:0:0:0:
480,32,27780,1,0,0:0:0:0:
256,32,28740,1,0,0:0:0:0:
256,192,28800,12,0,31662,0:0:0:0:
