osu file format v14

[General]
AudioFilename: audio.mp3
AudioLeadIn: 0
PreviewTime: 56101
Countdown:0
SampleSet: Soft
StackLeniency: 0.4
Mode: 0
LetterboxInBreaks:0
WidescreenStoryboard:0

[Editor]
Bookmarks: 42871,56017,75231,92085
DistanceSpacing: 0.75
BeatDivisor: 6
GridSize: 8
TimelineZoom: 2.5

[Metadata]
Title:Chikatto Chika Chika
TitleUnicode:チカっとチカ千花っ♡
Artist:maki ligon
ArtistUnicode:maki ligon
Creator:schoolboy
Version:semaphore's Insane
Source:
Tags:chikattsu 藤原千花 (CV: 小原好美) Fujiwara Kohara Konomi wa kokurasetai tensai-tachi no renai zunousen wants to be confessed to Kaguya-sama: Love Is War sans undertale toby fox MEGALOVANIA battle theme papyrus ost soundtrack anime tv size komore mordred djulus semaphore fser chalwa irohas
BeatmapID:1991375
BeatmapSetID:943606

[Difficulty]
HPDrainRate:5
CircleSize:4
OverallDifficulty:8
ApproachRate:9
SliderMultiplier:1.5
SliderTickRate:0.5

[Events]
//Background and Video events
0,0,"maxresdefault.jpg",0,0
Video,0,"32.mp4"
//Break Periods
2,86691,87440
//Storyboard Layer 0 (Background)
//Storyboard Layer 1 (Fail)
//Storyboard Layer 2 (Pass)
//Storyboard Layer 3 (Foreground)
//Storyboard Sound Samples

[TimingPoints]
400,337.078651685393,4,2,1,40,1,0
400,-133.333333333333,4,2,1,40,0,0
989,-133.333333333333,4,2,1,5,0,0
1074,-133.333333333333,4,2,1,40,0,0
2506,-133.333333333333,4,2,1,5,0,0
2591,-133.333333333333,4,2,1,40,0,0
5203,-133.333333333333,4,2,1,5,0,0
5287,-133.333333333333,4,2,1,40,0,0
7647,-133.333333333333,4,2,1,5,0,0
7815,-133.333333333333,4,2,1,40,0,0
8995,-133.333333333333,4,2,1,5,0,0
9164,-133.333333333333,4,2,1,40,0,0
9753,-133.333333333333,4,2,1,5,0,0
9838,-133.333333333333,4,2,1,40,0,0
10428,-133.333333333333,4,2,1,5,0,0
10512,-100,4,2,1,60,0,0
10765,-100,4,2,1,5,0,0
10849,-100,4,2,1,60,0,0
11102,-100,4,2,1,5,0,0
11186,-100,4,2,1,60,0,0
11439,-100,4,2,1,5,0,0
11523,-100,4,2,1,60,0,0
11776,-100,4,2,1,5,0,0
11860,-100,4,2,1,60,0,0
12282,-133.333333333333,4,2,1,5,0,0
12366,-133.333333333333,4,2,1,60,0,0
12450,-133.333333333333,4,2,1,15,0,0
12534,-133.333333333333,4,2,1,60,0,0
13293,-133.333333333333,4,2,1,5,0,0
13377,-133.333333333333,4,2,1,60,0,0
13419,-133.333333333333,4,2,1,5,0,0
13546,-100,4,2,1,60,0,0
13588,-100,4,2,1,5,0,0
13714,-100,4,2,1,60,0,0
13756,-100,4,2,1,5,0,0
13883,-100,4,2,1,60,0,0
14472,-100,4,2,1,5,0,0
14557,337.078651685393,4,2,1,70,1,0
18686,-100,4,2,1,5,0,0
18770,-100,4,2,1,70,0,0
18812,-100,4,2,1,5,0,0
18939,-100,4,2,1,70,0,0
18981,-100,4,2,1,5,0,0
19107,-100,4,2,1,70,0,0
19149,-100,4,2,1,5,0,0
19276,-100,4,2,1,50,0,0
19950,-100,4,2,1,60,0,0
23573,-100,4,2,1,5,0,0
23658,-100,4,2,1,60,0,0
30989,-100,4,2,1,5,0,0
31073,-100,4,2,1,60,0,0
39079,-100,4,2,1,5,0,0
39163,-100,4,2,1,60,0,0
40090,-100,4,2,1,5,0,0
40174,-100,4,2,1,60,0,0
41523,-80,4,2,1,60,0,0
42871,-133.333333333333,4,2,1,55,0,0
45483,-133.333333333333,4,2,1,5,0,0
45568,-133.333333333333,4,2,1,55,0,0
48180,-133.333333333333,4,2,1,5,0,0
48264,-133.333333333333,4,2,1,55,0,0
50540,-133.333333333333,4,2,1,5,0,0
50624,-133.333333333333,4,2,1,55,0,0
50961,-100,4,2,1,55,0,0
53573,-100,4,2,1,5,0,0
53658,-100,4,2,1,60,0,0
53910,-100,4,2,1,5,0,0
53995,-100,4,2,1,60,0,0
54248,-100,4,2,1,5,0,0
54332,-100,4,2,1,60,0,0
54585,-100,4,2,1,5,0,0
54669,-100,4,2,1,60,0,0
54922,-100,4,2,1,5,0,0
55006,-100,4,2,1,60,0,0
56101,-100,4,2,1,5,0,0
56186,-100,4,2,1,50,0,0
56354,-80,4,2,1,70,0,0
58798,-80,4,2,1,15,0,0
58882,-80,4,2,1,70,0,0
61326,-80,4,2,1,5,0,0
61410,-80,4,2,1,70,0,0
61495,-80,4,2,1,15,0,0
61579,-80,4,2,1,70,0,0
65034,-80,4,2,1,5,0,0
65118,-80,4,2,1,70,0,0
66551,-80,4,2,1,15,0,0
66635,-80,4,2,1,70,0,0
66719,-80,4,2,1,15,0,0
66804,-80,4,2,1,70,0,0
67394,-80,4,2,1,5,0,0
67478,-80,4,2,1,70,0,0
68405,-80,4,2,1,5,0,0
68489,-80,4,2,1,70,0,0
68573,-80,4,2,1,25,0,0
68658,-80,4,2,1,70,0,0
69248,-80,4,2,1,25,0,0
69332,-80,4,2,1,70,0,0
69922,-80,4,2,1,25,0,0
70006,-80,4,2,1,70,0,0
70596,-80,4,2,1,25,0,0
70680,-80,4,2,1,70,0,0
71270,-80,4,2,1,25,0,0
71354,-80,4,2,1,70,0,0
71944,-80,4,2,1,25,0,0
72028,-80,4,2,1,70,0,0
72618,-80,4,2,1,25,0,0
72703,-80,4,2,1,70,0,0
72955,-80,4,2,1,25,0,0
73040,-80,4,2,1,70,0,0
74093,-80,4,2,1,5,0,0
74219,-80,4,2,1,70,0,0
74262,-80,4,2,1,5,0,0
74388,-80,4,2,1,70,0,0
74430,-80,4,2,1,5,0,0
74556,-80,4,2,1,70,0,0
74599,-80,4,2,1,5,0,0
74725,-80,4,2,1,70,0,0
88040,-333.333333333333,4,2,1,70,0,0
92085,-333.333333333333,4,2,1,30,0,0

[Colours]
Combo1 : 255,94,55
Combo2 : 173,255,95
Combo3 : 17,254,176
Combo4 : 255,88,100

[HitObjects]
18,174,400,5,2,0:0:0:0:
92,167,568,1,2,0:0:0:0:
136,226,737,1,2,0:0:0:0:
136,226,1074,1,2,0:0:0:0:
55,361,1579,6,0,P|60:309|56:236,2,112.500004291535,2|2|2,0:0|0:0|0:0,0:0:0:0:
55,361,2591,1,2,0:0:0:0:
134,352,2759,1,2,0:0:0:0:
212,343,2928,1,2,0:0:0:0:
395,311,3096,5,2,0:0:0:0:
454,262,3265,1,2,0:0:0:0:
429,188,3433,1,2,0:0:0:0:
429,188,3770,1,2,0:0:0:0:
346,119,4276,6,0,P|350:169|345:237,2,112.500004291535,2|2|2,0:0|0:0|0:0,0:0:0:0:
346,119,5287,1,2,0:0:0:0:
275,87,5456,1,2,0:0:0:0:
200,97,5624,1,2,0:0:0:0:
97,147,5793,5,2,0:0:0:0:
56,214,5961,1,2,0:0:0:0:
116,262,6130,1,2,0:0:0:0:
184,230,6467,1,2,0:0:0:0:
256,192,6551,12,2,7815,0:0:0:0:
256,192,7899,12,0,9079,0:0:0:0:
164,156,9164,6,0,P|167:110|162:35,1,112.500004291535,2|0,0:0|0:0,0:0:0:0:
349,44,9838,2,0,P|346:90|351:165,1,112.500004291535,2|0,0:0|0:0,0:0:0:0:
130,223,10512,6,0,L|188:229,1,37.5,2|0,1:2|0:0,0:0:0:0:
55,238,10680,1,0,0:0:0:0:
55,238,10849,1,2,0:0:0:0:
393,224,11186,6,0,L|335:230,1,37.5,10|0,1:2|0:0,0:0:0:0:
468,239,11354,1,0,0:0:0:0:
468,239,11523,1,2,0:0:0:0:
249,365,11860,6,0,B|204:262|298:260|249:133,1,225,6|2,1:2|0:0,0:0:0:0:
254,147,12534,1,2,0:0:0:0:
254,147,13377,1,10,0:0:0:0:
135,240,13546,1,10,0:0:0:0:
254,327,13714,1,10,0:0:0:0:
362,239,13883,1,2,0:3:0:0:
362,239,14220,1,4,0:3:0:0:
477,89,14557,6,0,B|411:81|405:143|336:141,1,150,6|8,1:2|0:0,0:0:0:0:
441,224,15062,2,0,P|491:235|538:263,1,75,0|2,1:0|0:0,0:0:0:0:
361,258,15399,1,0,1:0:0:0:
281,234,15568,2,0,P|222:250|160:305,1,112.5,8|0,0:0|0:0,0:0:0:0:
92,255,15905,5,0,1:0:0:0:
25,205,16073,1,2,0:0:0:0:
87,145,16242,1,8,0:0:0:0:
153,196,16410,2,0,P|159:243|161:351,1,150,2|2,1:2|1:2,0:0:0:0:
242,343,16916,1,8,0:0:0:0:
238,268,17085,1,2,0:0:0:0:
359,188,17253,6,0,P|353:141|351:33,1,150,2|8,1:2|0:0,0:0:0:0:
268,110,17759,2,0,P|221:111|174:118,1,75,0|2,1:0|0:0,0:0:0:0:
117,136,18096,1,0,1:2:0:0:
40,140,18264,2,0,B|111:122|109:191|185:190,1,150,8|0,0:0|0:0,0:0:0:0:
502,219,18770,5,8,0:0:0:0:
385,178,18939,1,8,0:0:0:0:
302,271,19107,1,8,0:0:0:0:
356,375,19276,1,10,0:2:0:0:
376,364,19444,1,2,0:0:0:0:
370,343,19613,1,2,0:0:0:0:
350,340,19781,1,2,0:0:0:0:
206,272,19950,6,0,B|135:254|137:323|61:322,1,150,6|8,1:2|0:0,0:0:0:0:
195,355,20455,2,0,P|238:361|282:390,1,75,2|0,1:2|0:0,0:0:0:0:
382,248,20792,1,2,1:2:0:0:
306,263,20961,2,0,P|304:211|295:128,1,112.5,8|0,0:0|0:0,0:0:0:0:
294,132,21298,6,0,P|294:180|298:240,1,75,2|2,1:2|0:0,0:0:0:0:
302,66,21635,1,8,0:0:0:0:
288,0,21804,2,0,P|237:5|153:85,1,150,2|0,1:0|1:0,0:0:0:0:
91,96,22309,1,10,0:0:0:0:
91,96,22478,1,2,0:0:0:0:
0,219,22646,6,0,P|49:215|170:219,1,150,0|10,1:2|0:0,0:0:0:0:
268,291,23152,2,0,P|222:289|173:294,1,75,2|2,1:2|0:0,0:0:0:0:
331,247,23489,1,0,0:0:0:0:
403,274,23658,2,0,L|413:143,1,112.5,10|0,0:0|0:0,0:0:0:0:
417,143,23995,5,2,1:2:0:0:
497,218,24163,1,2,0:0:0:0:
410,287,24332,1,8,0:0:0:0:
323,204,24500,2,0,P|317:137|319:34,1,150,2|0,1:0|1:0,0:0:0:0:
237,52,25006,1,10,0:0:0:0:
236,128,25174,1,2,0:0:0:0:
165,215,25343,6,0,P|171:282|169:385,1,150,2|8,1:2|0:0,0:0:0:0:
265,323,25849,2,0,P|262:272|264:216,1,75,2|2,1:2|0:0,0:0:0:0:
308,184,26186,1,2,1:2:0:0:
388,173,26354,2,0,P|444:179|512:256,1,150,10|2,0:0|1:2,0:0:0:0:
507,242,26860,1,0,0:0:0:0:
459,308,27028,1,8,0:0:0:0:
498,374,27197,6,0,L|489:215,1,150,2|0,1:2|1:0,0:0:0:0:
471,145,27703,1,8,0:0:0:0:
471,67,27871,1,2,0:0:0:0:
369,159,28040,6,0,P|320:155|269:159,1,75,2|2,1:2|0:0,0:0:0:0:
366,246,28377,2,0,P|317:250|266:246,1,75,10|2,0:0|1:2,0:0:0:0:
211,202,28714,2,0,B|138:189|144:250|71:247,1,150,2|8,0:0|0:0,0:0:0:0:
122,321,29219,1,2,0:0:0:0:
31,384,29388,6,0,P|27:343|18:278,1,75,2|2,1:2|1:2,0:0:0:0:
27,147,29725,1,10,0:2:0:0:
27,147,29894,1,2,1:2:0:0:
27,147,30062,1,2,1:2:0:0:
104,116,30231,1,2,0:0:0:0:
177,136,30399,1,2,0:0:0:0:
250,161,30568,1,2,0:0:0:0:
501,131,30736,6,0,B|438:108|434:174|361:172,1,150,2|8,1:2|0:0,0:0:0:0:
293,94,31242,2,0,P|295:52|292:-2,1,75,0|2,1:0|0:0,0:0:0:0:
250,161,31579,1,0,1:0:0:0:
317,198,31748,2,0,P|327:240|319:321,1,112.5,10|0,0:0|0:0,0:0:0:0:
269,368,32085,5,2,1:2:0:0:
202,315,32253,1,2,0:0:0:0:
261,257,32422,1,8,0:0:0:0:
322,308,32590,2,0,L|163:325,1,150,2|0,1:0|1:0,0:0:0:0:
97,321,33096,1,10,0:0:0:0:
22,335,33264,1,2,0:0:0:0:
63,198,33433,6,0,P|130:201|206:239,1,150,2|10,1:2|0:0,0:0:0:0:
27,118,33939,1,0,1:2:0:0:
102,96,34107,2,0,P|147:88|186:61,1,75,2|0,0:0|1:0,0:0:0:0:
355,131,34444,1,10,0:0:0:0:
280,136,34613,6,0,P|286:187|285:315,1,150,2|0,0:0|0:0,0:0:0:0:
365,256,35118,1,8,0:0:0:0:
440,288,35287,2,0,P|449:209|465:118,1,150,2|0,1:2|1:0,0:0:0:0:
378,337,35792,1,8,0:0:0:0:
303,316,35961,1,2,0:0:0:0:
199,208,36130,6,0,P|129:216|39:276,1,150,2|10,1:2|0:0,0:0:0:0:
232,292,36635,2,0,P|272:300|317:327,1,75,2|0,1:2|0:0,0:0:0:0:
310,227,36972,1,2,1:2:0:0:
330,152,37141,1,8,0:0:0:0:
298,82,37309,1,2,0:0:0:0:
318,7,37478,6,0,L|308:172,1,150,2|8,1:2|0:0,0:0:0:0:
147,297,37983,2,0,L|157:132,1,150,2|2,1:2|1:2,0:0:0:0:
235,20,38489,2,0,P|229:67|227:116,1,75,10|2,0:0|0:0,0:0:0:0:
463,200,38826,6,0,B|398:180|399:246|321:242,1,150,2|8,1:2|0:0,0:0:0:0:
257,181,39332,1,0,1:0:0:0:
323,121,39500,1,2,0:0:0:0:
385,184,39669,1,0,1:0:0:0:
325,242,39837,2,0,L|321:152,1,75,8|0,0:0|0:0,0:0:0:0:
313,365,40174,6,0,B|217:314|217:314|99:361,1,225,2|0,1:2|0:0,0:0:0:0:
90,32,40849,2,0,B|198:75|198:75|294:24,1,225,2|0,1:2|0:0,0:0:0:0:
421,135,41523,6,0,B|235:98|280:261|68:237,1,375,6|0,1:2|0:0,0:0:0:0:
18,189,42365,1,0,0:0:0:0:
38,114,42534,1,0,0:0:0:0:
113,96,42703,1,0,0:0:0:0:
251,287,42871,5,2,1:2:0:0:
251,287,43040,2,0,P|298:282|378:286,1,112.500004291535,2|2,1:2|0:0,0:0:0:0:
436,294,43714,1,2,0:0:0:0:
388,358,44051,1,2,0:0:0:0:
321,203,44219,5,2,1:2:0:0:
321,203,44388,2,0,P|327:161|328:123,1,56.2500021457673,2|2,1:2|0:0,0:0:0:0:
482,103,44725,2,0,P|476:145|463:287,1,168.750006437302,2|2,0:0|0:0,0:0:0:0:
162,190,45568,5,2,1:2:0:0:
162,190,45736,2,0,P|106:186|41:190,1,112.500004291535,2|2,1:2|0:0,0:0:0:0:
0,130,46410,1,2,0:0:0:0:
74,107,46748,1,0,0:0:0:0:
165,261,46916,5,2,1:2:0:0:
242,301,47085,2,0,L|206:305,3,18.7500007152558,2|2|2|2,1:2|0:0|0:0|0:0,0:0:0:0:
296,282,47422,1,2,0:0:0:0:
369,301,47590,1,2,0:0:0:0:
369,301,47759,1,2,0:0:0:0:
476,104,48264,5,2,1:2:0:0:
476,104,48433,2,0,P|424:101|346:111,1,112.500004291535,2|2,1:2|0:0,0:0:0:0:
294,67,48939,1,10,0:0:0:0:
217,80,49107,2,0,P|182:83|136:84,1,56.2500021457673,2|2,0:0|0:0,0:0:0:0:
13,163,49444,1,2,0:0:0:0:
86,185,49613,5,2,1:2:0:0:
86,185,49781,2,0,P|131:191|200:232,1,112.500004291535,2|2,1:2|0:0,0:0:0:0:
89,81,50287,2,0,P|129:76|211:35,1,112.500004291535,8|2,0:0|0:0,0:0:0:0:
313,87,50792,1,2,0:0:0:0:
372,138,50961,6,0,P|363:194|355:307,1,150,2|10,1:2|0:0,0:0:0:0:
138,358,51467,2,0,P|147:302|155:189,1,150,2|2,1:2|1:2,0:0:0:0:
154,209,51972,1,8,0:0:0:0:
452,153,52309,6,0,P|446:227|435:301,1,150,2|10,1:2|0:0,0:0:0:0:
246,104,52815,2,0,P|245:156|253:276,1,150,2|0,1:2|1:0,0:0:0:0:
250,253,53321,1,8,0:0:0:0:
38,144,53658,5,10,1:2:0:0:
256,136,53995,1,2,0:0:0:0:
474,144,54332,5,10,1:2:0:0:
256,136,54500,1,0,0:0:0:0:
256,136,54669,1,2,0:0:0:0:
262,212,54837,1,0,0:0:0:0:
254,384,55006,5,14,1:2:0:0:
272,309,55174,1,0,0:0:0:0:
246,232,55343,1,0,0:0:0:0:
266,188,55512,2,0,P|263:138|261:32,1,150,0|0,0:0|0:0,0:0:0:0:
474,144,56017,1,4,0:3:0:0:
21,187,56354,6,0,B|112:168|107:262|208:251,1,187.5,6|10,1:2|0:0,0:0:0:0:
266,188,56860,1,2,1:2:0:0:
192,132,57028,1,2,3:2:0:0:
121,191,57197,1,2,1:2:0:0:
261,322,57365,1,10,0:0:0:0:
180,345,57534,1,2,0:0:0:0:
180,345,57703,6,0,P|185:284|193:226,1,93.75,2|2,1:2|0:0,0:0:0:0:
287,314,58040,1,10,0:0:0:0:
372,192,58208,2,0,L|386:390,1,187.5,0|0,1:0|1:0,0:0:0:0:
442,161,58714,1,10,0:2:0:0:
388,103,58882,1,2,0:0:0:0:
420,33,59051,6,0,B|343:0|331:87|245:82,1,187.5,2|10,1:2|0:0,0:0:0:0:
247,82,59556,1,2,1:2:0:0:
161,30,59725,1,2,3:2:0:0:
91,55,59894,1,2,1:2:0:0:
62,146,60062,1,10,0:0:0:0:
118,194,60231,1,2,0:0:0:0:
216,155,60399,5,2,1:2:0:0:
268,76,60568,1,2,0:0:0:0:
216,155,60736,1,10,0:0:0:0:
300,112,60905,1,2,1:2:0:0:
342,218,61073,2,0,B|430:254|430:254|522:207,1,187.5,2|10,0:1|0:0,0:0:0:0:
509,296,61579,1,2,0:0:0:0:
360,329,61748,6,0,P|296:325|156:330,1,187.5,2|10,1:2|0:0,0:0:0:0:
86,316,62253,1,2,1:2:0:0:
58,219,62422,1,2,3:2:0:0:
131,226,62590,1,2,1:2:0:0:
355,218,62759,1,10,0:0:0:0:
428,211,62927,1,2,0:0:0:0:
145,146,63096,5,2,1:2:0:0:
217,117,63264,2,0,P|220:197|218:341,1,187.5,2|2,0:0|1:2,0:0:0:0:
214,381,63770,1,2,0:0:0:0:
134,295,63939,1,2,1:2:0:0:
228,229,64107,1,10,0:0:0:0:
306,306,64276,1,2,0:0:0:0:
219,304,64444,5,2,1:2:0:0:
225,269,64528,1,0,0:0:0:0:
228,229,64613,1,2,1:0:0:0:
224,194,64697,1,0,0:0:0:0:
218,159,64781,1,10,0:0:0:0:
468,64,65118,5,2,1:2:0:0:
462,99,65202,1,0,0:0:0:0:
459,139,65287,1,2,1:2:0:0:
463,174,65371,1,0,0:0:0:0:
469,209,65455,1,10,0:0:0:0:
465,281,65624,1,2,0:0:0:0:
315,381,65792,5,2,1:2:0:0:
316,296,65961,1,2,1:2:0:0:
305,217,66130,1,2,1:2:0:0:
313,163,66298,1,2,0:0:0:0:
302,136,66467,6,0,L|308:250,1,93.75,2|2,0:0|0:0,0:0:0:0:
207,158,66804,1,8,0:0:0:0:
298,89,66972,1,2,0:0:0:0:
208,187,67141,6,0,P|136:194|42:284,1,187.5,6|8,1:2|0:0,0:0:0:0:
221,278,67646,2,0,P|272:292|313:324,1,93.75,0|2,1:0|0:0,0:0:0:0:
499,196,67983,1,2,1:2:0:0:
424,211,68152,1,8,0:0:0:0:
399,255,68321,1,0,0:0:0:0:
441,114,68489,5,2,1:2:0:0:
441,114,68658,1,2,1:2:0:0:
441,114,68826,2,0,L|338:117,1,93.75,2|2,0:0|0:0,0:0:0:0:
49,75,69163,5,2,1:2:0:0:
49,75,69332,1,2,1:2:0:0:
49,75,69500,2,0,L|152:78,1,93.75,2|2,0:0|0:0,0:0:0:0:
391,23,69837,5,2,1:2:0:0:
316,30,70006,1,2,1:2:0:0:
267,120,70174,1,2,0:0:0:0:
312,183,70343,1,2,0:0:0:0:
415,178,70512,1,2,1:2:0:0:
450,111,70680,2,0,P|445:169|448:220,1,93.75,2|2,1:2|0:0,0:0:0:0:
248,369,71186,5,2,1:2:0:0:
238,288,71354,1,4,0:3:0:0:
238,288,71691,1,2,0:0:0:0:
238,288,71860,5,2,1:2:0:0:
248,207,72028,1,4,0:3:0:0:
248,207,72365,1,2,0:0:0:0:
111,146,72534,5,2,1:2:0:0:
401,146,72703,1,4,0:3:0:0:
401,146,72871,5,2,1:2:0:0:
111,146,73040,1,4,0:3:0:0:
48,144,74051,5,8,0:0:0:0:
120,135,74219,1,8,0:0:0:0:
192,154,74388,1,8,0:0:0:0:
263,158,74556,1,8,0:0:0:0:
263,158,74894,2,0,P|261:106|264:43,1,93.75,4|2,0:3|0:0,0:0:0:0:
481,225,75231,6,0,P|483:277|480:340,1,93.75,6|2,1:2|0:0,0:0:0:0:
347,264,75568,1,8,0:0:0:0:
276,241,75736,2,0,B|194:290|194:290|82:235,1,187.5,0|0,1:0|1:0,0:0:0:0:
46,190,76242,2,0,L|50:84,1,93.75,8|2,0:0|0:0,0:0:0:0:
42,287,76579,5,0,1:0:0:0:
116,308,76748,1,2,0:0:0:0:
169,340,76916,1,8,0:0:0:0:
315,347,77085,2,0,P|312:282|321:137,1,187.5,2|2,1:2|1:2,0:0:0:0:
313,84,77590,1,8,0:0:0:0:
322,9,77759,1,2,0:0:0:0:
140,46,77927,5,2,1:2:0:0:
61,131,78096,1,2,0:0:0:0:
165,201,78264,1,10,0:0:0:0:
233,111,78433,1,2,1:2:0:0:
140,46,78601,5,2,3:2:0:0:
136,123,78770,1,2,1:2:0:0:
136,261,78939,1,10,0:0:0:0:
140,338,79108,1,2,0:0:0:0:
136,261,79276,6,0,B|223:231|221:345|319:323,1,187.5,0|8,1:2|0:0,0:0:0:0:
85,190,79781,2,0,P|36:198|-9:233,1,93.75,2|0,1:2|0:0,0:0:0:0:
208,161,80118,1,0,1:2:0:0:
172,89,80287,1,8,0:0:0:0:
210,20,80455,1,2,0:0:0:0:
339,190,80624,6,0,P|394:186|505:193,1,140.625,2|0,1:2|0:0,0:0:0:0:
502,194,80961,1,10,0:0:0:0:
496,281,81130,1,2,0:0:0:0:
484,361,81298,2,0,B|443:380|443:380|396:368,1,93.75,2|0,0:2|1:2,0:0:0:0:
250,312,81635,1,10,0:0:0:0:
339,279,81804,1,0,1:0:0:0:
250,312,81972,6,0,P|204:323|152:374,1,93.75,2|0,1:2|1:2,0:0:0:0:
252,214,82309,1,10,0:0:0:0:
184,170,82478,2,0,P|132:155|28:50,1,187.5,0|0,1:0|1:0,0:0:0:0:
105,227,82983,1,10,0:0:0:0:
31,233,83152,1,0,1:0:0:0:
323,176,83321,6,0,B|423:150|403:250|515:231,1,187.5,2|10,1:2|0:2,0:0:0:0:
409,300,83826,1,2,0:0:0:0:
478,380,83995,2,0,P|421:378|371:384,1,93.75,2|2,1:2|0:0,0:0:0:0:
246,255,84332,2,0,P|303:257|353:251,1,93.75,10|2,0:0|0:0,0:0:0:0:
471,96,84669,5,2,1:2:0:0:
376,79,84837,1,2,1:2:0:0:
41,96,85006,5,10,0:2:0:0:
136,79,85174,1,2,1:2:0:0:
368,236,85343,5,2,1:2:0:0:
242,148,85512,1,2,1:2:0:0:
136,263,85680,1,10,0:2:0:0:
265,349,85849,1,2,1:2:0:0:
495,110,88040,6,0,B|265:27|299:350|23:285,1,539.999983520508,6|2,0:0|0:0,0:0:0:0:
