osu file format v14

[General]
AudioFilename: audio.mp3
AudioLeadIn: 0
PreviewTime: 56101
Countdown:0
SampleSet: Soft
StackLeniency: 0.4
Mode: 0
LetterboxInBreaks:0
WidescreenStoryboard:0

[Editor]
Bookmarks: 15231,56017,83658,92590
DistanceSpacing: 0.75
BeatDivisor: 4
GridSize: 16
TimelineZoom: 1.7

[Metadata]
Title:Chikatto Chika Chika
TitleUnicode:チカっとチカ千花っ♡
Artist:maki ligon
ArtistUnicode:maki ligon
Creator:schoolboy
Version:Normal
Source:
Tags:chikattsu 藤原千花 (CV: 小原好美) Fujiwara Kohara Konomi wa kokurasetai tensai-tachi no renai zunousen wants to be confessed to Kaguya-sama: Love Is War sans undertale toby fox MEGALOVANIA battle theme papyrus ost soundtrack anime tv size komore mordred djulus semaphore fser chalwa irohas
BeatmapID:1991373
BeatmapSetID:943606

[Difficulty]
HPDrainRate:3
CircleSize:3.5
OverallDifficulty:4
ApproachRate:5
SliderMultiplier:1.2
SliderTickRate:0.5

[Events]
//Background and Video events
0,0,"maxresdefault.jpg",0,0
Video,0,"32.mp4"
//Break Periods
//Storyboard Layer 0 (Background)
//Storyboard Layer 1 (Fail)
//Storyboard Layer 2 (Pass)
//Storyboard Layer 3 (Foreground)
//Storyboard Sound Samples

[TimingPoints]
400,337.078651685393,4,2,1,40,1,0
989,-100,4,2,1,5,0,0
1074,-100,4,2,1,40,0,0
2506,-100,4,2,1,5,0,0
2591,-100,4,2,1,40,0,0
5203,-100,4,2,1,5,0,0
5287,-100,4,2,1,40,0,0
7647,-100,4,2,1,5,0,0
7815,-100,4,2,1,40,0,0
8995,-100,4,2,1,5,0,0
9164,-100,4,2,1,40,0,0
9753,-100,4,2,1,5,0,0
9838,-100,4,2,1,40,0,0
10428,-100,4,2,1,5,0,0
10512,-100,4,2,1,60,0,0
10765,-100,4,2,1,5,0,0
10849,-100,4,2,1,60,0,0
11102,-100,4,2,1,5,0,0
11186,-100,4,2,1,60,0,0
11439,-100,4,2,1,5,0,0
11523,-100,4,2,1,60,0,0
11776,-100,4,2,1,5,0,0
11860,-100,4,2,1,60,0,0
12282,-100,4,2,1,5,0,0
12366,-100,4,2,1,60,0,0
12450,-100,4,2,1,15,0,0
12534,-100,4,2,1,60,0,0
13293,-100,4,2,1,5,0,0
13377,-100,4,2,1,60,0,0
13419,-100,4,2,1,5,0,0
13546,-100,4,2,1,60,0,0
13588,-100,4,2,1,5,0,0
13714,-100,4,2,1,60,0,0
13756,-100,4,2,1,5,0,0
13883,-100,4,2,1,60,0,0
14472,-100,4,2,1,5,0,0
14557,337.078651685393,4,2,1,70,1,0
14557,-100,4,2,1,70,0,0
18686,-100,4,2,1,5,0,0
18770,-100,4,2,1,70,0,0
18812,-100,4,2,1,5,0,0
18939,-100,4,2,1,70,0,0
18981,-100,4,2,1,5,0,0
19107,-100,4,2,1,70,0,0
19149,-100,4,2,1,5,0,0
19276,-100,4,2,1,50,0,0
19950,-100,4,2,1,60,0,0
23573,-100,4,2,1,5,0,0
23658,-100,4,2,1,60,0,0
30989,-100,4,2,1,5,0,0
31073,-100,4,2,1,60,0,0
39079,-100,4,2,1,5,0,0
39163,-100,4,2,1,60,0,0
40090,-100,4,2,1,5,0,0
40174,-100,4,2,1,60,0,0
42871,-100,4,2,1,55,0,0
45483,-100,4,2,1,5,0,0
45568,-100,4,2,1,55,0,0
48180,-100,4,2,1,5,0,0
48264,-100,4,2,1,55,0,0
50540,-100,4,2,1,5,0,0
50624,-100,4,2,1,55,0,0
53573,-100,4,2,1,5,0,0
53658,-100,4,2,1,60,0,0
53910,-100,4,2,1,5,0,0
53995,-100,4,2,1,60,0,0
54248,-100,4,2,1,5,0,0
54332,-100,4,2,1,60,0,0
54585,-100,4,2,1,5,0,0
54669,-100,4,2,1,60,0,0
54922,-100,4,2,1,5,0,0
55006,-100,4,2,1,60,0,0
56101,-100,4,2,1,5,0,0
56186,-100,4,2,1,50,0,0
56354,-100,4,2,1,70,0,0
58798,-100,4,2,1,15,0,0
58882,-100,4,2,1,70,0,0
61326,-100,4,2,1,5,0,0
61410,-100,4,2,1,70,0,0
61495,-100,4,2,1,15,0,0
61579,-100,4,2,1,70,0,0
65034,-100,4,2,1,5,0,0
65118,-100,4,2,1,70,0,0
66551,-100,4,2,1,15,0,0
66635,-100,4,2,1,70,0,0
66719,-100,4,2,1,15,0,0
66804,-100,4,2,1,70,0,0
67394,-100,4,2,1,5,0,0
67478,-100,4,2,1,70,0,0
68405,-100,4,2,1,5,0,0
68489,-100,4,2,1,70,0,0
68573,-100,4,2,1,25,0,0
68658,-100,4,2,1,70,0,0
69248,-100,4,2,1,25,0,0
69332,-100,4,2,1,70,0,0
69922,-100,4,2,1,25,0,0
70006,-100,4,2,1,70,0,0
70596,-100,4,2,1,25,0,0
70680,-100,4,2,1,70,0,0
71270,-100,4,2,1,25,0,0
71354,-100,4,2,1,70,0,0
71944,-100,4,2,1,25,0,0
72028,-100,4,2,1,70,0,0
72618,-100,4,2,1,25,0,0
72703,-100,4,2,1,70,0,0
72955,-100,4,2,1,25,0,0
73040,-100,4,2,1,70,0,0
74093,-100,4,2,1,5,0,0
74219,-100,4,2,1,70,0,0
74262,-100,4,2,1,5,0,0
74388,-100,4,2,1,70,0,0
74430,-100,4,2,1,5,0,0
74556,-100,4,2,1,70,0,0
74599,-100,4,2,1,5,0,0
74725,-100,4,2,1,70,0,0
92085,-100,4,2,1,30,0,0

[Colours]
Combo1 : 255,94,55
Combo2 : 173,255,95
Combo3 : 17,254,176
Combo4 : 255,88,100

[HitObjects]
76,279,400,6,0,L|68:219,2,60,2|2|2,0:0|0:0|0:0,0:0:0:0:
140,341,1074,2,0,B|199:327|198:304|249:293,1,120,2|0,0:0|0:0,0:0:0:0:
287,316,1579,2,0,P|345:318|383:275,2,120,2|2|2,0:0|0:0|0:0,0:0:0:0:
232,243,2591,1,2,0:0:0:0:
232,243,2759,2,0,L|239:183,1,60,2|2,0:0|0:0,0:0:0:0:
206,152,3096,6,0,L|147:166,2,60,2|2|2,0:0|0:0|0:0,0:0:0:0:
275,94,3770,2,0,P|334:103|393:112,1,120,2|0,0:0|0:0,0:0:0:0:
431,136,4276,2,0,P|467:93|446:40,2,120,2|2|2,0:0|0:0|0:0,0:0:0:0:
360,192,5287,1,2,0:0:0:0:
360,192,5456,2,0,L|364:251,1,60,2|2,0:0|0:0,0:0:0:0:
395,282,5793,6,0,P|425:284|452:271,2,60,2|2|2,0:0|0:0|0:0,0:0:0:0:
329,343,6467,1,2,0:0:0:0:
329,343,7815,5,2,0:0:0:0:
329,343,9164,5,2,0:0:0:0:
154,299,9838,1,2,0:0:0:0:
57,145,10512,6,0,P|100:107|157:118,1,120,2|2,1:2|0:0,0:0:0:0:
233,167,11186,2,0,P|290:176|333:137,1,120,10|2,1:2|0:0,0:0:0:0:
391,68,11860,2,0,P|495:91|463:193,1,240,6|2,1:2|0:0,0:0:0:0:
297,343,13377,2,0,L|295:283,2,60,10|10|10,0:0|0:0|0:0,0:0:0:0:
260,369,13883,1,2,0:3:0:0:
174,341,14220,1,4,0:3:0:0:
89,372,14557,6,0,P|91:343|86:313,1,60,6|2,1:2|0:0,0:0:0:0:
57,278,14894,2,0,L|63:218,1,60,8|0,0:0|1:0,0:0:0:0:
71,173,15231,2,0,P|128:182|169:141,1,120,2|8,0:0|0:0,0:0:0:0:
207,117,15736,1,2,1:0:0:0:
294,137,16073,2,0,L|353:128,1,60,2|8,0:0|0:0,0:0:0:0:
389,154,16410,1,2,1:2:0:0:
462,101,16748,1,2,1:2:0:0:
461,101,16916,2,0,P|468:71|464:42,1,60,8|2,0:0|0:0,0:0:0:0:
423,22,17253,6,0,L|363:30,1,60,2|2,1:2|0:0,0:0:0:0:
319,38,17590,1,8,0:0:0:0:
259,105,17927,2,0,L|268:224,1,120,2|8,0:0|0:0,0:0:0:0:
275,269,18433,1,2,0:0:0:0:
341,328,18770,2,0,P|370:318|400:319,2,60,8|8|8,0:0|0:0|0:0,0:0:0:0:
304,352,19276,1,10,0:2:0:0:
150,258,19950,6,0,P|146:198|142:138,1,120,6|8,1:2|0:0,0:0:0:0:
109,108,20455,2,0,P|165:118|207:77,1,120,2|2,1:2|1:2,0:0:0:0:
220,34,20961,1,8,0:0:0:0:
300,73,21298,1,2,1:2:0:0:
300,73,21467,2,0,L|358:60,1,60,2|8,0:0|0:0,0:0:0:0:
402,50,21804,2,0,L|389:169,1,120,2|0,1:0|1:0,0:0:0:0:
360,203,22309,2,0,L|367:262,1,60,10|2,0:0|0:0,0:0:0:0:
372,306,22646,6,0,P|323:276|266:288,1,120,0|10,1:2|0:0,0:0:0:0:
233,319,23152,2,0,L|114:302,1,120,2|0,1:2|0:0,0:0:0:0:
76,327,23658,1,10,0:0:0:0:
30,249,23995,1,2,1:2:0:0:
30,249,24163,2,0,P|30:219|44:193,1,60,2|8,0:0|0:0,0:0:0:0:
82,167,24500,2,0,L|67:47,1,120,2|0,1:0|1:0,0:0:0:0:
99,15,25006,1,10,0:0:0:0:
170,70,25343,6,0,P|227:80|274:46,1,120,2|8,1:2|0:0,0:0:0:0:
315,65,25849,1,2,1:2:0:0:
315,65,26017,2,0,L|308:124,1,60,2|2,0:0|1:2,0:0:0:0:
331,163,26354,2,0,P|338:191|336:221,1,60,10|2,0:0|0:0,0:0:0:0:
314,261,26691,1,2,1:2:0:0:
391,313,27028,1,8,0:0:0:0:
391,313,27197,2,0,P|440:281|498:289,1,120,2|0,1:2|1:0,0:0:0:0:
505,244,27703,2,0,L|496:184,1,60,8|2,0:0|0:0,0:0:0:0:
488,140,28040,5,2,1:2:0:0:
407,99,28377,1,10,0:0:0:0:
326,139,28714,1,2,0:0:0:0:
244,97,29051,2,0,P|216:89|186:90,1,60,8|2,0:0|0:0,0:0:0:0:
150,118,29388,1,2,1:2:0:0:
150,118,29556,2,0,L|156:177,1,60,2|10,1:2|0:2,0:0:0:0:
180,216,29894,2,0,L|172:275,1,60,2|2,1:2|1:2,0:0:0:0:
11,355,30736,6,0,L|-2:235,2,120,2|8|2,1:2|0:0|0:0,0:0:0:0:
49,376,31579,2,0,P|77:364|107:362,1,60,0|10,1:0|0:0,0:0:0:0:
177,305,32085,1,2,1:2:0:0:
177,305,32253,2,0,L|236:311,1,60,2|8,0:0|0:0,0:0:0:0:
270,340,32590,2,0,P|328:329|388:329,1,120,2|0,1:0|1:0,0:0:0:0:
430,346,33096,1,10,0:0:0:0:
483,274,33433,6,0,P|494:246|495:216,1,60,2|2,1:2|0:0,0:0:0:0:
468,180,33770,2,0,L|459:120,1,60,10|0,0:0|1:2,0:0:0:0:
474,78,34107,2,0,P|417:90|364:64,1,120,2|10,0:0|0:0,0:0:0:0:
284,20,34781,2,0,P|225:28|166:37,1,120,2|8,1:2|0:0,0:0:0:0:
126,17,35287,2,0,B|113:69|134:85|122:137,1,120,2|0,1:2|1:0,0:0:0:0:
99,175,35792,1,8,0:0:0:0:
90,264,36130,6,0,P|135:227|193:227,1,120,2|10,1:2|0:0,0:0:0:0:
237,214,36635,2,0,L|251:94,2,120,2|2|2,1:2|1:2|0:0,0:0:0:0:
267,246,37478,2,0,P|287:301|274:359,1,120,2|8,1:2|0:0,0:0:0:0:
229,364,37983,2,0,B|178:353|167:387|111:378,1,120,2|2,1:2|1:2,0:0:0:0:
72,356,38489,1,10,0:0:0:0:
27,277,38826,5,2,1:2:0:0:
93,212,39163,2,0,B|213:172|195:290|315:258,1,240,8|8,0:0|0:0,0:0:0:0:
390,207,40174,2,0,P|393:148|386:88,1,120,2|2,1:2|0:0,0:0:0:0:
300,57,40849,2,0,P|297:116|304:176,1,120,2|2,1:2|0:0,0:0:0:0:
390,206,41523,6,0,P|490:252|458:357,1,240,6|0,1:2|0:0,0:0:0:0:
375,323,42534,1,0,0:0:0:0:
294,362,42871,6,0,L|234:367,1,60,2|2,1:2|1:2,0:0:0:0:
189,375,43208,2,0,P|135:353|77:363,2,120,2|2|2,0:0|0:0|0:0,0:0:0:0:
228,295,44219,2,0,P|236:265|235:236,1,60,2|2,1:2|1:2,0:0:0:0:
209,199,44556,2,0,L|225:80,2,120,2|2|2,0:0|0:0|0:0,0:0:0:0:
295,226,45568,6,0,L|353:214,1,60,2|2,1:2|1:2,0:0:0:0:
390,189,45905,2,0,P|450:196|509:205,2,120,2|2|2,0:0|0:0|0:0,0:0:0:0:
336,117,46916,2,0,P|327:88|328:58,1,60,2|2,1:2|1:2,0:0:0:0:
291,31,47253,2,0,P|234:17|190:54,2,120,2|2|0,0:0|0:0|0:0,0:0:0:0:
376,2,48264,5,2,1:2:0:0:
376,2,48433,1,2,1:2:0:0:
440,120,48939,2,0,L|421:238,1,120,10|2,0:0|0:0,0:0:0:0:
460,319,49613,1,2,1:2:0:0:
460,319,49781,1,2,1:2:0:0:
336,375,50287,2,0,P|288:341|229:337,1,120,8|2,0:0|0:0,0:0:0:0:
141,355,50961,6,0,L|136:295,1,60,2|0,1:2|0:0,0:0:0:0:
107,260,51298,2,0,L|114:200,1,60,10|2,0:0|1:2,0:0:0:0:
95,159,51635,2,0,B|158:149|151:123|205:113,1,120,2|8,0:0|0:0,0:0:0:0:
289,144,52309,2,0,P|345:159|394:129,1,120,2|10,1:2|0:0,0:0:0:0:
430,102,52815,1,2,1:2:0:0:
430,102,52983,2,0,P|421:161|414:220,1,120,2|8,0:0|0:0,0:0:0:0:
462,297,53658,5,10,1:2:0:0:
293,360,54332,1,10,1:2:0:0:
121,304,55006,2,0,B|147:212|77:132|77:132|181:165|245:118,1,360,14|4,1:2|0:3,0:0:0:0:
313,61,56354,6,0,L|371:72,1,60,6|2,1:2|0:0,0:0:0:0:
404,101,56691,2,0,P|434:102|463:95,1,60,10|2,0:0|1:2,0:0:0:0:
499,67,57028,2,0,L|483:185,1,120,2|10,3:2|0:0,0:0:0:0:
506,224,57534,1,2,0:0:0:0:
506,224,57703,2,0,P|511:253|511:283,1,60,2|2,1:2|0:0,0:0:0:0:
485,320,58040,1,10,0:0:0:0:
402,283,58377,1,2,3:2:0:0:
316,311,58714,1,10,0:2:0:0:
237,267,59051,6,0,L|177:272,1,60,2|2,1:2|0:0,0:0:0:0:
140,300,59388,2,0,P|111:301|81:295,1,60,10|2,0:0|1:2,0:0:0:0:
51,262,59725,2,0,B|43:209|65:189|55:142,1,120,2|10,3:2|0:0,0:0:0:0:
103,65,60399,2,0,P|151:33|206:49,1,120,2|10,1:2|0:0,0:0:0:0:
243,76,60905,1,2,1:2:0:0:
243,76,61073,2,0,L|362:60,1,120,2|10,0:1|0:0,0:0:0:0:
450,44,61748,6,0,L|444:103,1,60,2|2,1:2|0:0,0:0:0:0:
421,142,62085,2,0,L|425:201,1,60,10|2,0:0|1:2,0:0:0:0:
446,242,62422,2,0,B|396:232|384:267|328:255,1,120,2|10,3:2|0:0,0:0:0:0:
271,186,63096,2,0,P|265:141|273:97,2,90,2|2|2,1:2|0:0|1:2,0:0:0:0:
247,224,63770,2,0,L|187:216,1,60,2|2,0:0|1:2,0:0:0:0:
147,194,64107,2,0,L|87:200,1,60,10|2,0:0|0:0,0:0:0:0:
65,239,64444,5,2,1:2:0:0:
65,239,64613,1,2,1:0:0:0:
19,121,65118,2,0,P|18:91|26:62,1,60,2|2,1:2|1:2,0:0:0:0:
64,37,65455,2,0,L|123:46,1,60,10|2,0:0|0:0,0:0:0:0:
166,58,65792,1,2,1:2:0:0:
166,58,65961,1,2,1:2:0:0:
234,173,66467,2,0,P|234:203|234:233,2,60,2|2|8,0:0|0:0|0:0,0:0:0:0:
295,107,67141,6,0,P|350:89|405:112,2,120,6|8|2,1:2|0:0|0:0,0:0:0:0:
257,132,67983,1,2,1:2:0:0:
257,132,68152,2,0,L|197:125,1,60,8|0,0:0|0:0,0:0:0:0:
152,117,68489,1,2,1:2:0:0:
152,117,68658,1,2,1:2:0:0:
79,230,69163,2,0,L|86:289,1,60,2|2,1:2|1:2,0:0:0:0:
193,371,69837,5,2,1:2:0:0:
193,371,70006,1,2,1:2:0:0:
317,317,70512,2,0,L|376:322,1,60,2|2,1:2|1:2,0:0:0:0:
510,339,71186,1,2,1:2:0:0:
510,339,71354,2,0,P|504:279|498:219,1,120,4|2,0:3|0:0,0:0:0:0:
460,193,71860,1,2,1:2:0:0:
460,193,72028,2,0,P|456:135|484:83,1,120,4|2,0:3|0:0,0:0:0:0:
502,41,72534,6,0,L|442:32,1,60,2|4,1:2|0:3,0:0:0:0:
400,16,72871,2,0,L|340:23,1,60,2|4,1:2|0:3,0:0:0:0:
151,217,74051,1,8,0:0:0:0:
151,217,74219,2,0,P|146:187|146:157,2,60,8|8|8,0:0|0:0|0:0,0:0:0:0:
219,275,74894,1,4,0:3:0:0:
155,337,75231,6,0,P|126:345|96:346,1,60,6|2,1:2|0:0,0:0:0:0:
60,318,75568,2,0,L|55:258,1,60,8|0,0:0|1:0,0:0:0:0:
25,223,75905,2,0,P|29:164|34:104,1,120,2|8,0:0|0:0,0:0:0:0:
74,84,76410,1,2,0:0:0:0:
156,48,76748,2,0,L|215:49,1,60,2|8,0:0|0:0,0:0:0:0:
250,78,77085,2,0,P|305:93|350:56,1,120,2|2,1:2|1:2,0:0:0:0:
374,18,77590,1,8,0:0:0:0:
444,73,77927,6,0,L|436:132,1,60,2|2,1:2|0:0,0:0:0:0:
402,161,78264,2,0,L|406:220,1,60,10|2,0:0|1:2,0:0:0:0:
430,256,78601,2,0,P|374:238|318:256,1,120,2|10,3:2|0:0,0:0:0:0:
281,282,79107,2,0,L|221:278,1,60,2|0,0:0|1:2,0:0:0:0:
181,299,79444,1,2,0:0:0:0:
119,231,79781,2,0,P|113:172|115:112,1,120,2|0,1:2|1:2,0:0:0:0:
150,83,80287,1,8,0:0:0:0:
227,37,80624,6,0,L|286:45,1,60,2|0,1:2|1:0,0:0:0:0:
323,68,80961,2,0,P|353:71|383:65,1,60,10|2,0:0|0:0,0:0:0:0:
419,38,81298,1,2,0:2:0:0:
475,107,81635,1,10,0:0:0:0:
430,185,81972,2,0,P|424:214|422:244,1,60,2|0,1:2|1:2,0:0:0:0:
394,278,82309,2,0,L|399:337,1,60,10|0,0:0|1:0,0:0:0:0:
405,382,82646,1,10,1:2:0:0:
317,359,82983,1,10,0:0:0:0:
228,376,83321,6,0,L|169:362,1,60,2|2,1:2|0:0,0:0:0:0:
134,333,83658,2,0,P|104:333|74:341,1,60,10|2,0:2|0:0,0:0:0:0:
33,324,83995,1,2,1:2:0:0:
80,247,84332,1,10,0:0:0:0:
35,168,84669,2,0,P|35:138|43:109,1,60,2|2,1:2|1:2,0:0:0:0:
77,79,85006,2,0,L|136:89,1,60,10|2,0:2|1:2,0:0:0:0:
176,69,85343,2,0,L|172:9,2,60,2|2|10,1:2|1:2|0:2,0:0:0:0:
211,97,85849,1,2,1:2:0:0:
187,209,88040,5,6,0:0:0:0:
256,192,88124,12,2,92085,0:0:0:0:
