osu file format v14

[General]
AudioFilename: audio.mp3
AudioLeadIn: 0
PreviewTime: 56101
Countdown:0
SampleSet: Soft
StackLeniency: 0.3
Mode: 0
LetterboxInBreaks:0
WidescreenStoryboard:0

[Editor]
Bookmarks: 15231,56017,92590
DistanceSpacing: 4.9
BeatDivisor: 4
GridSize: 8
TimelineZoom: 2.4

[Metadata]
Title:Chikatto Chika Chika
TitleUnicode:チカっとチカ千花っ♡
Artist:maki ligon
ArtistUnicode:maki ligon
Creator:schoolboy
Version:Djulus' Insane
Source:
Tags:chikattsu 藤原千花 (CV: 小原好美) Fujiwara Kohara Konomi wa kokurasetai tensai-tachi no renai zunousen wants to be confessed to Kaguya-sama: Love Is War sans undertale toby fox MEGALOVANIA battle theme papyrus ost soundtrack anime tv size komore mordred djulus semaphore fser chalwa irohas
BeatmapID:1991371
BeatmapSetID:943606

[Difficulty]
HPDrainRate:6
CircleSize:4
OverallDifficulty:8
ApproachRate:9
SliderMultiplier:1.5
SliderTickRate:0.5

[Events]
//Background and Video events
0,0,"maxresdefault.jpg",0,0
Video,0,"32.mp4"
//Break Periods
//Storyboard Layer 0 (Background)
//Storyboard Layer 1 (Fail)
//Storyboard Layer 2 (Pass)
//Storyboard Layer 3 (Foreground)
//Storyboard Sound Samples

[TimingPoints]
400,337.078651685393,4,2,1,40,1,0
400,-133.333333333333,4,2,1,40,0,0
989,-100,4,2,1,5,0,0
1074,-100,4,2,1,40,0,0
2506,-100,4,2,1,5,0,0
2591,-100,4,2,1,40,0,0
5203,-100,4,2,1,5,0,0
5287,-100,4,2,1,40,0,0
6467,-100,4,2,1,40,0,0
7647,-100,4,2,1,5,0,0
7815,-133.333333333333,4,2,1,40,0,0
8995,-100,4,2,1,5,0,0
9164,-100,4,2,1,40,0,0
9753,-100,4,2,1,5,0,0
9838,-133.333333333333,4,2,1,40,0,0
10428,-100,4,2,1,5,0,0
10512,-100,4,2,1,60,0,0
10765,-100,4,2,1,5,0,0
10849,-100,4,2,1,60,0,0
11102,-100,4,2,1,5,0,0
11186,-100,4,2,1,60,0,0
11439,-100,4,2,1,5,0,0
11523,-100,4,2,1,60,0,0
11776,-100,4,2,1,5,0,0
11860,-100,4,2,1,60,0,0
12282,-100,4,2,1,5,0,0
12366,-100,4,2,1,60,0,0
12450,-100,4,2,1,15,0,0
12534,-100,4,2,1,60,0,0
13293,-100,4,2,1,5,0,0
13377,-100,4,2,1,60,0,0
13419,-100,4,2,1,5,0,0
13546,-100,4,2,1,60,0,0
13588,-100,4,2,1,5,0,0
13714,-100,4,2,1,60,0,0
13756,-100,4,2,1,5,0,0
13883,-100,4,2,1,60,0,0
14220,-100,4,2,1,60,0,0
14472,-100,4,2,1,5,0,0
14557,337.078651685393,4,2,1,70,1,0
14557,-100,4,2,1,70,0,0
18433,-100,4,2,1,70,0,0
18686,-100,4,2,1,5,0,0
18770,-100,4,2,1,70,0,0
18812,-100,4,2,1,5,0,0
18939,-100,4,2,1,70,0,0
18981,-100,4,2,1,5,0,0
19107,-100,4,2,1,70,0,0
19149,-100,4,2,1,5,0,0
19276,-133.333333333333,4,2,1,50,0,0
19950,-100,4,2,1,60,0,0
23573,-100,4,2,1,5,0,0
23658,-100,4,2,1,60,0,0
29556,-100,4,2,1,60,0,0
29725,-100,4,2,1,60,0,0
29894,-100,4,2,1,60,0,0
30736,-100,4,2,1,60,0,0
30989,-100,4,2,1,5,0,0
31073,-100,4,2,1,60,0,0
39079,-100,4,2,1,5,0,0
39163,-100,4,2,1,60,0,0
39837,-100,4,2,1,60,0,0
40090,-100,4,2,1,5,0,0
40174,-100,4,2,1,60,0,0
41523,-100,4,2,1,60,0,0
42534,-181.818181818181,4,2,1,60,0,0
42871,-133.333333333333,4,2,1,55,0,0
45231,-133.333333333333,4,2,1,55,0,0
45483,-133.333333333333,4,2,1,5,0,0
45568,-133.333333333333,4,2,1,55,0,0
45905,-133.333333333333,4,2,1,55,0,0
47085,-133.333333333333,4,2,1,55,0,0
47253,-133.333333333333,4,2,1,55,0,0
47927,-133.333333333333,4,2,1,55,0,0
48180,-133.333333333333,4,2,1,5,0,0
48264,-133.333333333333,4,2,1,55,0,0
48601,-133.333333333333,4,2,1,55,0,0
50287,-133.333333333333,4,2,1,55,0,0
50540,-100,4,2,1,5,0,0
50624,-100,4,2,1,55,0,0
50961,-100,4,2,1,55,0,0
53573,-100,4,2,1,5,0,0
53658,-100,4,2,1,60,0,0
53910,-100,4,2,1,5,0,0
53995,-100,4,2,1,60,0,0
54248,-100,4,2,1,5,0,0
54332,-100,4,2,1,60,0,0
54585,-100,4,2,1,5,0,0
54669,-100,4,2,1,60,0,0
54922,-100,4,2,1,5,0,0
55006,-66.6666666666667,4,2,1,60,0,0
56017,-181.818181818181,4,2,1,60,0,0
56101,-100,4,2,1,5,0,0
56186,-100,4,2,1,50,0,0
56354,-95.2380952380952,4,2,1,70,0,0
58714,-100,4,2,1,70,0,0
58798,-95.2380952380952,4,2,1,15,0,0
58882,-95.2380952380952,4,2,1,70,0,0
61073,-95.2380952380952,4,2,1,70,0,0
61326,-95.2380952380952,4,2,1,5,0,0
61410,-95.2380952380952,4,2,1,70,0,0
61495,-95.2380952380952,4,2,1,15,0,0
61579,-95.2380952380952,4,2,1,70,0,0
63096,-95.2380952380952,4,2,1,70,0,0
64444,-95.2380952380952,4,2,1,70,0,0
64613,-95.2380952380952,4,2,1,70,0,0
64781,-95.2380952380952,4,2,1,70,0,0
65034,-95.2380952380952,4,2,1,5,0,0
65118,-95.2380952380952,4,2,1,70,0,0
65287,-95.2380952380952,4,2,1,70,0,0
65455,-95.2380952380952,4,2,1,70,0,0
65792,-100,4,2,1,70,0,0
66551,-100,4,2,1,15,0,0
66635,-100,4,2,1,70,0,0
66719,-100,4,2,1,15,0,0
66804,-100,4,2,1,70,0,0
67141,-100,4,2,1,70,0,0
67394,-100,4,2,1,5,0,0
67478,-100,4,2,1,70,0,0
68405,-100,4,2,1,5,0,0
68489,-100,4,2,1,70,0,0
68573,-100,4,2,1,25,0,0
68658,-111.111111111111,4,2,1,70,0,0
69248,-111.111111111111,4,2,1,25,0,0
69332,-111.111111111111,4,2,1,70,0,0
69922,-111.111111111111,4,2,1,25,0,0
70006,-111.111111111111,4,2,1,70,0,0
70596,-100,4,2,1,25,0,0
70680,-100,4,2,1,70,0,0
71270,-100,4,2,1,25,0,0
71354,-100,4,2,1,70,0,0
71944,-100,4,2,1,25,0,0
72028,-100,4,2,1,70,0,0
72618,-100,4,2,1,25,0,0
72703,-100,4,2,1,70,0,0
72955,-100,4,2,1,25,0,0
73040,-100,4,2,1,70,0,0
73377,-100,4,2,1,70,0,0
74093,-100,4,2,1,5,0,0
74219,-100,4,2,1,70,0,0
74262,-100,4,2,1,5,0,0
74388,-100,4,2,1,70,0,0
74430,-100,4,2,1,5,0,0
74556,-100,4,2,1,70,0,0
74599,-100,4,2,1,5,0,0
74725,-100,4,2,1,70,0,0
74894,-133.333333333333,4,2,1,70,0,0
75231,-100,4,2,1,70,0,0
86017,-100,4,2,1,70,0,0
88040,-500,4,2,1,70,0,0
92085,-100,4,2,1,30,0,0

[Colours]
Combo1 : 255,94,55
Combo2 : 173,255,95
Combo3 : 17,254,176
Combo4 : 255,88,100

[HitObjects]
469,142,400,5,2,0:0:0:0:
402,59,568,1,2,0:0:0:0:
402,59,737,2,0,B|337:73|350:28|277:53,1,112.500004291535,2|2,0:0|0:0,0:0:0:0:
83,171,1579,6,0,P|153:156|206:205,2,150,2|2|2,0:0|0:0|0:0,0:0:0:0:
21,353,2591,1,2,0:0:0:0:
108,299,2759,1,2,0:0:0:0:
25,257,2928,1,2,0:0:0:0:
21,353,3096,6,0,P|82:352|184:368,1,150,2|2,0:0|0:0,0:0:0:0:
338,195,3770,2,0,P|265:234|304:290,1,150,2|0,0:0|0:0,0:0:0:0:
372,312,4276,6,0,B|460:309|425:251|524:263,2,150,2|2|2,0:0|0:0|0:0,0:0:0:0:
413,36,5287,1,2,0:0:0:0:
486,120,5456,1,2,0:0:0:0:
378,140,5624,1,2,0:0:0:0:
421,96,5793,5,2,0:0:0:0:
303,194,5961,1,2,0:0:0:0:
303,194,6130,2,0,P|242:198|188:122,1,150,2|2,0:0|0:0,0:0:0:0:
188,134,7815,6,0,B|167:195|201:188|186:246,1,112.500004291535,2|0,0:0|0:0,0:0:0:0:
186,244,9164,6,0,P|139:199|47:239,1,150,2|0,0:0|0:0,0:0:0:0:
254,343,9838,2,0,B|323:315|323:315|371:336,1,112.500004291535,2|0,0:0|0:0,0:0:0:0:
209,140,10512,6,0,P|189:91|244:36,1,112.5,2|0,1:2|0:0,0:0:0:0:
294,4,10849,2,0,P|291:41|293:78,1,75,2|0,0:0|0:0,0:0:0:0:
512,301,11186,6,0,B|450:295|463:269|403:265,1,112.5,10|0,1:2|0:0,0:0:0:0:
337,298,11523,2,0,P|328:245|355:212,1,75,2|0,0:0|0:0,0:0:0:0:
476,15,11860,6,0,P|467:88|458:196,1,150,6|0,1:2|0:0,0:0:0:0:
463,175,12366,6,0,L|447:120,1,37.5,2|0,0:0|0:0,0:0:0:0:
332,38,12534,2,0,P|267:34|249:127,1,150,2|0,0:0|0:0,0:0:0:0:
237,103,13377,5,10,0:0:0:0:
153,279,13546,1,10,0:0:0:0:
346,227,13714,1,10,0:0:0:0:
131,90,13883,1,2,0:3:0:0:
131,90,14220,6,0,P|91:93|69:168,1,112.5,4|0,0:3|0:0,0:0:0:0:
26,223,14557,6,0,B|106:233|90:170|174:186,1,150,6|8,1:2|0:0,0:0:0:0:
290,241,15062,1,0,1:0:0:0:
208,355,15231,2,0,P|201:316|221:276,1,75,2|0,0:0|1:0,0:0:0:0:
358,131,15568,2,0,P|372:185|358:215,1,75,8|2,0:0|0:0,0:0:0:0:
165,184,15905,6,0,L|256:167,1,75,0|2,1:0|0:0,0:0:0:0:
389,343,16242,1,8,0:0:0:0:
453,271,16410,2,0,B|370:248|370:248|330:259|319:302,1,150,2|2,1:2|1:2,0:0:0:0:
472,189,16916,1,8,0:0:0:0:
403,104,17085,1,2,0:0:0:0:
487,61,17253,5,2,1:2:0:0:
342,151,17422,1,2,0:0:0:0:
338,155,17590,2,0,B|255:148|293:104|184:104,1,150,8|2,0:0|0:0,0:0:0:0:
63,214,18096,1,0,1:2:0:0:
162,260,18264,2,0,L|153:166,1,75,8|2,0:0|0:0,0:0:0:0:
154,185,18770,5,8,0:0:0:0:
45,53,18939,1,8,0:0:0:0:
200,104,19107,1,8,0:0:0:0:
14,253,19276,1,10,0:2:0:0:
219,310,19444,5,2,0:0:0:0:
219,310,19613,2,0,L|280:297,1,56.2500021457673,2|2,0:0|0:0,0:0:0:0:
434,142,19950,6,0,P|370:153|312:73,1,150,6|8,1:2|0:0,0:0:0:0:
450,237,20455,2,0,B|432:305|476:301|456:386,1,150,2|2,1:2|1:2,0:0:0:0:
281,297,20961,2,0,B|317:308|317:308|370:293,1,75,8|0,0:0|0:0,0:0:0:0:
230,206,21298,1,2,1:2:0:0:
163,347,21467,1,2,0:0:0:0:
236,210,21635,1,8,0:0:0:0:
163,347,21804,6,0,B|84:338|105:296|19:296,1,150,2|0,1:0|1:0,0:0:0:0:
132,160,22309,1,10,0:0:0:0:
22,110,22478,1,2,0:0:0:0:
111,277,22646,5,0,1:2:0:0:
231,177,22815,1,0,0:0:0:0:
236,182,22983,2,0,P|284:169|328:155,1,75,10|2,0:0|1:2,0:0:0:0:
455,316,23321,2,0,P|412:309|371:305,1,75,2|0,0:0|0:0,0:0:0:0:
375,103,23658,2,0,P|396:145|387:191,1,75,10|2,0:0|0:0,0:0:0:0:
290,254,23995,5,2,1:2:0:0:
469,140,24163,1,2,0:0:0:0:
275,50,24332,1,8,0:0:0:0:
268,48,24500,2,0,B|189:21|189:21|134:34|138:74,1,150,2|0,1:0|1:0,0:0:0:0:
130,236,25006,1,10,0:0:0:0:
39,141,25174,1,2,0:0:0:0:
44,138,25343,6,0,P|103:151|138:153,1,75,2|0,1:2|0:0,0:0:0:0:
188,331,25680,2,0,P|135:345|100:361,1,75,8|2,0:0|1:2,0:0:0:0:
277,187,26017,1,2,0:0:0:0:
281,189,26186,2,0,B|295:228|295:228|284:275,1,75,2|10,1:2|0:0,0:0:0:0:
462,339,26523,1,2,0:0:0:0:
371,370,26691,6,0,B|355:289|396:310|377:222,1,150,2|8,1:2|0:0,0:0:0:0:
497,43,27197,2,0,B|447:45|447:45|476:162,1,150,2|0,1:2|1:0,0:0:0:0:
336,68,27703,2,0,L|257:50,1,75,8|2,0:0|0:0,0:0:0:0:
113,239,28040,5,2,1:2:0:0:
256,163,28208,1,2,0:0:0:0:
113,239,28377,1,10,0:0:0:0:
256,163,28545,1,2,1:2:0:0:
113,239,28714,5,2,0:0:0:0:
256,163,28882,1,2,1:2:0:0:
102,35,29051,2,0,P|71:86|77:123,1,75,8|2,0:0|0:0,0:0:0:0:
212,270,29388,5,2,1:2:0:0:
172,100,29556,1,2,1:2:0:0:
31,206,29725,1,10,0:2:0:0:
269,338,29894,1,2,1:2:0:0:
269,338,30062,6,0,B|352:337|333:286|413:294,1,150,2|2,1:2|0:0,0:0:0:0:
304,166,30568,1,2,0:0:0:0:
298,170,30736,6,0,L|283:247,1,75,2|0,1:2|0:0,0:0:0:0:
488,127,31073,2,0,P|442:140|367:62,1,150,8|2,0:0|0:0,0:0:0:0:
482,229,31579,1,0,1:0:0:0:
482,229,31748,2,0,L|503:322,1,75,10|2,0:0|0:0,0:0:0:0:
372,384,32085,6,0,B|283:344|283:344|226:374,1,150,2|8,1:2|0:0,0:0:0:0:
141,233,32590,1,2,1:0:0:0:
150,237,32759,2,0,L|234:214,1,75,0|0,0:0|1:0,0:0:0:0:
78,361,33096,1,10,0:0:0:0:
4,241,33264,1,2,0:0:0:0:
4,241,33433,6,0,B|-14:155|34:178|16:77,1,150,2|10,1:2|0:0,0:0:0:0:
171,117,33939,1,0,1:2:0:0:
118,2,34107,2,0,P|99:54|108:85,1,75,2|0,0:0|1:0,0:0:0:0:
244,228,34444,2,0,P|250:185|237:153,1,75,10|2,0:0|0:0,0:0:0:0:
154,336,34781,5,2,1:2:0:0:
325,267,34950,1,0,0:0:0:0:
164,192,35118,1,8,0:0:0:0:
299,362,35287,2,0,B|385:323|385:323|440:343,1,150,2|0,1:2|1:0,0:0:0:0:
503,160,35792,1,8,0:0:0:0:
400,200,35961,1,2,0:0:0:0:
485,266,36130,5,2,1:2:0:0:
425,104,36298,1,0,0:0:0:0:
425,104,36467,2,0,L|437:19,1,75,10|2,0:0|1:2,0:0:0:0:
267,145,36804,1,0,0:0:0:0:
189,98,36972,2,0,P|216:66|326:70,1,150,2|2,1:2|0:0,0:0:0:0:
165,193,37478,6,0,P|106:185|71:180,1,75,2|0,1:2|0:0,0:0:0:0:
159,359,37815,1,8,0:0:0:0:
2,323,37983,2,0,B|91:323|52:271|165:269,1,150,2|2,1:2|1:2,0:0:0:0:
300,311,38489,2,0,P|311:360|302:386,1,75,10|2,0:0|0:0,0:0:0:0:
230,246,38826,6,0,P|231:175|238:75,1,150,2|8,1:2|0:0,0:0:0:0:
448,98,39332,2,0,P|376:110|319:48,1,150,0|0,1:0|1:0,0:0:0:0:
401,22,39837,1,8,0:0:0:0:
441,194,40006,1,0,0:0:0:0:
447,199,40174,6,0,L|439:252,4,37.5,2|0|2|0|2,1:2|0:0|0:0|0:0|0:0,0:0:0:0:
292,297,40849,6,0,L|313:363,4,37.5,2|0|2|0|2,1:2|0:0|0:0|0:0|0:0,0:0:0:0:
116,188,41523,6,0,P|51:226|139:201,1,300,6|0,1:2|0:0,0:0:0:0:
70,288,42365,1,0,0:0:0:0:
72,294,42534,2,0,L|79:338,1,41.2500012588501,0|0,0:0|0:0,0:0:0:0:
260,244,42871,5,2,1:2:0:0:
220,159,43040,1,2,1:2:0:0:
220,159,43208,2,0,L|227:95,1,56.2500021457673,2|2,0:0|0:0,0:0:0:0:
341,204,43545,2,0,L|354:271,1,56.2500021457673,2|2,0:0|0:0,0:0:0:0:
340,379,43882,6,0,P|379:339|450:343,1,112.500004291535,2|2,0:0|1:2,0:0:0:0:
512,208,44388,1,2,1:2:0:0:
512,208,44556,2,0,P|467:195|444:192,1,56.2500021457673,2|2,0:0|0:0,0:0:0:0:
329,68,44894,2,0,P|373:59|399:52,1,56.2500021457673,2|2,0:0|0:0,0:0:0:0:
261,194,45231,6,0,B|209:180|210:221|147:218,1,112.500004291535,2|2,0:0|1:2,0:0:0:0:
15,147,45736,1,2,1:2:0:0:
111,55,45905,2,0,P|107:100|104:116,1,56.2500021457673,2|2,0:0|0:0,0:0:0:0:
24,237,46242,2,0,P|32:273|35:296,1,56.2500021457673,2|2,0:0|0:0,0:0:0:0:
168,371,46579,6,0,P|210:325|276:329,1,112.500004291535,2|2,0:0|1:2,0:0:0:0:
166,222,47085,1,2,1:2:0:0:
281,153,47253,2,0,L|274:216,1,56.2500021457673,2|2,0:0|0:0,0:0:0:0:
168,118,47590,2,0,L|160:51,1,56.2500021457673,2|2,0:0|0:0,0:0:0:0:
263,11,47927,6,0,P|330:12|363:55,1,112.500004291535,0|2,0:0|1:2,0:0:0:0:
447,124,48433,1,2,1:2:0:0:
347,210,48601,2,0,P|340:174|355:139,1,56.2500021457673,2|2,0:0|0:0,0:0:0:0:
484,330,48939,2,0,P|430:323|357:315,1,112.500004291535,10|2,0:0|0:0,0:0:0:0:
258,225,49444,1,2,0:0:0:0:
347,210,49613,5,2,1:2:0:0:
243,323,49781,1,2,1:2:0:0:
243,323,49950,2,0,P|195:311|190:308,1,56.2500021457673,2|2,0:0|0:0,0:0:0:0:
39,159,50287,6,0,P|91:201|145:176,1,112.500004291535,8|2,0:0|0:0,0:0:0:0:
305,118,50792,1,2,0:0:0:0:
211,19,50961,6,0,B|246:95|185:92|228:186,1,150,2|10,1:2|0:0,0:0:0:0:
305,326,51467,2,0,B|361:305|396:294|396:294|421:313|440:324,1,150,2|2,1:2|1:2,0:0:0:0:
337,222,51972,1,8,0:0:0:0:
465,152,52141,1,2,0:0:0:0:
465,152,52309,6,0,L|457:228,1,75,2|0,1:2|0:0,0:0:0:0:
341,133,52646,1,10,0:0:0:0:
483,50,52815,2,0,P|409:38|335:26,1,150,2|0,1:2|1:0,0:0:0:0:
213,119,53321,2,0,P|196:173|207:210,1,75,8|0,0:0|0:0,0:0:0:0:
322,341,53658,5,10,1:2:0:0:
101,224,54332,5,10,1:2:0:0:
289,95,55006,5,14,1:2:0:0:
289,95,55174,2,0,B|365:42|419:79|393:141|519:211|598:80|542:-10|458:-28|374:42|478:120,1,450.000017166138,0|0,0:0|0:0,0:0:0:0:
500,251,56017,6,0,L|491:291,1,41.2500012588501,4|2,3:0|0:0,0:0:0:0:
479,309,56354,6,0,B|385:300|427:362|323:355,1,157.499995193482,6|10,1:2|0:0,0:0:0:0:
234,209,56860,1,2,1:2:0:0:
346,269,57028,1,2,3:2:0:0:
191,382,57197,1,2,1:2:0:0:
191,382,57365,2,0,P|179:326|202:289,1,78.7499975967408,10|2,0:0|0:0,0:0:0:0:
331,172,57703,5,2,1:2:0:0:
182,123,57871,1,2,0:0:0:0:
346,269,58040,2,0,B|433:226|433:226|471:231|500:274,1,157.499995193482,10|2,0:0|3:2,0:0:0:0:
423,331,58545,1,0,1:0:0:0:
331,172,58714,2,0,L|342:84,1,75,10|0,0:2|0:0,0:0:0:0:
183,3,59051,6,0,B|207:82|163:70|195:171,1,157.499995193482,2|10,1:2|0:0,0:0:0:0:
78,287,59556,1,2,1:2:0:0:
10,219,59725,2,0,P|51:194|109:207,1,78.7499975967408,2|2,3:2|1:2,0:0:0:0:
246,330,60062,2,0,P|202:343|154:319,1,78.7499975967408,10|2,0:0|0:0,0:0:0:0:
316,253,60399,5,2,1:2:0:0:
385,352,60568,1,2,0:0:0:0:
209,251,60736,1,10,0:0:0:0:
361,163,60905,1,2,1:2:0:0:
361,163,61073,2,0,P|412:146|497:234,1,157.499995193482,2|10,0:1|0:0,0:0:0:0:
341,77,61579,1,2,0:0:0:0:
272,211,61748,6,0,B|190:226|206:171|105:193,1,157.499995193482,2|10,1:2|0:0,0:0:0:0:
150,273,62253,1,2,1:2:0:0:
249,118,62422,2,0,P|244:78|233:41,1,78.7499975967408,2|2,3:2|1:2,0:0:0:0:
141,279,62759,2,0,P|138:332|145:367,1,78.7499975967408,10|2,0:0|0:0,0:0:0:0:
375,289,63096,6,0,P|298:285|255:348,1,157.499995193482,2|8,1:2|0:0,0:0:0:0:
453,252,63601,1,2,1:2:0:0:
453,252,63770,2,0,L|442:157,1,78.7499975967408,2|2,0:0|1:2,0:0:0:0:
283,62,64107,2,0,L|272:156,1,78.7499975967408,10|2,0:0|0:0,0:0:0:0:
181,251,64444,5,2,1:2:0:0:
382,121,64613,1,2,1:0:0:0:
202,39,64781,1,10,0:0:0:0:
181,251,65118,5,2,1:2:0:0:
382,121,65286,1,2,1:2:0:0:
202,39,65455,2,0,P|169:28|120:20,1,78.7499975967408,10|2,0:0|0:0,0:0:0:0:
80,271,65792,5,2,1:2:0:0:
187,148,65961,1,2,1:2:0:0:
104,94,66130,2,0,B|90:128|90:128|109:181,1,75,2|2,1:2|0:0,0:0:0:0:
274,176,66467,2,0,B|284:140|284:140|269:100,1,75,2|2,0:0|0:0,0:0:0:0:
166,241,66804,1,8,0:0:0:0:
305,295,66972,1,2,0:0:0:0:
305,295,67141,6,0,P|358:295|402:383,1,150,6|8,1:2|0:0,0:0:0:0:
492,268,67646,2,0,P|485:201|486:99,1,150,0|2,1:0|1:2,0:0:0:0:
391,38,68152,1,8,0:0:0:0:
391,38,68489,5,2,1:2:0:0:
244,128,68658,1,2,1:2:0:0:
349,228,68826,2,0,L|357:157,1,67.4999979400635,2|2,0:0|0:0,0:0:0:0:
241,254,69163,5,2,1:2:0:0:
413,356,69332,1,2,1:2:0:0:
413,356,69500,2,0,L|475:329,1,67.4999979400635,2|2,0:0|0:0,0:0:0:0:
349,228,69837,5,2,1:2:0:0:
240,364,70006,1,2,1:2:0:0:
240,364,70174,2,0,L|156:349,1,67.4999979400635,2|2,0:0|0:0,0:0:0:0:
7,281,70512,5,2,1:2:0:0:
134,185,70680,1,2,1:2:0:0:
134,185,70849,2,0,L|123:267,1,75,2|2,0:0|0:0,0:0:0:0:
35,85,71186,5,2,1:2:0:0:
35,85,71354,2,0,P|82:108|171:48,1,150,4|2,0:3|0:0,0:0:0:0:
277,3,71860,1,2,1:2:0:0:
280,7,72028,2,0,L|270:174,1,150,4|2,0:3|0:0,0:0:0:0:
276,371,72534,5,2,1:2:0:0:
370,152,72703,1,4,0:3:0:0:
386,373,72871,5,2,1:2:0:0:
271,156,73040,1,4,0:3:0:0:
271,156,74051,5,8,0:0:0:0:
454,275,74219,1,8,0:0:0:0:
288,356,74388,1,8,0:0:0:0:
471,178,74556,1,8,0:0:0:0:
327,72,74725,5,2,0:0:0:0:
327,72,74894,2,0,L|255:59,1,56.2500021457673,4|2,0:3|0:0,0:0:0:0:
49,180,75231,6,0,P|79:153|188:166,1,150,6|8,1:2|0:0,0:0:0:0:
280,276,75736,2,0,B|362:289|349:234|442:249,1,150,0|0,1:0|1:0,0:0:0:0:
419,341,76242,1,8,0:0:0:0:
299,195,76410,1,2,0:0:0:0:
299,195,76579,6,0,P|298:140|294:101,1,75,0|2,1:0|0:0,0:0:0:0:
471,10,76916,2,0,P|469:70|473:101,1,75,8|2,0:0|1:2,0:0:0:0:
373,260,77253,1,0,0:0:0:0:
510,219,77422,1,2,1:2:0:0:
420,162,77590,1,8,0:0:0:0:
458,313,77759,1,2,0:0:0:0:
458,313,77927,6,0,B|379:311|411:354|307:366,1,150,2|10,1:2|0:0,0:0:0:0:
182,240,78433,1,2,1:2:0:0:
138,323,78601,2,0,P|194:298|300:263,1,150,2|10,3:2|0:0,0:0:0:0:
388,211,79107,1,2,0:0:0:0:
388,211,79276,6,0,P|406:171|392:124,1,75,0|2,1:2|0:0,0:0:0:0:
249,3,79613,2,0,P|232:54|242:82,1,75,8|2,0:0|1:2,0:0:0:0:
324,160,79950,1,0,0:0:0:0:
190,238,80118,1,0,1:2:0:0:
187,244,80287,2,0,L|106:233,1,75,8|2,0:0|0:0,0:0:0:0:
72,135,80624,5,2,1:2:0:0:
24,309,80792,1,0,1:0:0:0:
39,144,80961,5,10,0:0:0:0:
58,304,81130,1,2,0:0:0:0:
197,144,81298,5,2,0:2:0:0:
174,328,81467,1,0,1:2:0:0:
197,144,81635,1,10,0:0:0:0:
174,328,81804,1,0,1:0:0:0:
320,245,81972,6,0,P|370:232|405:221,1,75,2|0,1:2|1:2,0:0:0:0:
512,71,82309,2,0,P|466:69|429:65,1,75,10|0,0:0|1:0,0:0:0:0:
473,266,82646,2,0,P|492:222|484:188,1,75,10|0,1:2|1:0,0:0:0:0:
359,17,82983,2,0,P|346:58|359:99,1,75,10|0,0:0|1:0,0:0:0:0:
352,313,83321,5,2,1:2:0:0:
185,289,83489,1,2,0:0:0:0:
349,271,83658,5,10,0:2:0:0:
176,329,83827,1,2,0:0:0:0:
335,169,83995,5,2,1:2:0:0:
174,191,84164,1,2,0:0:0:0:
335,169,84332,1,10,0:0:0:0:
174,191,84501,1,2,0:0:0:0:
253,13,84669,5,2,1:2:0:0:
204,267,84837,1,2,1:2:0:0:
171,50,85006,5,10,0:2:0:0:
284,220,85174,1,2,1:2:0:0:
252,0,85343,5,2,1:2:0:0:
200,272,85511,1,2,1:2:0:0:
164,39,85680,5,10,0:2:0:0:
286,222,85848,1,2,1:2:0:0:
444,266,88040,6,0,B|367:302|267:220|267:220|356:299|331:365,1,360,6|2,0:0|0:0,0:0:0:0:
