osu file format v14

[General]
AudioFilename: audio.mp3
AudioLeadIn: 0
PreviewTime:57367
Countdown: 0
SampleSet: Soft
StackLeniency: 0.7
Mode: 0
LetterboxInBreaks: 0
WidescreenStoryboard: 1

[Editor]
Bookmarks:57414,87988,106332,118561,124675
DistanceSpacing: 0.9
BeatDivisor: 4
GridSize: 8
TimelineZoom: 1.5

[Metadata]
Title:Among Us / Eurobeat Remix
TitleUnicode:Among Us / Eurobeat Remix
Artist:maki ligon
ArtistUnicode:maki ligon
Creator:Wither
Version:Normal
Source:Among Us
Tags:instrumental electronic meme trap leonz when the imposter impostor is sus
BeatmapID:2855989
BeatmapSetID:1381340

[Difficulty]
HPDrainRate:4
CircleSize:3.1
OverallDifficulty:4
ApproachRate:6
SliderMultiplier:1.4
SliderTickRate:1

[Events]
//Background and Video events
0,0,"fuckinghelpme.png",0,0
//Break Periods
2,75948,80813
//Storyboard Layer 0 (Background)
//Storyboard Layer 1 (Fail)
//Storyboard Layer 2 (Pass)
//Storyboard Layer 3 (Foreground)
//Storyboard Layer 4 (Overlay)
//Storyboard Sound Samples

[TimingPoints]
2373,382.165605095541,4,2,1,30,1,0
8105,-100,4,2,1,50,0,0
8487,-100,4,2,1,60,0,0
14602,-100,4,2,1,80,0,1
32946,-100,4,2,1,60,0,0
57404,-100,4,2,1,80,0,1
75748,-100,4,2,1,40,0,0
81863,-100,4,2,1,50,0,0
87978,-100,4,2,1,80,0,1
106226,-100,4,2,1,80,0,0
106322,-100,4,2,1,90,0,1
124665,-100,4,2,1,90,0,0

[Colours]
Combo1 : 242,242,0
Combo2 : 192,192,192
Combo3 : 128,128,128
Combo4 : 255,21,21
Combo5 : 255,128,0

[HitObjects]
243,150,8487,6,2,B|277:117|277:117|375:129,1,140,6|10,3:2|0:0,0:1:0:0:
445,228,9251,2,0,L|287:208,1,140,2|10,3:2|0:0,0:0:0:0:
179,213,10016,6,2,B|148:183|148:183|162:85,1,140,2|8,3:2|0:0,0:1:0:0:
258,5,10780,2,0,L|240:143,1,140,2|8,3:2|0:0,0:0:0:0:
275,202,11353,1,0,0:0:0:0:
275,202,11544,54,2,B|313:173|313:173|408:189,1,140,6|10,3:2|0:0,0:1:0:0:
426,312,12309,2,0,B|340:360|224:320|224:320|273:316|304:277,1,280,2|4,3:2|0:3,0:0:0:0:
60,98,14602,53,6,3:2:0:0:
171,38,14984,2,0,B|161:118|161:118,1,70,10|2,0:0|0:0,0:0:0:0:
134,163,15366,2,0,P|197:140|258:171,2,140,2|10|2,3:2|0:0|3:2,0:0:0:0:
46,253,16513,1,8,0:0:0:0:
85,302,16704,1,2,0:0:0:0:
147,307,16895,2,0,B|233:301|233:301|285:258,1,140,2|10,3:2|0:0,0:0:0:0:
347,164,17659,53,6,3:2:0:0:
444,243,18041,2,0,L|422:317,1,70,10|2,0:0|0:0,0:0:0:0:
390,363,18423,2,0,P|348:314|272:317,2,140,2|10|2,3:2|0:0|3:2,0:0:0:0:
488,283,19570,1,8,0:0:0:0:
393,199,19952,2,0,B|366:154|366:154|393:59|393:59,1,140,2|10,3:2|0:0,0:0:0:0:
417,13,20525,1,0,0:0:0:0:
417,13,20716,53,6,3:2:0:0:
298,56,21099,2,0,L|219:59,1,70,10|2,0:0|0:0,0:0:0:0:
183,14,21481,2,0,P|128:18|75:94,2,140,2|10|2,3:2|0:0|3:2,0:0:0:0:
194,139,22627,1,8,0:0:0:0:
171,197,22818,1,2,0:0:0:0:
108,198,23009,2,0,B|24:184|24:184|-10:237,1,140,2|10,3:2|0:0,0:0:0:0:
75,326,23774,21,6,3:2:0:0:
193,282,24156,2,0,P|233:280|267:312,1,70,10|2,0:0|0:0,0:0:0:0:
288,350,24538,2,0,L|268:202,2,140,2|10|2,3:2|0:0|3:2,0:0:0:0:
385,269,25685,1,8,0:0:0:0:
365,144,26067,54,0,B|319:114|319:114|274:118|274:118|233:103,1,140,2|10,3:2|0:0,0:0:0:0:
176,85,26640,1,0,0:0:0:0:
176,85,26831,53,6,3:2:0:0:
74,159,27213,2,0,L|89:234,1,70,10|2,0:0|0:0,0:0:0:0:
128,275,27595,2,0,P|48:261|8:305,2,140,2|10|2,3:2|0:0|3:2,0:0:0:0:
224,356,28742,1,8,0:0:0:0:
263,306,28933,1,2,0:0:0:0:
306,260,29124,2,0,L|291:113,1,140,2|10,3:2|0:0,0:0:0:0:
382,33,29888,21,6,3:2:0:0:
459,132,30271,2,0,L|370:121,1,70,10|2,0:0|0:0,0:0:0:0:
349,171,30653,2,0,B|294:167|294:167|272:182|272:182|194:171,1,140,2|10,3:2|0:0,0:0:0:0:
152,161,31226,1,2,0:0:0:0:
152,161,31417,53,2,0:0:0:0:
78,263,31799,1,0,0:0:0:0:
167,352,32181,2,0,B|219:369|219:369|240:328|240:328|302:305|302:305|364:330|364:330|422:305,1,280,2|6,0:0|0:0,0:0:0:0:
354,196,33328,22,0,P|317:168|228:189,2,140,10|2|10,0:0|3:2|0:0,0:0:0:0:
443,284,34474,1,2,3:2:0:0:
498,170,34857,2,0,L|512:27,2,140,8|2|8,0:0|3:2|0:0,0:0:0:0:
491,226,35812,1,2,0:0:0:0:
491,226,36003,5,6,3:2:0:0:
377,280,36385,2,0,P|300:300|246:267,2,140,10|2|10,0:0|3:2|0:0,0:0:0:0:
407,157,37532,1,2,3:2:0:0:
315,70,37914,1,8,0:0:0:0:
205,131,38296,2,0,B|157:146|157:146|118:133|118:133|71:141,1,140,2|10,3:2|0:0,0:0:0:0:
13,161,38869,1,2,0:3:0:0:
13,161,39060,53,6,3:2:0:0:
104,247,39443,2,0,L|78:404,2,140,10|2|10,0:0|3:2|0:0,0:0:0:0:
198,164,40589,1,2,3:2:0:0:
292,247,40971,2,0,L|322:402,2,140,8|2|8,0:0|3:2|0:0,0:0:0:0:
280,189,41927,1,2,0:0:0:0:
280,189,42118,5,6,3:2:0:0:
358,90,42500,2,0,P|305:50|222:66,2,140,10|2|10,0:0|3:2|0:0,0:0:0:0:
381,148,43455,1,2,0:0:0:0:
381,148,43646,54,0,B|362:209|362:209|385:253|385:253|354:353|354:353|316:278,1,280,2|2,3:3|3:3,0:3:0:0:
244,201,44793,2,0,P|167:230|187:274,1,140,8|6,0:0|3:2,0:0:0:0:
289,326,45557,6,0,P|364:313|439:342,2,140,10|2|10,0:0|3:2|0:0,0:0:0:0:
165,301,46704,2,0,P|129:272|156:180,1,140,2|10,3:2|0:0,0:0:0:0:
268,171,47468,2,0,P|311:221|289:284,1,140,2|10,3:2|0:0,0:0:0:0:
167,315,48232,53,2,3:2:0:0:
72,231,48615,2,0,L|43:81,2,140,10|2|10,0:0|3:2|0:0,0:0:0:0:
177,162,49761,6,0,B|218:146|218:146|252:169|252:169|313:152|313:152|336:93|336:93|412:121,1,280,2|2,3:3|3:3,0:0:0:0:
468,222,50908,2,2,P|458:272|369:256,1,140,8|0,0:0|3:2,0:1:0:0:
308,171,51672,54,0,P|291:87|253:35,2,140,10|2|10,0:0|3:2|0:0,0:0:0:0:
233,272,52818,6,0,P|180:300|104:265,1,140,2|10,3:2|0:0,0:0:0:0:
47,162,53583,2,0,P|49:102|117:53,1,140,2|10,3:2|0:0,0:0:0:0:
218,116,54347,53,0,3:2:0:0:
332,63,54729,2,0,P|358:118|368:215,1,140,10|2,0:0|3:2,0:0:0:0:
455,288,55494,1,10,0:0:0:0:
335,328,55876,6,0,L|191:301,1,140,2|10,3:2|0:0,0:0:0:0:
119,203,56640,2,0,B|151:138|151:138|216:184,1,140,2|10,3:3|0:2,0:3:0:0:
320,229,57404,37,6,3:2:0:0:
411,142,57786,2,0,B|412:152|402:72,1,70,10|2,0:0|0:0,0:0:0:0:
360,27,58168,2,0,P|420:58|484:35,2,140,2|10|2,3:2|0:0|3:2,0:0:0:0:
261,105,59315,1,8,0:0:0:0:
204,77,59506,1,2,0:0:0:0:
146,51,59697,2,0,B|99:104|99:104|141:178,1,140,2|10,3:2|0:0,0:0:0:0:
217,257,60461,53,6,3:2:0:0:
329,199,60843,2,0,L|353:100,1,70,10|2,0:0|0:0,0:0:0:0:
360,69,61225,2,0,P|427:71|465:126,2,140,2|10|2,3:2|0:0|3:2,0:0:0:0:
255,140,62372,1,8,0:0:0:0:
174,42,62755,2,0,B|128:78|128:78|148:178,1,140,2|10,3:2|0:0,0:0:0:0:
165,223,63327,1,0,0:0:0:0:
165,223,63518,53,6,3:2:0:0:
87,322,63901,2,0,P|52:320|10:293,1,70,10|2,0:0|0:0,0:0:0:0:
15,241,64283,2,0,L|-1:381,2,140,2|10|2,3:2|0:0|3:2,0:0:0:0:
115,164,65429,1,8,0:0:0:0:
177,172,65620,1,2,0:0:0:0:
239,177,65811,2,0,B|323:163|323:163|357:216,1,140,2|10,3:2|0:0,0:0:0:0:
410,321,66576,21,6,3:2:0:0:
506,240,66958,2,0,P|516:193|489:153,1,70,10|2,0:0|0:0,0:0:0:0:
454,141,67340,2,0,P|449:81|531:86,2,140,2|10|2,3:2|0:0|3:2,0:0:0:0:
361,227,68487,1,8,0:0:0:0:
267,142,68869,54,0,B|213:106|213:106|188:139|188:139|147:155,1,140,2|10,3:2|0:0,0:0:0:0:
102,176,69442,1,0,0:0:0:0:
102,176,69633,53,6,3:2:0:0:
188,267,70015,2,0,L|275:248,1,70,10|2,0:0|0:0,0:0:0:0:
314,227,70398,2,0,L|470:252,2,140,2|10|2,3:2|0:0|3:2,0:0:0:0:
221,141,71544,1,8,0:0:0:0:
172,101,71735,1,2,0:0:0:0:
122,62,71926,2,0,B|80:87|80:87|63:184,1,140,2|10,3:2|0:0,0:0:0:0:
152,266,72690,21,6,3:2:0:0:
266,213,73073,2,0,L|338:206,1,70,10|2,0:0|0:0,0:0:0:0:
397,195,73455,2,0,B|374:255|374:255|385:273|385:273|363:337,1,140,2|10,3:2|0:0,0:0:0:0:
344,384,74028,1,2,0:0:0:0:
344,384,74219,53,2,0:0:0:0:
244,307,74601,1,0,0:0:0:0:
136,373,74984,2,0,B|133:300|133:300|104:271|104:271|133:178|133:178|163:247,1,280,2|4,0:0|0:0,0:0:0:0:
486,53,81863,22,0,L|331:38,1,140,0|8,3:2|0:0,0:0:0:0:
417,143,82627,2,0,L|262:128,1,140,0|8,3:2|0:0,0:0:0:0:
192,36,83392,6,0,P|144:110|165:171,1,140,0|8,3:2|0:0,0:0:0:0:
235,252,84156,2,0,P|241:319|197:371,1,140,0|8,3:2|0:0,0:0:0:0:
115,276,84920,54,0,B|86:227|86:227|102:117,1,140,0|8,3:2|0:0,0:0:0:0:
106,82,85494,1,0,0:0:0:0:
106,82,85685,2,0,B|161:48|226:88|197:119|266:162|327:136|327:136|293:114,1,280,0|4,3:2|0:3,0:0:0:0:
459,358,87978,53,6,3:2:0:0:
382,257,88360,2,0,B|310:266,1,70,10|2,0:0|0:0,0:0:0:0:
250,274,88742,2,0,B|260:211|260:211|275:196|275:196|281:133,2,140,2|10|2,3:2|0:0|3:2,0:0:0:0:
133,322,89889,1,8,0:0:0:0:
97,270,90080,1,2,0:0:0:0:
58,220,90271,2,0,B|24:160|24:160|71:107,1,140,2|10,3:2|0:0,0:0:0:0:
186,57,91035,53,6,3:2:0:0:
283,136,91417,2,0,L|272:220,1,70,10|2,0:0|0:0,0:0:0:0:
265,267,91799,2,0,P|191:245|129:284,2,140,2|10|2,3:2|0:0|3:2,0:0:0:0:
359,350,92946,1,8,0:0:0:0:
444,257,93328,2,0,B|437:191|437:191|447:171|447:171|438:92,1,140,2|10,3:2|0:0,0:0:0:0:
430,62,93901,1,0,0:0:0:0:
430,62,94092,53,6,3:2:0:0:
329,138,94475,2,0,P|294:136|252:109,1,70,10|2,0:0|0:0,0:0:0:0:
236,63,94857,2,0,L|253:212,2,140,2|10|2,3:2|0:0|3:2,0:0:0:0:
115,27,96003,1,8,0:0:0:0:
102,88,96194,1,2,0:0:0:0:
83,148,96385,2,0,B|23:161|23:161|1:237,1,140,2|10,3:2|0:0,0:0:0:0:
79,335,97150,21,6,3:2:0:0:
177,256,97532,2,0,L|192:171,1,70,10|2,0:0|0:0,0:0:0:0:
202,125,97914,2,0,B|288:112|288:112|337:161,2,140,2|10|2,3:2|0:0|3:2,0:0:0:0:
93,60,99061,1,8,0:0:0:0:
28,168,99443,2,0,B|9:217|9:217|33:247|33:247|48:305,1,140,2|10,3:2|0:0,0:0:0:0:
52,356,100016,1,0,0:0:0:0:
52,356,100207,53,6,3:2:0:0:
149,275,100589,2,0,L|242:265,1,70,10|2,0:0|0:0,0:0:0:0:
281,259,100971,2,0,P|322:295|317:385,2,140,2|10|2,3:2|0:0|3:2,0:0:0:0:
186,174,102118,1,8,0:0:0:0:
245,153,102309,1,2,0:0:0:0:
305,135,102500,2,0,B|340:103|340:103|337:3,1,140,2|10,3:2|0:0,0:0:0:0:
438,84,103264,53,6,3:2:0:0:
388,200,103647,2,0,L|411:267,1,70,10|2,0:0|0:0,0:0:0:0:
430,326,104029,2,0,B|367:304|367:304|346:315|346:315|277:302,1,140,2|10,3:2|0:0,0:0:0:0:
244,307,104602,1,2,0:0:0:0:
244,307,104793,21,2,0:0:0:0:
173,202,105175,1,0,0:0:0:0:
276,130,105557,2,0,B|323:123|323:123|332:151|332:151|367:155|367:155|399:194|399:194|452:130|452:130|419:104|419:104,1,280,2|6,0:0|3:2,0:0:0:0:
320,38,106704,54,0,L|226:50,1,70,10|2,0:0|0:0,0:0:0:0:
189,63,107086,2,0,P|137:116|168:189,1,140,2|10,3:2|0:0,0:0:0:0:
201,220,107659,1,2,0:0:0:0:
201,220,107850,53,2,3:2:0:0:
312,162,108232,1,8,0:0:0:0:
364,196,108423,1,2,0:0:0:0:
414,234,108615,2,0,B|447:270|447:270|414:365,1,140,2|10,3:2|0:0,0:0:0:0:
291,365,109379,21,6,3:2:0:0:
186,294,109761,2,0,L|175:213,1,70,10|2,0:0|0:0,0:0:0:0:
168,162,110143,2,0,P|131:124|33:148,1,140,2|10,3:2|0:0,0:0:0:0:
17,187,110716,1,2,0:0:0:0:
17,187,110908,53,2,3:2:0:0:
122,255,111290,1,8,0:0:0:0:
48,357,111672,2,0,B|128:342|128:342|148:362|148:362|218:351|218:351|236:306,1,210,2|0,3:2|0:0,0:0:0:0:
236,261,112436,53,6,3:2:0:0:
320,168,112818,2,0,L|335:239,1,70,10|2,0:0|0:0,0:0:0:0:
357,295,113201,2,0,P|436:305|465:247,1,140,2|10,3:2|0:0,0:0:0:0:
444,201,113774,1,2,0:0:0:0:
444,201,113965,21,2,3:2:0:0:
382,91,114347,1,8,0:0:0:0:
322,71,114538,1,2,0:0:0:0:
261,53,114729,2,0,B|193:44|193:44|113:106,1,140,2|10,3:2|0:0,0:0:0:0:
92,133,115302,1,2,0:0:0:0:
92,133,115494,53,6,3:2:0:0:
158,239,115876,2,0,L|234:231,1,70,10|2,0:0|0:0,0:0:0:0:
290,225,116258,2,0,P|336:271|322:349,1,140,2|10,3:2|0:0,0:0:0:0:
275,374,116831,1,2,0:0:0:0:
275,374,117022,53,2,3:2:0:0:
159,323,117404,1,8,0:0:0:0:
57,247,117787,2,0,B|34:192|34:192|70:152|70:152|71:97|71:97|131:58,1,210,2|0,3:2|0:0,0:0:0:0:
167,62,118551,21,6,3:2:0:0:
253,153,118933,2,0,L|277:77,1,70,10|2,0:0|0:0,0:0:0:0:
311,35,119315,2,0,P|352:40|385:129,1,140,2|10,3:2|0:0,0:0:0:0:
352,175,119888,1,2,0:0:0:0:
352,175,120080,53,2,3:2:0:0:
265,266,120462,1,8,0:0:0:0:
325,284,120653,1,2,0:0:0:0:
382,308,120844,2,0,B|462:339|462:339|513:290,1,140,2|10,3:2|0:0,0:0:0:0:
512,242,121417,1,2,0:0:0:0:
512,242,121608,53,6,3:2:0:0:
422,153,121990,2,0,P|368:132|338:148,1,70,10|2,0:0|0:0,0:0:0:0:
333,191,122372,2,0,B|320:132|320:132|308:122|308:122|296:57,1,140,2|10,3:2|0:0,0:0:0:0:
289,0,122946,1,2,0:0:0:0:
289,0,123137,21,2,0:0:0:0:
199,88,123519,1,0,0:0:0:0:
82,40,123901,2,0,B|18:108|18:108|85:218|85:218|90:145,1,280,2|6,0:0|0:0,0:0:0:0:
