osu file format v14

[General]
AudioFilename: audio.mp3
AudioLeadIn: 0
PreviewTime:57367
Countdown: 0
SampleSet: Soft
StackLeniency: 0.7
Mode: 0
LetterboxInBreaks: 0
WidescreenStoryboard: 1

[Editor]
Bookmarks:57414,87988,106332,118561,124675
DistanceSpacing: 0.9
BeatDivisor: 4
GridSize: 8
TimelineZoom: 1.5

[Metadata]
Title:Among Us / Eurobeat Remix
TitleUnicode:Among Us / Eurobeat Remix
Artist:maki ligon
ArtistUnicode:maki ligon
Creator:Wither
Version:Hard
Source:Among Us
Tags:instrumental electronic meme trap leonz when the imposter impostor is sus
BeatmapID:2856809
BeatmapSetID:1381340

[Difficulty]
HPDrainRate:4.5
CircleSize:3.5
OverallDifficulty:6
ApproachRate:8
SliderMultiplier:1.5
SliderTickRate:1

[Events]
//Background and Video events
0,0,"fuckinghelpme.png",0,0
//Break Periods
2,75949,81114
//Storyboard Layer 0 (Background)
//Storyboard Layer 1 (Fail)
//Storyboard Layer 2 (Pass)
//Storyboard Layer 3 (Foreground)
//Storyboard Layer 4 (Overlay)
//Storyboard Sound Samples

[TimingPoints]
2373,382.165605095541,4,2,1,30,1,0
8105,-100,4,2,1,50,0,0
8487,-100,4,2,1,60,0,0
14602,-83.3333333333333,4,2,1,80,0,1
32946,-100,4,2,1,60,0,0
57404,-83.3333333333333,4,2,1,80,0,1
75748,-100,4,2,1,40,0,0
81863,-100,4,2,1,50,0,0
87978,-83.3333333333333,4,2,1,80,0,1
106226,-100,4,2,1,80,0,0
106322,-83.3333333333333,4,2,1,90,0,1
123901,-90.9090909090909,4,2,1,90,0,1
124665,-100,4,2,1,90,0,0

[Colours]
Combo1 : 242,242,0
Combo2 : 192,192,192
Combo3 : 128,128,128
Combo4 : 255,21,21
Combo5 : 255,128,0

[HitObjects]
52,274,8106,5,8,3:2:0:0:
52,274,8297,1,0,3:2:0:0:
104,338,8488,6,2,B|127:323|133:299|133:299|239:312,1,150,6|10,3:2|0:0,0:1:0:0:
310,261,9061,1,2,0:0:0:0:
310,261,9252,2,0,P|315:229|287:181,1,75,2|2,3:2|0:0,0:0:0:0:
201,173,9635,2,0,P|166:189|145:230,1,75,10|2,0:0|0:0,0:0:0:0:
189,332,10017,54,2,B|220:317|252:330|252:330|286:365|352:343,1,150,2|8,3:2|0:0,0:1:0:0:
404,284,10590,1,2,0:0:0:0:
404,284,10686,1,2,0:0:0:0:
404,284,10781,2,0,P|419:237|327:225,1,150,2|8,3:2|0:0,0:0:0:0:
257,242,11354,1,0,0:0:0:0:
179,175,11545,6,2,B|156:138|156:138|198:26,1,150,6|10,3:2|0:0,0:1:0:0:
296,23,12119,1,2,0:0:0:0:
296,23,12310,2,0,L|305:100,1,75,2|2,3:2|0:0,0:0:0:0:
277,204,12692,2,0,P|326:193|331:277,1,150,10|4,0:0|0:3,0:0:0:0:
33,384,13838,54,0,L|47:313,2,50,2|2|2,0:0|0:0|0:0,0:0:0:0:
124,291,14221,2,0,L|133:340,2,50,2|2|2,0:0|0:0|0:0,0:0:0:0:
18,198,14603,54,0,P|69:215|120:198,1,89.9999972534181,6|2,3:2|0:0,0:0:0:0:
163,136,14985,2,0,L|176:23,1,89.9999972534181,10|2,0:0|0:0,0:0:0:0:
257,12,15367,1,2,3:2:0:0:
257,12,15463,1,2,0:0:0:0:
257,12,15558,1,2,0:0:0:0:
323,73,15749,2,0,L|310:185,1,89.9999972534181,10|2,0:0|0:0,0:0:0:0:
223,252,16131,54,0,B|272:228|311:262|300:275|344:315|410:274,1,179.999994506836,2|8,3:2|0:0,0:0:0:0:
456,218,16705,1,2,0:0:0:0:
456,218,16800,1,2,0:0:0:0:
456,218,16896,2,0,P|456:171|361:200,1,179.999994506836,2|10,3:2|0:0,0:0:0:0:
388,284,17469,1,2,0:0:0:0:
292,351,17660,54,0,L|165:333,1,89.9999972534181,6|2,3:2|0:0,0:0:0:0:
178,336,17947,1,2,0:0:0:0:
178,336,18042,2,0,P|135:289|134:247,1,89.9999972534181,10|2,0:0|0:0,0:0:0:0:
168,184,18424,1,2,3:2:0:0:
251,214,18616,1,2,0:0:0:0:
308,152,18807,2,0,L|319:54,1,89.9999972534181,10|2,0:0|0:0,0:0:0:0:
438,6,19189,22,0,B|404:52|404:52|395:178,1,179.999994506836,2|8,3:2|0:0,0:0:0:0:
305,327,19953,2,0,L|376:313,2,59.9999981689454,2|2|2,3:2|0:0|0:0,0:0:0:0:
230,278,20335,2,0,L|159:264,2,59.9999981689454,10|2|2,0:0|0:0|0:0,0:0:0:0:
207,366,20717,54,0,L|92:345,1,89.9999972534181,6|2,3:2|0:0,0:0:0:0:
21,315,21100,2,0,P|-2:267|16:213,1,89.9999972534181,10|2,0:0|0:0,0:0:0:0:
82,167,21482,1,2,3:2:0:0:
82,167,21577,1,2,0:0:0:0:
82,167,21673,1,2,0:0:0:0:
175,216,21864,2,0,L|291:210,1,89.9999972534181,10|2,0:0|0:0,0:0:0:0:
347,107,22246,54,0,B|337:152|337:152|361:194|361:194|342:288,1,179.999994506836,2|8,3:2|0:0,0:0:0:0:
446,352,22819,1,2,0:0:0:0:
446,352,22915,1,2,0:0:0:0:
446,352,23010,2,0,B|438:236|438:236|502:188,1,179.999994506836,2|10,3:2|0:0,0:0:0:0:
429,118,23584,1,2,0:0:0:0:
355,179,23775,22,0,L|243:165,1,89.9999972534181,6|2,3:2|0:0,0:0:0:0:
243,163,24061,1,2,0:0:0:0:
243,163,24157,2,0,P|205:119|203:76,1,89.9999972534181,10|2,0:0|0:0,0:0:0:0:
267,25,24539,1,2,3:2:0:0:
348,60,24730,1,2,0:0:0:0:
432,27,24921,2,0,P|462:62|460:117,1,89.9999972534181,10|2,0:0|0:0,0:0:0:0:
479,235,25303,54,0,B|450:192|450:192|311:182,1,179.999994506836,2|8,3:2|0:0,0:0:0:0:
89,255,26068,2,0,L|102:327,2,59.9999981689454,2|2|2,3:2|0:0|0:0,0:0:0:0:
161,200,26450,2,0,L|174:128,2,59.9999981689454,10|2|2,0:0|0:0|0:0,0:0:0:0:
222,280,26832,54,0,P|277:301|330:281,1,89.9999972534181,6|2,3:2|0:0,0:0:0:0:
371,210,27214,2,0,L|382:99,1,89.9999972534181,10|2,0:0|0:0,0:0:0:0:
308,53,27596,1,2,3:2:0:0:
308,53,27692,1,2,0:0:0:0:
308,53,27788,1,2,0:0:0:0:
221,112,27979,2,0,L|98:125,1,89.9999972534181,10|2,0:0|0:0,0:0:0:0:
38,189,28361,22,0,P|31:238|145:258,1,179.999994506836,2|8,3:2|0:0,0:0:0:0:
219,208,28934,1,2,0:0:0:0:
219,208,29030,1,2,0:0:0:0:
219,208,29125,2,0,B|266:179|302:210|291:231|347:257|400:220,1,179.999994506836,2|10,3:2|0:0,0:0:0:0:
449,128,29698,1,2,0:0:0:0:
375,52,29889,54,0,B|347:84|347:84|353:172,1,89.9999972534181,6|2,3:2|0:0,0:0:0:0:
354,155,30176,1,2,0:0:0:0:
354,155,30272,2,0,L|369:267,1,89.9999972534181,10|2,0:0|0:0,0:0:0:0:
278,306,30654,1,2,3:2:0:0:
278,306,30749,1,2,0:0:0:0:
278,306,30845,1,2,0:0:0:0:
181,248,31036,2,0,P|166:192|194:152,1,89.9999972534181,10|2,0:0|0:0,0:0:0:0:
264,90,31418,54,0,L|170:68,1,89.9999972534181,2|0,0:0|0:0,0:0:0:0:
96,15,31800,2,0,L|-15:33,1,89.9999972534181
12,136,32182,2,0,B|4:186|4:186|28:203|28:203|8:273|8:273|34:255|34:255|82:268|82:268|127:236,1,269.999991760254,2|0,0:0|0:0,0:0:0:0:
121,157,32947,38,0,P|168:169|198:279,1,150,6|10,0:0|0:0,0:0:0:0:
158,345,33520,1,2,0:0:0:0:
158,345,33711,2,0,L|238:332,1,75,2|2,3:2|0:0,0:0:0:0:
291,259,34093,2,0,L|366:270,1,75,10|2,0:0|0:0,0:0:0:0:
458,349,34475,6,0,P|452:267|483:194,1,150,2|8,3:2|0:0,0:0:0:0:
401,120,35049,1,2,0:0:0:0:
401,120,35144,1,2,0:0:0:0:
401,120,35240,1,2,3:2:0:0:
75,285,35813,53,2,0:0:0:0:
21,191,36004,2,0,L|176:219,1,150,6|10,3:2|0:0,0:0:0:0:
239,291,36577,1,2,0:0:0:0:
239,291,36768,2,0,P|280:286|313:245,1,75,2|2,3:2|0:0,0:0:0:0:
316,164,37151,2,0,P|291:130|239:122,1,75,10|2,0:0|0:0,0:0:0:0:
160,120,37533,6,0,B|110:116|92:152|105:163|76:199|17:184,1,150,2|8,3:2|0:0,0:0:0:0:
239,291,38297,2,0,L|250:241,2,50,2|2|2,3:2|0:0|0:0,0:0:0:0:
147,294,38679,2,0,L|136:245,2,50,10|2|2,0:0|0:3|0:3,0:0:0:0:
199,365,39061,54,0,B|239:386|239:386|352:361,1,150,6|10,3:2|0:0,0:0:0:0:
400,286,39635,1,2,0:0:0:0:
400,286,39826,2,0,L|406:210,1,75,2|2,3:2|0:0,0:0:0:0:
311,198,40208,2,0,L|296:123,1,75,10|2,0:0|0:0,0:0:0:0:
219,40,40590,6,0,B|190:77|190:77|204:192,1,150,2|8,3:2|0:0,0:0:0:0:
84,243,41163,1,2,0:0:0:0:
84,243,41259,1,2,0:0:0:0:
84,243,41354,2,0,B|127:225|165:248|142:266|194:284|239:263,1,150,2|8,3:2|0:0,0:0:0:0:
293,198,41928,1,2,0:0:0:0:
359,273,42119,54,1,B|392:229|392:229|378:113,1,150,6|10,3:2|0:0,0:0:0:0:
316,70,42692,1,2,0:0:0:0:
316,70,42883,2,0,P|249:61|224:79,1,75,2|2,3:2|0:0,0:0:0:0:
173,120,43265,2,0,L|183:213,1,75,10|2,0:0|0:0,0:0:0:0:
83,286,43647,6,0,B|127:273|127:273|168:294|168:294|229:279|229:279|268:302|268:302|367:277,1,300,2|2,3:3|3:3,0:3:0:0:
442,142,44794,1,8,0:0:0:0:
440,132,44889,1,0,3:2:0:0:
439,123,44985,1,0,3:2:0:0:
438,114,45080,1,0,3:2:0:0:
436,104,45176,54,0,P|374:67|290:82,1,150,6|10,3:2|0:0,0:0:0:0:
217,133,45749,1,2,0:0:0:0:
217,133,45940,2,0,L|230:216,1,75,2|2,3:2|0:0,0:0:0:0:
290,287,46323,1,10,0:0:0:0:
290,287,46514,1,2,0:0:0:0:
205,345,46705,6,0,P|132:314|48:315,1,150,2|10,3:2|0:0,0:0:0:0:
47,146,47469,2,0,P|120:177|204:176,1,150,2|10,3:2|0:0,0:0:0:0:
359,39,48233,54,0,P|298:37|294:129,1,150,2|10,3:2|0:0,0:0:0:0:
360,162,48807,1,2,0:0:0:0:
360,162,48998,2,0,P|385:205|379:256,1,75,2|2,3:2|0:0,0:0:0:0:
306,298,49380,1,10,0:0:0:0:
306,298,49571,1,2,0:0:0:0:
215,349,49762,6,0,P|146:322|159:258,1,150,2|10,3:3|0:2,0:0:0:0:
277,145,50526,1,2,3:3:0:0:
102,79,50909,2,2,B|154:74|154:74|167:59|167:59|228:57,1,112.5,8|0,0:0|0:0,0:1:0:0:
241,29,51291,54,0,B|277:8|315:32|306:52|344:69|392:47,1,150,0|10,3:2|0:0,0:0:0:0:
480,2,51864,1,2,0:0:0:0:
480,2,52055,2,0,L|457:101,1,75,2|2,3:2|0:0,0:0:0:0:
398,149,52437,1,10,0:0:0:0:
398,149,52628,1,2,0:0:0:0:
450,269,52819,6,0,P|361:229|285:229,1,150,2|10,3:2|0:0,0:0:0:0:
151,362,53584,2,0,P|225:353|291:318,1,150,2|10,3:2|0:0,0:0:0:0:
158,153,54348,54,0,P|97:176|89:252,1,150,0|10,3:2|0:0,0:0:0:0:
175,281,54921,1,2,0:0:0:0:
175,281,55112,2,0,L|279:266,1,75,2|2,3:2|0:0,0:0:0:0:
296,197,55495,1,10,0:0:0:0:
296,197,55686,1,2,0:0:0:0:
371,258,55877,5,2,3:2:0:0:
251,65,56259,1,10,0:0:0:0:
130,256,56641,54,0,L|75:245,2,50,2|2|2,3:3|0:3|0:3,0:3:0:0:
214,290,57023,2,0,L|269:279,2,50,10|2|2,0:2|0:3|0:3,0:0:0:0:
210,377,57405,54,0,L|325:354,1,89.9999972534181,6|2,3:2|0:0,0:0:0:0:
362,280,57787,2,0,L|376:160,1,89.9999972534181,10|2,0:0|0:0,0:0:0:0:
306,101,58169,1,2,3:2:0:0:
306,101,58265,1,2,0:0:0:0:
306,101,58360,1,2,0:0:0:0:
377,24,58551,2,0,P|426:21|478:57,1,89.9999972534181,10|2,0:0|0:0,0:0:0:0:
458,160,58933,54,0,B|409:136|370:170|381:183|337:223|271:182,1,179.999994506836,2|8,3:2|0:0,0:0:0:0:
210,114,59507,1,2,0:0:0:0:
210,114,59602,1,2,0:0:0:0:
210,114,59698,2,0,B|155:150|155:150|167:278,1,179.999994506836,2|10,3:2|0:0,0:0:0:0:
84,329,60271,1,2,0:0:0:0:
23,234,60463,54,0,L|33:129,1,89.9999972534181,6|2,3:2|0:0,0:0:0:0:
37,121,60749,1,2,0:0:0:0:
37,121,60845,2,0,P|81:103|133:125,1,89.9999972534181,10|2,0:0|0:0,0:0:0:0:
182,190,61226,1,2,3:2:0:0:
260,139,61418,1,2,0:0:0:0:
324,205,61609,2,0,L|312:305,1,89.9999972534181,10|2,0:0|0:0,0:0:0:0:
364,384,61991,22,0,B|406:343|406:343|420:219,1,179.999994506836,2|8,3:2|0:0,0:0:0:0:
305,44,62755,2,0,L|376:30,2,59.9999981689454,2|2|2,3:2|0:0|0:0,0:0:0:0:
218,94,63138,2,0,L|147:80,2,59.9999981689454,10|2|2,0:0|0:0|0:0,0:0:0:0:
302,138,63519,54,0,P|301:186|250:239,1,89.9999972534181,6|2,3:2|0:0,0:0:0:0:
175,247,63902,2,0,P|133:222|113:151,1,89.9999972534181,10|2,0:0|0:0,0:0:0:0:
149,85,64284,1,2,3:2:0:0:
149,85,64379,1,2,0:0:0:0:
149,85,64475,1,2,0:0:0:0:
244,32,64666,2,0,L|360:26,1,89.9999972534181,10|2,0:0|0:0,0:0:0:0:
444,14,65048,54,0,B|433:83|433:83|454:107|454:107|439:195,1,179.999994506836,2|8,3:2|0:0,0:0:0:0:
354,265,65622,1,2,0:0:0:0:
354,265,65717,1,2,0:0:0:0:
354,265,65813,2,0,P|269:282|205:208,1,179.999994506836,2|10,3:2|0:0,0:0:0:0:
148,130,66386,1,2,0:0:0:0:
76,206,66577,22,0,L|98:302,1,89.9999972534181,6|2,3:2|0:0,0:0:0:0:
103,314,66863,1,2,0:0:0:0:
103,314,66959,2,0,P|164:330|199:307,1,89.9999972534181,10|2,0:0|0:0,0:0:0:0:
242,242,67341,1,2,3:2:0:0:
326,278,67532,1,2,0:0:0:0:
390,207,67723,2,0,P|386:162|357:129,1,89.9999972534181,10|2,0:0|0:0,0:0:0:0:
267,109,68106,54,0,L|72:94,1,179.999994506836,2|8,3:2|0:0,0:0:0:0:
79,289,68870,2,0,P|75:332|97:369,2,59.9999981689454,2|2|2,3:2|0:0|0:0,0:0:0:0:
163,310,69252,2,0,P|198:334|241:334,2,59.9999981689454,10|2|2,0:0|0:0|0:0,0:0:0:0:
227,250,69634,54,0,L|357:241,1,89.9999972534181,6|2,3:2|0:0,0:0:0:0:
386,159,70016,2,0,L|271:135,1,89.9999972534181,10|2,0:0|0:0,0:0:0:0:
243,64,70398,1,2,3:2:0:0:
243,64,70494,1,2,0:0:0:0:
243,64,70590,1,2,0:0:0:0:
330,9,70781,2,0,P|365:15|406:52,1,89.9999972534181,10|2,0:0|0:0,0:0:0:0:
477,144,71163,22,0,B|456:265|456:265|395:299,1,179.999994506836,2|8,3:2|0:0,0:0:0:0:
300,340,71737,1,2,0:0:0:0:
300,340,71832,1,2,0:0:0:0:
300,340,71928,2,0,P|232:339|235:216,1,179.999994506836,2|10,3:2|0:0,0:0:0:0:
284,185,72500,1,2,0:0:0:0:
198,129,72692,54,0,L|83:143,1,89.9999972534181,6|2,3:2|0:0,0:0:0:0:
85,144,72979,1,2,0:0:0:0:
85,144,73074,2,0,P|41:193|51:236,1,89.9999972534181,10|2,0:0|0:0,0:0:0:0:
107,296,73456,1,2,3:2:0:0:
107,296,73551,1,2,0:0:0:0:
107,296,73647,1,2,0:0:0:0:
195,252,73838,2,0,L|292:261,1,89.9999972534181,10|2,0:0|0:0,0:0:0:0:
378,223,74221,54,0,P|398:179|379:131,1,89.9999972534181,2|0,0:0|0:0,0:0:0:0:
308,88,74603,2,0,P|286:41|299:5,1,89.9999972534181
429,13,74985,2,0,B|460:31|460:31|445:86|445:86|475:140|475:140|513:152|513:152|484:204|484:204|408:193|408:193|379:237,1,359.999989013672,2|4,0:0|0:0,0:0:0:0:
57,318,81864,38,0,L|141:308,1,75,0|0,3:2|0:0,0:0:0:0:
48,238,82246,2,0,L|132:228,1,75,8|0,0:0|0:0,0:0:0:0:
218,134,82628,6,0,P|233:84|214:53,1,75,0|0,3:2|0:0,0:0:0:0:
136,61,83010,2,0,P|121:111|140:142,1,75,8|0,0:0|0:0,0:0:0:0:
223,226,83393,54,0,L|305:217,1,75,0|0,3:2|0:0,0:0:0:0:
368,159,83775,2,0,L|450:168,1,75,8|0,0:0|0:0,0:0:0:0:
471,171,84061,1,0,0:0:0:0:
471,171,84157,6,0,P|490:221|470:268,1,75,0|0,3:2|0:0,0:0:0:0:
406,313,84539,2,0,P|353:304|322:264,1,75,8|0,0:0|0:0,0:0:0:0:
265,184,84921,54,0,L|280:102,1,75,0|0,3:2|0:0,0:0:0:0:
179,114,85303,2,0,L|164:38,1,75,8|0,0:0|0:0,0:0:0:0:
101,174,85686,6,0,B|134:217|134:217|168:208|168:208|140:363|140:363|100:304,1,300,0|4,3:2|0:3,0:0:0:0:
407,226,87214,54,0,L|397:285,2,50,2|2|2,0:0|0:0|0:0,0:0:0:0:
325,214,87596,2,0,L|315:273,2,50,2|2|2,0:0|0:0|0:0,0:0:0:0:
249,162,87979,54,0,L|229:49,1,89.9999972534181,6|2,3:2|0:0,0:0:0:0:
145,9,88361,2,0,L|123:100,1,89.9999972534181,10|2,0:0|0:0,0:0:0:0:
156,197,88743,1,2,3:2:0:0:
156,197,88837,1,2,0:0:0:0:
156,197,88934,1,2,0:0:0:0:
72,276,89125,2,0,L|176:288,1,89.9999972534181,10|2,0:0|0:0,0:0:0:0:
245,359,89507,54,0,B|293:331|293:331|274:177,1,179.999994506836,2|8,3:2|0:0,0:0:0:0:
254,109,90081,1,2,0:0:0:0:
254,109,90176,1,2,0:0:0:0:
254,109,90272,2,0,P|314:69|348:163,1,179.999994506836,2|10,3:2|0:0,0:0:0:0:
277,207,90845,1,2,0:0:0:0:
355,264,91035,54,0,L|463:277,1,89.9999972534181,6|2,3:2|0:0,0:0:0:0:
465,278,91322,1,2,0:0:0:0:
465,278,91417,2,0,P|473:337|437:374,1,89.9999972534181,10|2,0:0|0:0,0:0:0:0:
368,384,91799,1,2,3:2:0:0:
294,328,91990,1,2,0:0:0:0:
206,372,92181,2,0,L|105:355,1,89.9999972534181,10|2,0:0|0:0,0:0:0:0:
18,333,92564,22,0,P|-6:276|91:280,1,179.999994506836,2|8,3:2|0:0,0:0:0:0:
300,153,93329,2,0,P|318:124|321:93,2,59.9999981689454,2|2|2,3:2|0:0|0:0,0:0:0:0:
233,101,93711,2,0,P|217:71|192:53,2,59.9999981689454,10|2|2,0:0|0:0|0:0,0:0:0:0:
196,192,94093,54,0,L|67:174,1,89.9999972534181,6|2,3:2|0:0,0:0:0:0:
5,98,94475,2,0,L|134:80,1,89.9999972534181,10|2,0:0|0:0,0:0:0:0:
168,12,94858,1,2,3:2:0:0:
168,12,94953,1,2,0:0:0:0:
168,12,95049,1,2,0:0:0:0:
254,49,95240,2,0,P|272:79|261:140,1,89.9999972534181,10|2,0:0|0:0,0:0:0:0:
223,222,95622,54,0,B|292:233|292:233|316:212|316:212|404:227,1,179.999994506836,2|8,3:2|0:0,0:0:0:0:
464,144,96194,1,2,0:0:0:0:
464,144,96291,1,2,0:0:0:0:
464,144,96385,2,0,P|436:62|336:61,1,179.999994506836,2|10,3:2|0:0,0:0:0:0:
286,119,96958,1,2,0:0:0:0:
176,50,97151,22,0,L|189:141,1,89.9999972534181,6|2,3:2|0:0,0:0:0:0:
192,157,97437,1,2,0:0:0:0:
192,157,97533,2,0,L|179:248,1,89.9999972534181,10|2,0:0|0:0,0:0:0:0:
153,341,97915,1,2,3:2:0:0:
245,315,98106,1,2,0:0:0:0:
331,365,98297,2,0,P|356:316|349:269,1,89.9999972534181,10|2,0:0|0:0,0:0:0:0:
269,185,98678,54,0,B|311:211|311:211|445:186,1,179.999994506836,2|8,3:2|0:0,0:0:0:0:
194,90,99444,2,0,L|106:75,2,59.9999981689454,2|2|2,3:2|0:0|0:0,0:0:0:0:
183,171,99826,2,0,L|95:156,2,59.9999981689454,10|2|2,0:0|0:0|0:0,0:0:0:0:
261,145,100208,54,0,L|279:259,1,89.9999972534181,6|2,3:2|0:0,0:0:0:0:
286,338,100590,2,0,L|171:314,1,89.9999972534181,10|2,0:0|0:0,0:0:0:0:
135,251,100971,1,2,3:2:0:0:
135,251,101067,1,2,0:0:0:0:
135,251,101162,1,2,0:0:0:0:
68,322,101353,2,0,P|33:282|32:218,1,89.9999972534181,10|2,0:0|0:0,0:0:0:0:
81,148,101736,22,0,B|158:145|158:145|170:163|170:163|270:157,1,179.999994506836,2|8,3:2|0:0,0:0:0:0:
327,241,102309,1,2,0:0:0:0:
327,241,102404,1,2,0:0:0:0:
327,241,102500,2,0,P|395:240|392:117,1,179.999994506836,2|10,3:2|0:0,0:0:0:0:
342,79,103073,1,2,0:0:0:0:
259,142,103264,54,0,L|144:132,1,89.9999972534181,6|2,3:2|0:0,0:0:0:0:
140,132,103551,1,2,0:0:0:0:
140,132,103646,2,0,P|96:181|106:224,1,89.9999972534181,10|2,0:0|0:0,0:0:0:0:
171,290,104030,1,2,3:2:0:0:
171,290,104124,1,2,0:0:0:0:
171,290,104221,1,2,0:0:0:0:
256,235,104412,2,0,L|353:244,1,89.9999972534181,10|2,0:0|0:0,0:0:0:0:
428,174,104794,54,0,P|438:121|414:85,1,89.9999972534181,2|0,0:0|0:0,0:0:0:0:
329,59,105176,2,0,P|278:77|259:116,1,89.9999972534181
309,202,105558,2,0,B|247:193|247:193|206:216|206:216|140:193|140:193|163:163|163:163|122:303,1,359.999989013672,2|6,0:0|3:2,0:0:0:0:
202,369,106514,21,2,0:0:0:0:
267,303,106705,2,0,L|368:287,1,89.9999972534181,10|2,0:0|0:0,0:0:0:0:
444,243,107087,1,2,3:2:0:0:
444,243,107182,1,2,0:0:0:0:
444,243,107278,2,0,P|457:199|438:157,1,89.9999972534181,2|10,0:0|0:0,0:0:0:0:
356,112,107660,1,2,0:0:0:0:
268,166,107851,54,0,B|184:160|184:160|174:142|174:142|81:136,1,179.999994506836,2|8,3:2|0:0,0:0:0:0:
25,219,108424,1,2,0:0:0:0:
25,219,108520,1,2,0:0:0:0:
25,219,108616,2,0,B|80:202|112:245|93:262|146:294|208:264,1,179.999994506836,2|10,3:2|0:0,0:0:0:0:
259,208,109189,1,2,0:0:0:0:
346,270,109380,54,0,L|358:164,1,89.9999972534181,6|2,3:2|0:0,0:0:0:0:
361,162,109666,1,2,0:0:0:0:
361,162,109762,2,0,P|416:175|457:155,1,89.9999972534181,10|2,0:0|0:0,0:0:0:0:
396,62,110144,1,2,3:2:0:0:
396,62,110240,1,2,0:0:0:0:
396,62,110335,1,2,0:0:0:0:
289,97,110526,2,0,L|168:83,1,89.9999972534181,10|2,0:0|0:0,0:0:0:0:
103,0,110909,22,0,B|119:56|119:56|105:80|105:80|127:174,1,179.999994506836,2|8,3:2|0:0,0:0:0:0:
74,254,111482,1,0,0:0:0:0:
74,254,111673,2,0,L|0:239,2,59.9999981689454,2|2|2,3:2|0:0|0:0,0:0:0:0:
64,341,112055,2,0,L|-10:326,2,59.9999981689454,10|2|2,0:0|0:0|0:0,0:0:0:0:
155,310,112437,54,0,P|221:312|251:341,1,89.9999972534181,6|2,3:2|0:0,0:0:0:0:
256,345,112724,1,2,0:0:0:0:
256,345,112819,2,0,L|265:239,1,89.9999972534181,10|2,0:0|0:0,0:0:0:0:
329,177,113202,1,2,3:2:0:0:
329,177,113297,1,2,0:0:0:0:
329,177,113393,1,2,0:0:0:0:
258,102,113584,2,0,L|275:2,1,89.9999972534181,10|2,0:0|0:0,0:0:0:0:
383,0,113966,54,0,B|434:50|434:50|420:164,1,179.999994506836,2|8,3:2|0:0,0:0:0:0:
389,250,114539,1,2,0:0:0:0:
389,250,114635,1,2,0:0:0:0:
389,250,114730,2,0,P|292:268|239:203,1,179.999994506836,2|10,3:2|0:0,0:0:0:0:
167,143,115303,1,2,0:0:0:0:
88,206,115495,22,0,L|106:312,1,89.9999972534181,6|2,3:2|0:0,0:0:0:0:
108,316,115781,1,2,0:0:0:0:
108,316,115877,2,0,P|164:335|199:312,1,89.9999972534181,10|2,0:0|0:0,0:0:0:0:
247,253,116259,1,2,3:2:0:0:
340,283,116450,1,2,0:0:0:0:
396,202,116641,2,0,L|392:109,1,89.9999972534181,10|2,0:0|0:0,0:0:0:0:
338,29,117023,54,0,B|302:56|302:56|307:207,1,179.999994506836,2|8,3:2|0:0,0:0:0:0:
216,137,117596,1,0,0:0:0:0:
216,137,117788,2,0,L|212:66,2,59.9999981689454,2|2|2,3:2|0:0|0:0,0:0:0:0:
138,182,118170,2,0,L|85:135,2,59.9999981689454,10|2|2,0:0|0:0|0:0,0:0:0:0:
124,272,118552,54,0,L|249:252,1,89.9999972534181,6|2,3:2|0:0,0:0:0:0:
233,258,118838,1,2,0:0:0:0:
233,258,118934,2,0,P|287:234|297:188,1,89.9999972534181,10|2,0:0|0:0,0:0:0:0:
268,109,119316,1,2,3:2:0:0:
268,109,119412,1,2,0:0:0:0:
268,109,119507,1,2,0:0:0:0:
374,46,119698,2,0,L|357:152,1,89.9999972534181,10|2,0:0|0:0,0:0:0:0:
458,222,120081,22,0,B|400:216|400:216|380:232|380:232|279:221,1,179.999994506836,2|8,3:2|0:0,0:0:0:0:
190,295,120654,1,2,0:0:0:0:
190,295,120749,1,2,0:0:0:0:
190,295,120845,2,0,P|114:285|99:187,1,179.999994506836,2|10,3:2|0:0,0:0:0:0:
174,126,121418,1,2,0:0:0:0:
136,25,121609,54,0,L|244:42,1,89.9999972534181,6|2,3:2|0:0,0:0:0:0:
243,57,121896,1,2,0:0:0:0:
243,57,121991,2,0,L|342:44,1,89.9999972534181,10|2,0:0|0:0,0:0:0:0:
434,41,122373,1,2,3:2:0:0:
385,132,122565,1,2,0:0:0:0:
463,200,122756,2,0,L|441:299,1,89.9999972534181,10|2,0:0|0:0,0:0:0:0:
337,344,123138,54,0,P|270:331|249:290,1,89.9999972534181,2|0,0:0|0:0,0:0:0:0:
181,371,123520,2,0,P|159:306|184:268,1,89.9999972534181
229,214,123902,22,0,B|210:128|165:104|165:104|118:130|97:219|97:219|120:191|153:190,1,330.000010070801,2|6,0:0|0:0,0:0:0:0:
