osu file format v14

[General]
AudioFilename: audio.mp3
AudioLeadIn: 0
PreviewTime: 54146
Countdown: 0
SampleSet: Soft
StackLeniency: 0.7
Mode: 0
LetterboxInBreaks: 0
WidescreenStoryboard: 0

[Editor]
DistanceSpacing: 1
BeatDivisor: 4
GridSize: 32
TimelineZoom: 1.5

[Metadata]
Title:Sarishinohara
TitleUnicode:サリシノハラ
Artist:majiko
ArtistUnicode:まじ娘
Creator:Shunao
Version:Easy
Source:
Tags:みきとP mikitop CONTRAST akaito cut version ShogunMoon eLy Kalibe
BeatmapID:1415357
BeatmapSetID:669138

[Difficulty]
HPDrainRate:2
CircleSize:2.8
OverallDifficulty:2
ApproachRate:3
SliderMultiplier:0.9
SliderTickRate:1

[Events]
//Background and Video events
0,0,"bg.jpg",0,0
//Break Periods
2,15457,20928
//Storyboard Layer 0 (Background)
//Storyboard Layer 1 (Fail)
//Storyboard Layer 2 (Pass)
//Storyboard Layer 3 (Foreground)
//Storyboard Sound Samples

[TimingPoints]
1035,444.444444444444,4,2,2,50,1,0
8146,-100,4,2,2,60,0,0
15257,-100,4,2,2,50,0,0
22368,-100,4,2,2,45,0,0
36590,-100,4,2,2,55,0,0
52590,-100,4,2,2,40,0,0
54368,-100,4,2,2,80,0,1
79257,-100,4,2,2,70,0,0
82812,-100,4,2,2,75,0,0
86368,-100,4,2,2,80,0,0
96368,-100,4,2,2,60,0,0
98812,-100,4,2,2,50,0,0
100590,-100,4,2,2,55,0,0
118368,-100,4,2,2,60,0,0
126368,-100,4,2,2,5,0,0

[Colours]
Combo1 : 174,174,174
Combo2 : 98,132,157
Combo3 : 220,174,163
Combo4 : 255,253,176

[HitObjects]
90,129,1035,6,0,P|137:81|207:87,2,135,2|2|2,0:3|0:3|0:3,0:0:0:0:
114,215,2812,2,0,L|301:199,1,180,2|0,0:3|0:0,0:0:0:0:
379,171,4146,1,2,0:0:0:0:
444,232,4590,6,0,P|448:282|440:327,1,90,2|2,0:3|0:3,0:0:0:0:
361,362,5479,2,0,P|316:349|259:351,1,90,0|2,0:0|0:3,0:0:0:0:
183,341,6368,2,0,B|148:358|148:358|41:345,2,135,2|4|8,0:3|0:0|0:0,0:0:0:0:
185,250,8146,6,0,P|190:200|204:146,1,90,12|8,0:0|0:0,0:0:0:0:
250,87,9034,2,0,L|343:78,1,90,0|8,0:0|0:0,0:0:0:0:
429,73,9923,2,0,P|484:114|491:185,2,135,2|2|8,0:0|0:0|0:0,0:0:0:0:
405,159,11701,6,0,L|388:258,1,90,2|8,0:0|0:0,0:0:0:0:
351,329,12590,2,0,P|304:339|259:325,1,90,0|8,0:0|0:0,0:0:0:0:
180,294,13479,1,2,0:0:0:0:
116,175,14146,6,0,B|185:154|182:204|260:180,1,135,6|8,0:0|0:0,0:0:0:0:
315,124,15257,1,2,0:0:0:0:
74,74,22368,6,0,L|180:81,1,90,6|8,0:0|0:0,0:0:0:0:
229,141,23257,2,0,L|331:133,1,90,0|8,0:0|0:0,0:0:0:0:
408,138,24146,2,0,P|442:188|426:267,2,135,2|2|8,0:0|0:0|0:0,0:0:0:0:
354,210,25923,6,0,P|341:254|359:311,1,90,2|8,0:0|0:0,0:0:0:0:
281,354,26812,2,0,L|187:361,1,90,0|8,0:0|0:0,0:0:0:0:
127,296,27701,2,0,L|-8:286,2,135,2|2|10,0:0|0:0|0:0,0:0:0:0:
200,244,29479,6,0,L|193:155,1,90,2|8,0:0|0:0,0:0:0:0:
128,91,30368,2,0,P|163:68|217:68,1,90,0|8,0:0|0:0,0:0:0:0:
289,109,31257,2,0,P|354:130|422:96,2,135,2|2|8,0:0|0:0|0:0,0:0:0:0:
210,65,33034,6,0,L|114:53,1,90,2|8,0:0|0:0,0:0:0:0:
97,140,33923,2,0,L|188:152,1,90,0|8,0:0|0:0,0:0:0:0:
268,189,34812,2,0,B|292:243|292:243|274:332,1,135,2|2,0:0|0:0,0:0:0:0:
147,357,36146,1,8,0:0:0:0:
74,303,36590,6,0,L|69:214,1,90,12|8,0:0|0:0,0:0:0:0:
136,153,37479,2,0,P|181:146|237:164,1,90,0|8,0:0|0:0,0:0:0:0:
302,200,38368,2,0,L|296:338,2,135,2|2|8,0:0|0:0|0:0,0:0:0:0:
371,142,40146,6,0,L|367:50,1,90,2|8,0:0|0:0,0:0:0:0:
280,28,41034,2,0,P|237:31|187:57,1,90,0|8,0:0|0:0,0:0:0:0:
132,115,41923,2,0,L|141:263,2,135,2|2|8,0:0|0:0|0:0,0:0:0:0:
59,61,43701,6,0,P|40:106|52:160,1,90,2|8,0:0|0:0,0:0:0:0:
132,115,44590,2,0,L|235:122,1,90,0|8,0:0|0:0,0:0:0:0:
299,74,45479,2,0,L|443:66,2,135,2|2|8,0:0|0:0|0:0,0:0:0:0:
221,121,47257,6,0,P|211:168|220:217,1,90,2|8,0:0|0:0,0:0:0:0:
286,266,48146,2,0,L|293:362,1,90,0|8,0:0|0:0,0:0:0:0:
382,350,49034,2,0,L|391:210,1,135,2|6,0:0|0:0,0:0:0:0:
362,129,50146,1,8,0:0:0:0:
249,55,50812,6,0,P|205:46|155:63,1,90,6|0,0:0|0:0,0:0:0:0:
79,94,51701,1,8,0:0:0:0:
74,183,52146,1,8,0:0:0:0:
142,241,52590,6,0,L|133:342,2,90,6|0|0,0:0|0:0|0:0,0:0:0:0:
327,250,54368,6,0,P|334:202|346:151,1,90,6|8,0:0|0:0,0:0:0:0:
381,79,55257,2,0,L|286:71,1,90,8|8,0:0|0:0,0:0:0:0:
206,40,56146,2,0,L|58:53,1,135,2|0,0:0|0:0,0:0:0:0:
19,176,57479,1,8,0:0:0:0:
99,215,57923,6,0,L|105:306,1,90,2|8,0:0|0:0,0:0:0:0:
192,325,58812,2,0,P|237:313|283:318,1,90,8|8,0:0|0:0,0:0:0:0:
369,327,59701,2,0,P|373:266|398:187,1,135,2|0,0:0|0:0,0:0:0:0:
260,178,61034,1,8,0:0:0:0:
172,158,61479,6,0,P|165:116|177:64,1,90,14|8,0:0|0:0,0:0:0:0:
250,24,62368,2,0,L|351:30,1,90,8|8,0:0|0:0,0:0:0:0:
401,95,63257,2,0,P|426:155|406:218,2,135,2|0|8,0:0|0:0|0:0,0:0:0:0:
340,160,65034,6,0,P|320:226|358:291,1,135,2|0,0:0|0:0,0:0:0:0:
295,356,66146,2,0,L|203:350,2,90,8|0|8,0:0|0:0|0:0,0:0:0:0:
347,282,67479,2,0,P|343:214|334:139,1,135,12|8,0:0|0:0,0:0:0:0:
272,82,68590,6,0,L|174:75,1,90,6|8,0:0|0:0,0:0:0:0:
92,75,69479,2,0,P|79:119|96:178,1,90,8|8,0:0|0:0,0:0:0:0:
159,214,70368,2,0,L|165:357,1,135,2|0,0:0|0:0,0:0:0:0:
297,374,71701,1,8,0:0:0:0:
382,344,72146,6,0,L|386:250,1,90,2|8,0:0|0:0,0:0:0:0:
347,172,73034,2,0,P|304:163|260:173,1,90,8|8,0:0|0:0,0:0:0:0:
185,224,73923,2,0,L|44:213,1,135,2|0,0:0|0:0,0:0:0:0:
3,86,75257,1,8,0:0:0:0:
88,57,75701,6,0,L|181:51,1,90,12|8,0:0|0:0,0:0:0:0:
236,119,76590,2,0,P|243:163|246:213,1,90,8|8,0:0|0:0,0:0:0:0:
189,278,77479,2,0,P|255:297|320:266,1,135,0|0,0:0|0:0,0:0:0:0:
391,226,78590,1,8,0:0:0:0:
461,169,79034,6,0,L|448:27,1,135,2|2,0:0|0:0,0:0:0:0:
358,33,80146,2,0,L|253:40,1,90,2|8,0:0|0:0,0:0:0:0:
196,93,81034,2,0,L|92:85,1,90,2|8,0:0|0:0,0:0:0:0:
32,138,81923,1,2,0:0:0:0:
21,227,82368,1,8,0:0:0:0:
96,278,82812,6,0,P|111:320|114:364,2,90,12|2|2,0:0|0:0|0:0,0:0:0:0:
21,227,84146,1,8,0:0:0:0:
32,138,84590,2,0,P|36:89|52:48,2,90,8|8|8,0:0|0:0|0:0,0:0:0:0:
21,227,85923,1,8,0:0:0:0:
96,278,86368,6,0,L|202:270,1,90,12|8,0:0|0:0,0:0:0:0:
270,240,87257,2,0,P|282:198|288:142,1,90,8|8,0:0|0:0,0:0:0:0:
342,80,88146,2,0,B|414:62|410:105|480:81,2,135,2|2|8,0:0|0:0|0:0,0:0:0:0:
287,152,89923,6,0,P|261:211|301:287,1,135,6|8,0:0|0:0,0:0:0:0:
371,298,91034,1,2,0:0:0:0:
457,273,91479,2,0,P|475:209|445:148,1,135,12|8,0:0|0:0,0:0:0:0:
398,73,92590,1,8,0:0:0:0:
309,58,93034,1,8,0:0:0:0:
233,106,93479,6,0,L|225:199,1,90,2|8,0:0|0:0,0:0:0:0:
307,233,94368,2,0,L|298:338,1,90,8|8,0:0|0:0,0:0:0:0:
215,355,95257,2,0,P|161:373|84:355,1,135,4|6,0:0|0:0,0:0:0:0:
46,275,96368,1,0,0:0:0:0:
29,139,97034,6,0,P|48:76|117:39,2,135,2|2|8,0:0|0:0|0:0,0:0:0:0:
119,130,98812,2,0,L|226:121,1,90,6|8,0:0|0:0,0:0:0:0:
298,125,99701,1,2,0:0:0:0:
383,154,100146,1,8,0:0:0:0:
453,209,100590,6,0,P|464:253|456:300,1,90,6|8,0:0|0:0,0:0:0:0:
393,360,101478,2,0,L|296:354,1,90,0|8,0:0|0:0,0:0:0:0:
232,298,102368,2,0,L|83:308,2,135,2|2|8,0:0|0:0|0:0,0:0:0:0:
291,230,104145,6,0,P|288:185|273:139,1,90,2|8,0:0|0:0,0:0:0:0:
207,81,105034,2,0,L|117:76,1,90,0|8,0:0|0:0,0:0:0:0:
41,125,105923,2,0,P|19:183|43:258,2,135,2|2|8,0:0|0:0|0:0,0:0:0:0:
117,76,107701,6,0,L|222:80,1,90,12|8,0:0|0:0,0:0:0:0:
276,136,108589,2,0,L|372:132,1,90,0|8,0:0|0:0,0:0:0:0:
439,185,109479,2,0,P|450:251|458:324,2,135,2|2|8,0:0|0:0|0:0,0:0:0:0:
365,132,111257,6,0,P|321:152|285:201,1,90,2|8,0:0|0:0,0:0:0:0:
241,255,112146,2,0,L|250:356,1,90,0|0,0:0|0:0,0:0:0:0:
161,365,113034,1,2,0:0:0:0:
60,275,113701,2,0,B|46:210|89:211|68:143,1,135,2|8,0:0|0:0,0:0:0:0:
111,64,114812,6,0,P|169:44|242:81,2,135,6|6|8,0:0|0:0|0:0,0:0:0:0:
170,130,116590,2,0,P|229:157|291:136,2,135,6|6|8,0:0|0:0|0:0,0:0:0:0:
233,71,118368,6,0,B|282:65|282:65|318:81|318:81|364:76,1,135,8|6,0:0|0:0,0:0:0:0:
452,58,119479,1,6,0:0:0:0:
256,192,119590,12,0,126368,0:0:0:0:
