osu file format v14

[General]
AudioFilename: audio.mp3
AudioLeadIn: 0
PreviewTime: 54146
Countdown: 0
SampleSet: Soft
StackLeniency: 0.7
Mode: 0
LetterboxInBreaks: 0
WidescreenStoryboard: 0

[Editor]
DistanceSpacing: 1.5
BeatDivisor: 4
GridSize: 16
TimelineZoom: 1.5

[Metadata]
Title:Sarishinohara
TitleUnicode:サリシノハラ
Artist:majiko
ArtistUnicode:まじ娘
Creator:Shunao
Version:Advanced
Source:
Tags:みきとP mikitop CONTRAST akaito cut version ShogunMoon eLy Kalibe
BeatmapID:1456972
BeatmapSetID:669138

[Difficulty]
HPDrainRate:5
CircleSize:3.5
OverallDifficulty:5
ApproachRate:6
SliderMultiplier:1.1
SliderTickRate:1

[Events]
//Background and Video events
0,0,"bg.jpg",0,0
//Break Periods
//Storyboard Layer 0 (Background)
//Storyboard Layer 1 (Fail)
//Storyboard Layer 2 (Pass)
//Storyboard Layer 3 (Foreground)
//Storyboard Sound Samples

[TimingPoints]
1035,444.444444444444,4,2,2,50,1,0
7034,-100,4,2,2,55,0,0
8146,-100,4,2,2,60,0,0
15257,-100,4,2,2,50,0,0
22368,-100,4,2,2,45,0,0
36590,-100,4,2,2,55,0,0
52590,-100,4,2,2,40,0,0
54368,-100,4,2,2,80,0,1
79257,-100,4,2,2,70,0,0
82812,-100,4,2,2,75,0,0
86368,-100,4,2,2,80,0,0
96368,-100,4,2,2,60,0,0
98812,-100,4,2,2,50,0,0
100590,-100,4,2,2,55,0,0
118368,-100,4,2,2,60,0,0
126368,-100,4,2,2,5,0,0

[Colours]
Combo1 : 174,174,174
Combo2 : 98,132,157
Combo3 : 220,174,163
Combo4 : 255,253,176

[HitObjects]
73,123,1035,6,0,L|197:116,1,110,2|0,0:3|0:0,0:0:0:0:
250,69,1701,2,0,L|376:76,1,110,2|0,0:3|0:0,0:0:0:0:
440,92,2368,1,2,0:3:0:0:
467,254,2812,2,0,L|357:263,1,110,2|2,0:3|0:3,0:0:0:0:
315,334,3479,2,0,L|189:324,1,110,2|2,0:3|0:0,0:0:0:0:
122,318,4146,1,2,0:0:0:0:
122,318,4368,1,2,0:0:0:0:
43,293,4590,6,0,P|31:240|47:180,1,110,2|2,0:3|0:3,0:0:0:0:
100,126,5257,2,0,L|217:135,1,110,2|0,0:3|0:0,0:0:0:0:
290,150,5923,2,0,P|298:183|304:229,1,55,2|0,0:3|0:0,0:0:0:0:
318,284,6368,1,2,0:3:0:0:
318,284,6590,1,2,0:3:0:0:
473,229,7034,2,0,L|480:98,1,110,4|2,0:0|0:0,0:0:0:0:
418,62,7701,2,0,P|381:44|351:38,1,55,8|8,0:0|0:0,0:0:0:0:
285,44,8146,6,0,P|231:55|170:57,1,110,12|8,0:0|0:0,0:0:0:0:
95,42,8812,2,0,L|102:154,1,110,2|2,0:0|0:0,0:0:0:0:
109,234,9479,1,8,0:0:0:0:
240,333,9923,2,0,L|245:264,1,55,2|2,0:0|0:0,0:0:0:0:
279,203,10368,1,8,0:0:0:0:
279,203,10590,2,0,P|323:166|392:163,1,110,2|2,0:0|0:0,0:0:0:0:
454,177,11257,2,0,L|459:237,1,55,8|0,0:0|0:0,0:0:0:0:
512,294,11701,6,0,L|506:354,1,55,2|0,0:0|0:0,0:0:0:0:
411,362,12146,1,8,0:0:0:0:
411,362,12368,2,0,P|361:347|281:353,1,110,2|2,0:0|0:0,0:0:0:0:
222,361,13034,2,0,L|163:353,1,55,8|0,0:0|0:0,0:0:0:0:
85,340,13479,1,2,0:0:0:0:
33,275,13701,1,2,0:0:0:0:
73,203,13923,1,8,0:0:0:0:
152,179,14146,6,0,B|209:163|212:201|270:187,1,110,6|2,0:0|0:0,0:0:0:0:
339,169,14812,2,0,L|345:109,1,55,8|8,0:0|0:0,0:0:0:0:
386,43,15257,6,0,P|334:64|259:45,1,110,2|2,0:0|0:0,0:0:0:0:
205,26,15923,1,0,0:0:0:0:
126,52,16146,2,0,L|133:128,1,55,2|0,0:0|0:0,0:0:0:0:
200,151,16590,2,0,L|190:222,1,55,2|0,0:0|0:0,0:0:0:0:
160,281,17034,2,0,P|210:252|264:263,1,110,2|2,0:0|0:0,0:0:0:0:
223,334,17701,1,0,0:0:0:0:
150,373,17923,2,0,L|86:363,1,55,2|0,0:0|0:0,0:0:0:0:
39,303,18368,2,0,P|43:267|50:236,1,55,2|0,0:0|0:0,0:0:0:0:
114,200,18812,6,0,L|104:78,1,110,2|2,0:0|0:0,0:0:0:0:
167,35,19479,1,0,0:0:0:0:
231,85,19701,2,0,P|259:90|307:84,1,55,2|0,0:0|0:0,0:0:0:0:
361,56,20146,2,0,P|389:51|437:57,1,55,2|0,0:0|0:0,0:0:0:0:
478,105,20590,2,0,L|473:169,1,55,2|0,0:0|0:0,0:0:0:0:
474,242,21034,1,2,0:0:0:0:
405,288,21257,1,0,0:0:0:0:
331,251,21479,1,2,0:0:0:0:
185,174,21923,2,0,L|123:179,1,55,8|8,0:0|0:0,0:0:0:0:
93,252,22368,6,0,L|161:259,1,55,6|2,0:0|0:0,0:0:0:0:
214,306,22812,1,8,0:0:0:0:
372,353,23257,2,0,L|442:345,1,55,0|2,0:0|0:0,0:0:0:0:
480,284,23701,1,8,0:0:0:0:
404,137,24146,6,0,L|334:128,1,55,2|2,0:0|0:0,0:0:0:0:
288,74,24590,1,8,0:0:0:0:
288,74,24812,1,2,0:0:0:0:
134,134,25257,2,0,L|138:196,1,55,2|8,0:0|0:0,0:0:0:0:
196,246,25701,1,0,0:0:0:0:
276,228,25923,6,0,P|307:221|353:216,1,55,2|2,0:0|0:0,0:0:0:0:
412,227,26368,1,8,0:0:0:0:
310,356,26812,2,0,P|277:354|243:348,1,55,0|2,0:0|0:0,0:0:0:0:
174,332,27257,1,8,0:0:0:0:
45,229,27701,6,0,P|51:198|63:162,1,55,2|2,0:0|0:0,0:0:0:0:
103,106,28146,1,8,0:0:0:0:
103,106,28368,1,2,0:0:0:0:
257,162,28812,2,0,P|291:160|328:149,1,55,2|10,0:0|0:0,0:0:0:0:
378,107,29257,1,0,0:0:0:0:
332,38,29479,6,0,B|269:33,1,55,2|2,0:0|0:0,0:0:0:0:
205,73,29923,1,8,0:0:0:0:
98,199,30368,2,0,L|104:265,1,55,0|2,0:0|0:0,0:0:0:0:
140,327,30812,1,8,0:0:0:0:
301,294,31257,6,0,L|307:223,1,55,2|2,0:0|0:0,0:0:0:0:
344,166,31701,1,8,0:0:0:0:
344,166,31923,1,2,0:0:0:0:
480,72,32368,2,0,L|485:139,1,55,2|8,0:0|0:0,0:0:0:0:
448,201,32812,1,0,0:0:0:0:
399,267,33034,6,0,L|394:338,1,55,2|2,0:0|0:0,0:0:0:0:
321,360,33479,1,8,0:0:0:0:
189,260,33923,2,0,P|183:229|191:201,1,55,0|2,0:0|0:0,0:0:0:0:
264,174,34368,1,8,0:0:0:0:
186,28,34812,6,0,P|148:22|119:29,1,55,2|2,0:0|0:0,0:0:0:0:
51,43,35257,1,8,0:0:0:0:
51,43,35479,1,2,0:0:0:0:
14,287,36146,1,8,0:0:0:0:
84,328,36368,1,8,0:0:0:0:
157,364,36590,6,0,L|232:357,1,55,12|2,0:0|0:0,0:0:0:0:
240,281,37034,2,0,P|245:254|253:227,1,55,8|0,0:0|0:0,0:0:0:0:
333,207,37479,2,0,P|327:180|319:153,1,55,0|2,0:0|0:0,0:0:0:0:
258,98,37923,1,8,0:0:0:0:
304,29,38146,1,0,0:0:0:0:
378,64,38368,6,0,L|453:56,2,55,2|2|8,0:0|0:0|0:0,0:0:0:0:
304,29,39034,1,2,0:0:0:0:
258,98,39257,2,0,L|181:89,1,55,0|2,0:0|0:0,0:0:0:0:
124,114,39701,1,8,0:0:0:0:
75,180,39923,1,0,0:0:0:0:
74,263,40146,6,0,L|79:326,1,55,2|2,0:0|0:0,0:0:0:0:
155,346,40590,2,0,L|161:289,1,55,8|0,0:0|0:0,0:0:0:0:
208,224,41034,2,0,P|238:216|277:213,1,55,0|2,0:0|0:0,0:0:0:0:
342,232,41479,1,8,0:0:0:0:
423,220,41701,1,0,0:0:0:0:
470,152,41923,6,0,P|466:121|463:88,2,55,2|2|8,0:0|0:0|0:0,0:0:0:0:
423,220,42590,1,2,0:0:0:0:
393,296,42812,2,0,P|389:327|387:363,1,55,0|2,0:0|0:0,0:0:0:0:
308,377,43257,1,8,0:0:0:0:
227,357,43479,1,0,0:0:0:0:
174,293,43701,6,0,P|141:286|106:280,1,55,2|2,0:0|0:0,0:0:0:0:
82,208,44146,2,0,P|115:201|150:195,1,55,8|0,0:0|0:0,0:0:0:0:
199,144,44590,2,0,P|203:116|209:90,1,55,0|2,0:0|0:0,0:0:0:0:
275,40,45034,1,8,0:0:0:0:
357,48,45257,1,0,0:0:0:0:
424,95,45479,6,0,L|500:89,2,55,2|2|8,0:0|0:0|0:0,0:0:0:0:
366,155,46146,1,2,0:0:0:0:
301,205,46368,2,0,L|227:198,1,55,0|2,0:0|0:0,0:0:0:0:
164,208,46812,1,8,0:0:0:0:
119,277,47034,1,0,0:0:0:0:
160,348,47257,6,0,L|230:341,1,55,2|2,0:0|0:0,0:0:0:0:
289,307,47701,2,0,L|357:313,1,55,8|0,0:0|0:0,0:0:0:0:
417,349,48146,2,0,L|491:342,1,55,0|2,0:0|0:0,0:0:0:0:
496,265,48590,2,0,P|498:230|503:198,1,55,8|0,0:0|0:0,0:0:0:0:
441,152,49034,6,0,P|438:117|431:81,2,55,2|2|8,0:0|0:0|0:0,0:0:0:0:
367,190,49701,1,6,0:0:0:0:
206,229,50146,1,8,0:0:0:0:
128,201,50368,1,8,0:0:0:0:
48,223,50590,1,8,0:0:0:0:
6,151,50812,6,0,B|-3:96|35:97|16:23,2,110,6|0|8,0:0|0:0|0:0,0:0:0:0:
48,223,51923,1,8,0:0:0:0:
128,201,52146,1,8,0:0:0:0:
266,289,52590,5,6,0:0:0:0:
266,289,54368,6,0,L|334:284,1,55,6|2,0:0|0:0,0:0:0:0:
396,253,54812,2,0,P|406:199|360:145,1,110,8|8,0:0|0:0,0:0:0:0:
307,111,55479,1,2,0:0:0:0:
307,111,55701,2,0,L|237:106,1,55,8|0,0:0|0:0,0:0:0:0:
176,74,56146,6,0,P|201:120|181:195,1,110,2|8,0:0|0:0,0:0:0:0:
122,216,56812,1,0,0:0:0:0:
56,266,57034,2,0,L|62:329,1,55,8|8,0:0|0:0,0:0:0:0:
128,368,57479,1,8,0:0:0:0:
291,343,57923,6,0,L|298:277,1,55,2|2,0:0|0:0,0:0:0:0:
231,237,58368,2,0,L|220:118,1,110,8|8,0:0|0:0,0:0:0:0:
270,61,59034,1,2,0:0:0:0:
270,60,59257,2,0,P|299:59|343:74,1,55,8|0,0:0|0:0,0:0:0:0:
390,113,59701,6,0,B|413:172|376:169|400:232,1,110,2|8,0:0|0:0,0:0:0:0:
444,287,60368,1,0,0:0:0:0:
401,357,60590,2,0,L|335:351,1,55,8|8,0:0|0:0,0:0:0:0:
280,312,61034,1,8,0:0:0:0:
280,312,61257,1,8,0:0:0:0:
239,240,61479,6,0,B|176:245,1,55,14|2,0:0|0:0,0:0:0:0:
126,303,61923,2,0,L|-1:293,1,110,8|8,0:0|0:0,0:0:0:0:
0,214,62590,1,2,0:0:0:0:
13,132,62812,2,0,P|18:102|27:74,1,55,8|0,0:0|0:0,0:0:0:0:
99,42,63257,2,0,L|233:34,1,110,2|8,0:0|0:0,0:0:0:0:
272,88,63923,2,0,B|303:129|303:129|309:205,1,110,0|8,0:0|0:0,0:0:0:0:
310,270,64590,1,8,0:0:0:0:
468,316,65034,6,0,L|473:246,1,55,2|2,0:0|0:0,0:0:0:0:
411,204,65479,1,8,0:0:0:0:
411,204,65701,2,0,B|356:179|356:179|286:192,1,110,0|8,0:0|0:0,0:0:0:0:
233,224,66368,1,8,0:0:0:0:
233,224,66590,1,0,0:0:0:0:
165,73,67034,5,8,0:0:0:0:
165,73,67257,1,8,0:0:0:0:
165,73,67479,2,0,L|293:64,1,110,12|8,0:0|0:0,0:0:0:0:
357,57,68146,1,8,0:0:0:0:
357,57,68368,1,8,0:0:0:0:
413,116,68590,6,0,P|426:150|433:187,1,55,6|2,0:0|0:0,0:0:0:0:
390,240,69034,2,0,P|378:288|377:370,1,110,8|8,0:0|0:0,0:0:0:0:
296,373,69701,1,2,0:0:0:0:
296,373,69923,2,0,L|237:368,1,55,8|0,0:0|0:0,0:0:0:0:
168,328,70368,6,0,P|159:277|177:216,1,110,2|8,0:0|0:0,0:0:0:0:
238,170,71034,1,0,0:0:0:0:
320,175,71257,2,0,L|399:170,1,55,8|8,0:0|0:0,0:0:0:0:
425,106,71701,1,8,0:0:0:0:
270,46,72146,6,0,L|196:39,1,55,2|2,0:0|0:0,0:0:0:0:
144,82,72590,2,0,L|71:86,1,55,8|0,0:0|0:0,0:0:0:0:
34,146,73034,1,8,0:0:0:0:
34,146,73257,1,2,0:0:0:0:
77,216,73479,2,0,L|139:210,1,55,8|0,0:0|0:0,0:0:0:0:
190,269,73923,6,0,L|309:281,1,110,2|8,0:0|0:0,0:0:0:0:
365,229,74590,1,0,0:0:0:0:
441,259,74812,2,0,P|451:290|456:337,1,55,8|8,0:0|0:0,0:0:0:0:
395,370,75257,1,8,0:0:0:0:
395,370,75479,1,8,0:0:0:0:
312,365,75701,6,0,L|242:359,1,55,12|2,0:0|0:0,0:0:0:0:
191,310,76146,2,0,L|122:315,2,55,8|8|8,0:0|0:0|0:0,0:0:0:0:
254,257,76812,2,0,P|250:230|238:192,1,55,2|8,0:0|0:0,0:0:0:0:
183,145,77257,1,12,0:0:0:0:
183,145,77479,6,0,B|236:159|236:159|307:135,1,110,0|8,0:0|0:0,0:0:0:0:
233,79,78146,2,0,B|182:61|182:61|125:81,1,110,0|8,0:0|0:0,0:0:0:0:
67,134,78812,1,8,0:0:0:0:
67,134,79034,1,2,0:0:0:0:
67,134,79257,6,0,L|72:204,1,55,6|2,0:0|0:0,0:0:0:0:
140,233,79701,2,0,L|133:303,1,55,2|2,0:0|0:0,0:0:0:0:
191,348,80146,2,0,P|223:339|270:337,1,55,2|2,0:0|0:0,0:0:0:0:
325,350,80590,1,8,0:0:0:0:
325,350,80812,1,2,0:0:0:0:
403,323,81034,6,0,B|411:267|411:267|396:214,1,110,2|8,0:0|0:0,0:0:0:0:
321,179,81701,1,2,0:0:0:0:
263,119,81923,2,0,P|259:91|267:56,1,55,2|2,0:0|0:0,0:0:0:0:
337,27,82368,1,8,0:0:0:0:
337,27,82590,1,8,0:0:0:0:
337,27,82812,6,0,L|402:23,1,55,12|2,0:0|0:0,0:0:0:0:
411,104,83257,2,0,L|348:108,1,55,2|2,0:0|0:0,0:0:0:0:
293,161,83701,2,0,L|220:155,1,55,2|2,0:0|0:0,0:0:0:0:
164,119,84146,1,8,0:0:0:0:
164,119,84368,1,2,0:0:0:0:
100,171,84590,6,0,L|105:237,1,55,8|2,0:0|0:0,0:0:0:0:
168,277,85034,2,0,L|162:347,1,55,8|2,0:0|0:0,0:0:0:0:
85,359,85479,2,0,L|80:299,1,55,8|2,0:0|0:0,0:0:0:0:
104,225,85923,1,8,0:0:0:0:
104,225,86146,1,8,0:0:0:0:
104,225,86368,6,0,P|153:194|220:213,1,110,12|8,0:0|0:0,0:0:0:0:
272,244,87034,1,0,0:0:0:0:
346,280,87257,2,0,L|423:274,1,55,8|2,0:0|0:0,0:0:0:0:
463,222,87701,2,0,P|461:194|451:153,1,55,8|0,0:0|0:0,0:0:0:0:
412,97,88146,6,0,L|285:87,1,110,2|8,0:0|0:0,0:0:0:0:
235,40,88812,1,2,0:0:0:0:
156,185,89257,2,0,P|152:221|153:258,1,55,8|8,0:0|0:0,0:0:0:0:
196,309,89701,1,0,0:0:0:0:
196,309,89923,6,0,P|143:284|82:303,1,110,6|2,0:0|0:0,0:0:0:0:
29,242,90590,2,0,L|21:120,1,110,8|2,0:0|0:0,0:0:0:0:
65,63,91257,1,8,0:0:0:0:
65,63,91479,2,0,P|108:42|175:49,1,110,12|2,0:0|0:0,0:0:0:0:
244,80,92146,1,8,0:0:0:0:
300,139,92368,2,0,L|296:199,1,55,0|8,0:0|0:0,0:0:0:0:
326,356,93034,1,8,0:0:0:0:
326,356,93257,1,0,0:0:0:0:
326,356,93479,6,0,L|395:351,1,55,2|2,0:0|0:0,0:0:0:0:
414,276,93923,2,0,L|299:268,1,110,8|8,0:0|0:0,0:0:0:0:
232,227,94590,1,2,0:0:0:0:
232,227,94812,2,0,P|230:199|220:158,1,55,8|0,0:0|0:0,0:0:0:0:
164,115,95257,6,0,P|110:108|49:141,1,110,4|8,0:0|0:0,0:0:0:0:
14,198,95923,2,0,L|21:327,1,110,6|0,0:0|0:0,0:0:0:0:
263,351,97034,6,0,B|346:378|341:324|429:347,1,165,2|2,0:0|0:0,0:0:0:0:
501,316,97923,2,0,L|494:199,1,110,2|8,0:0|0:0,0:0:0:0:
444,139,98590,1,2,0:0:0:0:
444,139,98812,2,0,P|410:129|371:124,1,55,6|2,0:0|0:0,0:0:0:0:
314,158,99257,2,0,P|280:168|241:173,1,55,8|0,0:0|0:0,0:0:0:0:
179,157,99701,1,2,0:0:0:0:
99,134,99923,1,2,0:0:0:0:
20,160,100146,1,8,0:0:0:0:
49,322,100590,6,0,P|95:357|161:360,1,110,6|8,0:0|0:0,0:0:0:0:
224,338,101256,2,0,L|234:226,1,110,2|2,0:0|0:0,0:0:0:0:
243,146,101923,1,8,0:0:0:0:
374,47,102367,2,0,P|405:42|450:42,1,55,2|2,0:0|0:0,0:0:0:0:
503,76,102812,1,8,0:0:0:0:
503,76,103034,2,0,L|491:197,1,110,2|2,0:0|0:0,0:0:0:0:
424,233,103701,2,0,L|429:294,1,55,8|0,0:0|0:0,0:0:0:0:
347,302,104145,6,0,L|341:370,1,55,2|0,0:0|0:0,0:0:0:0:
260,367,104590,1,8,0:0:0:0:
260,367,104812,2,0,P|210:345|149:354,1,110,2|2,0:0|0:0,0:0:0:0:
74,358,105478,2,0,L|68:289,1,55,8|0,0:0|0:0,0:0:0:0:
25,232,105923,1,2,0:0:0:0:
24,149,106145,1,2,0:0:0:0:
90,100,106367,1,8,0:0:0:0:
163,138,106590,6,0,P|211:157|279:135,1,110,2|8,0:0|0:0,0:0:0:0:
346,124,107257,1,8,0:0:0:0:
346,124,107479,1,8,0:0:0:0:
346,124,107701,6,0,L|354:236,1,110,12|8,0:0|0:0,0:0:0:0:
435,223,108367,2,0,L|443:104,1,110,2|2,0:0|0:0,0:0:0:0:
451,30,109034,1,8,0:0:0:0:
286,40,109478,2,0,L|217:30,1,55,2|2,0:0|0:0,0:0:0:0:
159,72,109923,1,8,0:0:0:0:
159,72,110145,2,0,P|138:119|152:183,1,110,2|2,0:0|0:0,0:0:0:0:
223,208,110812,2,0,L|228:268,1,55,8|0,0:0|0:0,0:0:0:0:
306,285,111256,6,0,L|300:345,1,55,2|0,0:0|0:0,0:0:0:0:
378,367,111701,1,8,0:0:0:0:
378,367,111923,2,0,P|436:372|494:340,1,110,2|2,0:0|0:0,0:0:0:0:
510,274,112589,2,0,L|502:198,1,55,8|0,0:0|0:0,0:0:0:0:
493,137,113034,1,2,0:0:0:0:
493,137,113256,1,2,0:0:0:0:
329,161,113701,6,0,B|281:176|276:142|215:163,1,110,2|2,0:0|0:0,0:0:0:0:
149,202,114367,2,0,L|146:261,1,55,8|2,0:0|0:0,0:0:0:0:
146,339,114812,1,6,0:0:0:0:
146,339,115034,1,2,0:0:0:0:
10,244,115479,6,0,B|3:128,1,110,6|2,0:0|0:0,0:0:0:0:
45,62,116146,1,8,0:0:0:0:
207,35,116590,1,6,0:0:0:0:
207,35,116812,1,0,0:0:0:0:
352,112,117257,6,0,P|368:156|345:235,1,110,6|2,0:0|0:0,0:0:0:0:
302,279,117924,1,8,0:0:0:0:
139,305,118368,6,0,P|136:329|134:365,2,55,8|8|8,0:0|0:0|0:0,0:0:0:0:
159,225,119034,1,6,0:0:0:0:
274,106,119479,1,6,0:0:0:0:
256,192,119590,12,0,126368,0:0:0:0:
