osu file format v14

[General]
AudioFilename: audio.mp3
AudioLeadIn: 0
PreviewTime: 201824
Countdown: 0
SampleSet: Soft
StackLeniency: 0.7
Mode: 0
LetterboxInBreaks: 0
WidescreenStoryboard: 0

[Editor]
DistanceSpacing: 1.5
BeatDivisor: 12
GridSize: 32
TimelineZoom: 1.4

[Metadata]
Title:Kokoronashi
TitleUnicode:心做し
Artist:majiko
ArtistUnicode:まじ娘
Creator:HowRengar
Version:Agony
Source:
Tags:Japanese Rock contrast piano papiyon
BeatmapID:2711056
BeatmapSetID:1307679

[Difficulty]
HPDrainRate:6.5
CircleSize:5.5
OverallDifficulty:8.8
ApproachRate:9
SliderMultiplier:1.6
SliderTickRate:1

[Events]
//Background and Video events
0,0,"bg.jpg",0,0
//Break Periods
2,197355,201869
//Storyboard Layer 0 (Background)
//Storyboard Layer 1 (Fail)
//Storyboard Layer 2 (Pass)
//Storyboard Layer 3 (Foreground)
//Storyboard Layer 4 (Overlay)
//Storyboard Sound Samples

[TimingPoints]
788,714.285714285714,4,2,1,35,1,0
5073,-166.666666666667,4,2,1,35,0,0
17216,-125,4,2,1,35,0,0
17752,-125,4,2,1,5,0,0
17930,-125,4,2,1,35,0,0
20787,-166.666666666667,4,2,1,35,0,0
21859,-500.000000000003,4,2,1,35,0,0
22841,-500.000000000003,4,2,1,5,0,0
22930,-133.333333333333,4,2,1,35,0,0
23198,-133.333333333333,4,2,1,5,0,0
23287,-100,4,2,1,45,0,0
23377,-100,4,2,1,5,0,0
23466,-83.3333333333333,4,2,1,55,0,0
23555,-83.3333333333333,4,2,1,5,0,0
23645,-43.4782608695652,4,2,1,60,0,0
24359,-55.5555555555556,4,2,1,60,0,0
28912,-55.5555555555556,4,2,1,5,0,0
29002,-76.9230769230769,4,2,1,60,0,0
29270,-76.9230769230769,4,2,1,5,0,0
29359,-55.5555555555556,4,2,1,60,0,0
34716,-100,4,2,1,60,0,0
34984,-100,4,2,1,5,0,0
35073,-55.5555555555556,4,2,1,60,0,0
39359,-45.4545454545455,4,2,1,60,0,0
39627,-45.4545454545455,4,2,1,5,0,0
39716,-55.5555555555556,4,2,1,60,0,0
39984,-55.5555555555556,4,2,1,5,0,0
40073,-71.4285714285714,4,2,1,60,0,0
40341,-71.4285714285714,4,2,1,5,0,0
40430,-166.666666666667,4,2,1,60,0,0
40698,-166.666666666667,4,2,1,5,0,0
40787,-45.4545454545455,4,2,1,60,0,0
41502,-55.5555555555556,4,2,1,60,0,0
46145,-166.666666666667,4,2,1,60,0,0
46412,-166.666666666667,4,2,1,5,0,0
46502,-100,4,2,1,40,0,0
46770,-100,4,2,1,5,0,0
46859,-100,4,2,1,40,0,0
50252,-71.4285714285714,4,2,1,40,0,0
50609,-50,4,2,1,40,0,0
51145,-66.6666666666667,4,2,1,40,0,0
52484,-66.6666666666667,4,2,1,5,0,0
52573,-66.6666666666667,4,2,1,40,0,0
55966,-52.6315789473684,4,2,1,40,0,0
56234,-52.6315789473684,4,2,1,5,0,0
56323,-52.6315789473684,4,2,1,40,0,0
56502,-52.6315789473684,4,2,1,40,0,0
57573,-250,4,2,1,40,0,0
57841,-250,4,2,1,5,0,0
57930,-66.6666666666667,4,2,1,40,0,0
58198,-66.6666666666667,4,2,1,5,0,0
58287,-66.6666666666667,4,2,1,40,0,0
58645,-45.4545454545455,4,2,1,40,0,0
59002,-55.5555555555556,4,2,1,40,0,0
59359,-71.4285714285714,4,2,1,40,0,0
60073,-58.8235294117647,4,2,1,40,0,0
61055,-58.8235294117647,4,2,1,5,0,0
61145,-58.8235294117647,4,2,1,40,0,0
62841,-58.8235294117647,4,2,1,5,0,0
62930,-58.8235294117647,4,2,1,40,0,0
63912,-58.8235294117647,4,2,1,5,0,0
64002,-58.8235294117647,4,2,1,40,0,0
65073,-76.9230769230769,4,2,1,40,0,0
68198,-76.9230769230769,4,2,1,5,0,0
68287,-76.9230769230769,4,2,1,40,0,0
69359,-50,4,2,1,50,0,0
69627,-50,4,2,1,5,0,0
69716,-50,4,2,1,50,0,0
71502,-66.6666666666667,4,2,1,50,0,0
71859,-55.5555555555556,4,2,1,50,0,0
72216,-47.6190476190476,4,2,1,50,0,0
72573,-41.6666666666667,4,2,1,50,0,0
72930,-37.037037037037,4,2,1,50,0,0
73287,-66.6666666666667,4,2,1,50,0,0
74002,-200,4,2,1,50,0,0
74270,-200,4,2,1,5,0,0
74359,-66.6666666666667,4,2,1,50,0,0
74627,-66.6666666666667,4,2,1,5,0,0
74716,-100,4,2,1,50,0,0
74984,-100,4,2,1,5,0,0
75073,-62.5,4,2,1,50,0,0
79359,-62.5,4,2,1,5,0,0
79716,-62.5,4,2,1,50,0,0
80073,-333.333333333333,4,2,1,50,0,0
80698,-333.333333333333,4,2,1,5,0,0
80787,-43.4782608695652,4,2,1,60,0,1
81055,-43.4782608695652,4,2,1,5,0,1
81145,-43.4782608695652,4,2,1,60,0,1
82841,-43.4782608695652,4,2,1,5,0,1
82930,-52.6315789473684,4,2,1,60,0,1
83287,-66.6666666666667,4,2,1,60,0,1
83645,-45.4545454545455,4,2,1,60,0,1
85341,-45.4545454545455,4,2,1,5,0,1
85430,-45.4545454545455,4,2,1,60,0,1
86145,-76.9230769230769,4,2,1,60,0,1
86412,-76.9230769230769,4,2,1,5,0,1
86502,-40,4,2,1,60,0,1
86770,-40,4,2,1,5,0,1
86859,-40,4,2,1,60,0,1
88198,-40,4,2,1,5,0,1
88287,-40,4,2,1,60,0,1
91770,-40,4,2,1,5,0,1
91859,-200,4,2,1,60,0,1
92127,-200,4,2,1,5,0,1
92216,-43.4782608695652,4,2,1,60,0,1
92484,-43.4782608695652,4,2,1,5,0,1
92573,-43.4782608695652,4,2,1,60,0,1
93198,-43.4782608695652,4,2,1,5,0,1
93287,-43.4782608695652,4,2,1,60,0,1
93912,-43.4782608695652,4,2,1,5,0,1
94002,-43.4782608695652,4,2,1,60,0,1
94359,-52.6315789473684,4,2,1,60,0,1
94716,-66.6666666666667,4,2,1,60,0,1
94984,-66.6666666666667,4,2,1,5,0,1
95073,-43.4782608695652,4,2,1,60,0,1
95341,-43.4782608695652,4,2,1,5,0,1
95430,-43.4782608695652,4,2,1,60,0,1
96770,-43.4782608695652,4,2,1,5,0,1
96859,-43.4782608695652,4,2,1,60,0,1
97573,-142.857142857143,4,2,1,60,0,1
97841,-142.857142857143,4,2,1,5,0,1
97930,-43.4782608695652,4,2,1,60,0,1
98198,-43.4782608695652,4,2,1,5,0,1
98287,-43.4782608695652,4,2,1,60,0,1
99627,-43.4782608695652,4,2,1,5,0,1
99716,-43.4782608695652,4,2,1,60,0,1
99984,-43.4782608695652,4,2,1,5,0,1
100073,-43.4782608695652,4,2,1,60,0,1
100430,-100,4,2,1,60,0,1
100698,-100,4,2,1,5,0,1
100787,-38.4615384615385,4,2,1,60,0,1
101055,-38.4615384615385,4,2,1,5,0,1
101145,-38.4615384615385,4,2,1,60,0,1
102930,-125,4,2,1,60,0,1
103287,-333.333333333333,4,2,1,60,0,1
103555,-333.333333333333,4,2,1,5,0,1
103645,-142.857142857143,4,2,1,40,0,0
114180,-142.857142857143,4,2,1,50,0,0
114716,-333.333333333333,4,2,1,50,0,0
114984,-333.333333333333,4,2,1,5,0,0
115073,-76.9230769230769,4,2,1,50,0,0
115341,-76.9230769230769,4,2,1,5,0,0
115430,-76.9230769230769,4,2,1,50,0,0
118823,-58.8235294117647,4,2,1,50,0,0
119359,-47.6190476190476,4,2,1,50,0,0
119627,-47.6190476190476,4,2,1,5,0,0
119716,-47.6190476190476,4,2,1,50,0,0
120430,-200,4,2,1,50,0,0
120698,-200,4,2,1,5,0,0
120787,-66.6666666666667,4,2,1,50,0,0
121055,-66.6666666666667,4,2,1,5,0,0
121145,-66.6666666666667,4,2,1,50,0,0
122484,-66.6666666666667,4,2,1,5,0,0
122573,-66.6666666666667,4,2,1,50,0,0
124537,-52.6315789473684,4,2,1,50,0,0
125341,-52.6315789473684,4,2,1,5,0,0
125430,-52.6315789473684,4,2,1,50,0,0
125787,-47.6190476190476,4,2,1,50,0,0
125832,-47.6190476190476,4,2,1,5,0,0
126055,-62.5,4,2,1,50,0,0
126100,-62.5,4,2,1,5,0,0
126323,-90.9090909090909,4,2,1,50,0,0
126368,-90.9090909090909,4,2,1,5,0,0
126502,-55.5555555555556,4,2,1,50,0,0
126770,-55.5555555555556,4,2,1,5,0,0
126859,-55.5555555555556,4,2,1,50,0,0
131145,-45.4545454545455,4,2,1,50,0,0
131412,-45.4545454545455,4,2,1,5,0,0
131502,-45.4545454545455,4,2,1,50,0,0
132216,-62.5,4,2,1,50,0,0
132484,-62.5,4,2,1,5,0,0
132573,-62.5,4,2,1,50,0,0
133912,-62.5,4,2,1,5,0,0
134002,-62.5,4,2,1,50,0,0
135341,-62.5,4,2,1,5,0,0
135430,-62.5,4,2,1,50,0,0
137127,-62.5,4,2,1,5,0,0
137216,-62.5,4,2,1,50,0,0
137395,-200,4,2,1,50,0,0
139895,-100,4,2,1,50,0,0
140430,-333.333333333333,4,2,1,50,0,0
140698,-333.333333333333,4,2,1,5,0,0
140787,-43.4782608695652,4,2,1,60,0,1
143198,-43.4782608695652,4,2,1,5,0,1
143287,-43.4782608695652,4,2,1,60,0,1
144984,-43.4782608695652,4,2,1,5,0,1
145073,-43.4782608695652,4,2,1,60,0,1
146055,-43.4782608695652,4,2,1,5,0,1
146145,-66.6666666666667,4,2,1,60,0,1
146412,-66.6666666666667,4,2,1,5,0,1
146502,-50,4,2,1,60,0,1
149002,-62.5,4,2,1,60,0,1
151859,-142.857142857143,4,2,1,60,0,1
152127,-142.857142857143,4,2,1,5,0,1
152216,-43.4782608695652,4,2,1,60,0,1
154002,-37.037037037037,4,2,1,60,0,1
154359,-32.258064516129,4,2,1,60,0,1
154716,-28.5714285714286,4,2,1,60,0,1
155430,-25.6410256410256,4,2,1,60,0,1
155787,-25,4,2,1,60,0,1
156145,-33.3333333333333,4,2,1,60,0,1
156502,-45.4545454545455,4,2,1,60,0,1
156770,-45.4545454545455,4,2,1,5,0,1
156859,-45.4545454545455,4,2,1,60,0,1
157573,-83.3333333333333,4,2,1,60,0,1
157841,-83.3333333333333,4,2,1,5,0,1
157930,-47.6190476190476,4,2,1,60,0,1
158198,-47.6190476190476,4,2,1,5,0,1
158287,-47.6190476190476,4,2,1,60,0,1
159359,-71.4285714285714,4,2,1,60,0,1
159627,-71.4285714285714,4,2,1,5,0,1
159716,-50,4,2,1,60,0,1
159984,-50,4,2,1,5,0,1
160073,-41.6666666666667,4,2,1,60,0,1
160341,-41.6666666666667,4,2,1,5,0,1
160430,-50,4,2,1,60,0,1
160698,-50,4,2,1,5,0,1
160787,-50,4,2,1,60,0,1
163287,-90.9090909090909,4,2,1,60,0,1
163555,-90.9090909090909,4,2,1,5,0,1
163645,-50,4,2,1,40,0,0
163912,-50,4,2,1,5,0,0
164002,-66.6666666666667,4,2,1,40,0,0
165341,-66.6666666666667,4,2,1,5,0,0
165430,-66.6666666666667,4,2,1,40,0,0
166412,-66.6666666666667,4,2,1,5,0,0
166502,-66.6666666666667,4,2,1,40,0,0
166859,-50,4,2,1,40,0,0
167216,-40,4,2,1,40,0,0
167930,-66.6666666666667,4,2,1,40,0,0
168198,-66.6666666666667,4,2,1,5,0,0
168287,-66.6666666666667,4,2,1,40,0,0
168823,-142.857142857143,4,2,1,40,0,0
169359,-66.6666666666667,4,2,1,40,0,0
170341,-66.6666666666667,4,2,1,5,0,0
170430,-66.6666666666667,4,2,1,40,0,0
172216,794.701986754967,4,2,1,40,1,0
173010,674.157303370787,4,2,1,40,1,0
173347,779.220779220779,4,2,1,40,1,0
173395,-100,4,2,1,5,0,0
173736,625,4,2,1,40,1,0
174048,722.89156626506,4,2,1,40,1,0
174048,-333.333333333333,4,2,1,40,0,0
174319,-333.333333333333,4,2,1,5,0,0
174409,759.493670886076,4,2,1,40,1,0
174409,-200,4,2,1,40,0,0
175073,-200,4,2,1,5,0,0
175168,731.707317073171,4,2,1,30,1,0
175902,722.89156626506,4,2,1,30,1,0
176624,731.707317073171,4,2,1,30,1,0
177355,-200,4,2,1,30,0,0
180282,-142.857142857143,4,2,1,30,0,0
180831,-142.857142857143,4,2,1,5,0,0
181014,-142.857142857143,4,2,1,30,0,0
186684,-142.857142857143,4,2,1,5,0,0
186867,-142.857142857143,4,2,1,30,0,0
192538,-142.857142857143,4,2,1,5,0,0
192721,-142.857142857143,4,2,1,30,0,0
193453,-1000,4,2,1,30,0,0
194184,-1000,4,2,1,5,0,0
195648,952.380952380952,4,2,1,30,1,0
196124,821.917808219178,4,2,1,30,1,0
196534,821.917808219178,4,2,1,30,1,0
197355,820.793433652531,4,2,1,30,1,0
201869,705.882352941176,4,2,1,30,1,0
202221,705.882352941176,4,2,1,30,1,0
202930,714.285714285714,4,2,1,50,1,0
202930,-33.3333333333333,4,2,1,60,0,1
203197,-33.3333333333333,4,2,1,5,0,1
203287,-40,4,2,1,60,0,1
204983,-40,4,2,1,5,0,1
205072,-50,4,2,1,60,0,1
205340,-50,4,2,1,5,0,1
205430,-66.6666666666667,4,2,1,60,0,1
205697,-66.6666666666667,4,2,1,5,0,1
205787,-40,4,2,1,60,0,1
207572,-66.6666666666667,4,2,1,60,0,1
207840,-66.6666666666667,4,2,1,5,0,1
207930,-66.6666666666667,4,2,1,60,0,1
208108,-200,4,2,1,60,0,1
208644,-35.7142857142857,4,2,1,60,0,1
208912,-35.7142857142857,4,2,1,5,0,1
209001,-40,4,2,1,60,0,1
210697,-40,4,2,1,5,0,1
210787,-40,4,2,1,60,0,1
214626,-40,4,2,1,5,0,1
214715,-40,4,2,1,60,0,1
216501,-58.8235294117647,4,2,1,60,0,1
216858,-100,4,2,1,60,0,1
217126,-100,4,2,1,5,0,1
217215,-40,4,2,1,60,0,1
217483,-40,4,2,1,5,0,1
217572,-40,4,2,1,60,0,1
218912,-40,4,2,1,5,0,1
219001,-40,4,2,1,60,0,1
219715,-200,4,2,1,60,0,1
219983,-200,4,2,1,5,0,1
220072,-40,4,2,1,60,0,1
220340,-40,4,2,1,5,0,1
220430,-40,4,2,1,60,0,1
221769,-40,4,2,1,5,0,1
221858,-40,4,2,1,60,0,1
222126,-40,4,2,1,5,0,1
222215,-40,4,2,1,60,0,1
222572,-100,4,2,1,60,0,1
222840,-100,4,2,1,5,0,1
222930,-40,4,2,1,60,0,1
223197,-40,4,2,1,5,0,1
223287,-40,4,2,1,60,0,1
224715,-125,4,2,1,60,0,1
224983,-125,4,2,1,5,0,1
225072,-66.6666666666667,4,2,1,62,0,0
225162,-66.6666666666667,4,2,1,5,0,0
225251,-50,4,2,1,64,0,0
225340,-50,4,2,1,5,0,0
225430,-40,4,2,1,66,0,0
225519,-40,4,2,1,5,0,0
225608,-33.3333333333333,4,2,1,68,0,0
225697,-33.3333333333333,4,2,1,5,0,0
225764,714.285714285714,4,2,2,5,1,1
225764,-38.4615384615385,4,2,2,70,0,1
229424,-38.4615384615385,4,2,2,5,0,1
229514,-38.4615384615385,4,2,2,70,0,1
229603,-38.4615384615385,4,2,2,5,0,1
229693,-38.4615384615385,4,2,2,70,0,1
229782,-38.4615384615385,4,2,2,5,0,1
229872,-38.4615384615385,4,2,2,70,0,1
229960,-38.4615384615385,4,2,2,5,0,1
230050,-38.4615384615385,4,2,2,70,0,1
231924,-38.4615384615385,4,2,2,5,0,1
232014,-38.4615384615385,4,2,2,70,0,1
232103,-38.4615384615385,4,2,2,5,0,1
232193,-38.4615384615385,4,2,2,70,0,1
232996,-38.4615384615385,4,2,2,5,0,1
233086,-38.4615384615385,4,2,2,70,0,1
233174,-38.4615384615385,4,2,2,5,0,1
233264,-45.4545454545455,4,2,2,70,0,1
233353,-45.4545454545455,4,2,2,5,0,1
233442,-45.4545454545455,4,2,2,70,0,1
233532,-45.4545454545455,4,2,2,5,0,1
233621,-55.5555555555556,4,2,2,70,0,1
233710,-55.5555555555556,4,2,2,5,0,1
233799,-55.5555555555556,4,2,2,70,0,1
233889,-55.5555555555556,4,2,2,5,0,1
233978,-71.4285714285714,4,2,2,70,0,1
234067,-71.4285714285714,4,2,2,5,0,1
234157,-71.4285714285714,4,2,2,70,0,1
234246,-71.4285714285714,4,2,2,5,0,1
234335,-83.3333333333333,4,2,2,70,0,1
234424,-83.3333333333333,4,2,2,5,0,1
234514,-83.3333333333333,4,2,2,70,0,1
234603,-83.3333333333333,4,2,2,5,0,1
234692,-100,4,2,2,70,0,1
234782,-100,4,2,2,5,0,1
234871,-100,4,2,2,70,0,1
234960,-100,4,2,2,5,0,1
235049,-125,4,2,2,70,0,1
235139,-125,4,2,2,5,0,1
235228,-125,4,2,2,70,0,1
235317,-125,4,2,2,5,0,1
235407,-166.666666666667,4,2,2,70,0,1
235496,-166.666666666667,4,2,2,5,0,1
235585,-166.666666666667,4,2,2,70,0,1
235674,-166.666666666667,4,2,2,5,0,1
235764,-166.666666666667,4,2,2,70,0,1
236478,-50,4,2,2,70,0,1
237460,-50,4,2,2,5,0,1
237549,-50,4,2,2,70,0,1
237594,-50,4,2,2,5,0,1
237728,-50,4,2,2,70,0,1
237773,-50,4,2,2,5,0,1
237907,-40,4,2,2,70,0,1
238442,-66.6666666666667,4,2,2,70,0,1
238487,-66.6666666666667,4,2,2,5,0,1
238621,-40,4,2,2,70,0,1
241880,-40,4,2,2,5,0,1
242192,-35.7142857142857,4,2,2,70,0,1
242907,-43.4782608695652,4,2,2,70,0,1
243621,-35.7142857142857,4,2,2,70,0,1
244782,-35.7142857142857,4,2,2,5,0,1
245049,-35.7142857142857,4,2,2,70,0,1
248174,-35.7142857142857,4,2,2,5,0,1
248264,-28.5714285714286,4,2,2,70,0,1
248531,-28.5714285714286,4,2,2,5,0,1
248621,-166.666666666667,4,2,1,40,0,0
265585,-166.666666666667,4,2,1,5,0,0
265764,-166.666666666667,4,2,1,40,0,0
269871,-166.666666666667,4,2,1,5,0,0

[Colours]
Combo1 : 237,194,107
Combo2 : 235,176,112
Combo3 : 231,206,109
Combo4 : 46,63,122
Combo5 : 67,88,143
Combo6 : 89,105,181
Combo7 : 146,166,193
Combo8 : 226,166,84

[HitObjects]
30,237,788,37,2,0:0:0:0:
115,262,1145,1,0,0:0:0:0:
157,206,1502,1,0,0:0:0:0:
210,384,2216,5,2,0:0:0:0:
183,297,2573,1,0,0:0:0:0:
255,323,2930,1,0,0:0:0:0:
334,207,3645,5,2,0:0:0:0:
286,135,4002,1,0,0:0:0:0:
347,86,4359,1,0,0:0:0:0:
299,14,4716,1,0,0:0:0:0:
170,79,5073,6,0,L|218:84,1,47.9999985351563,2|0,0:0|0:0,0:0:0:0:
286,135,5787,1,2,0:0:0:0:
241,195,6145,1,2,0:0:0:0:
399,270,6502,69,2,0:0:0:0:
467,206,6859,1,0,0:0:0:0:
429,145,7216,1,0,0:0:0:0:
508,19,7930,5,2,0:0:0:0:
430,66,8287,1,0,0:0:0:0:
496,98,8645,1,0,0:0:0:0:
392,208,9359,5,2,0:0:0:0:
328,172,9716,1,0,0:0:0:0:
248,210,10073,1,0,0:0:0:0:
250,318,10430,1,0,0:0:0:0:
390,380,10787,6,0,L|383:325,1,47.9999985351563,2|0,0:0|0:0,0:0:0:0:
320,263,11502,1,2,0:0:0:0:
250,318,11859,1,2,0:0:0:0:
139,284,12216,69,2,0:0:0:0:
64,321,12573,1,0,0:0:0:0:
150,208,12930,1,2,0:0:0:0:
114,135,13287,1,0,0:0:0:0:
143,39,13645,5,2,0:0:0:0:
85,0,14002,1,2,0:0:0:0:
1,56,14359,1,0,0:0:0:0:
59,95,14716,1,0,0:0:0:0:
215,100,15073,6,0,L|262:94,1,47.9999985351563,2|0,0:0|0:0,0:0:0:0:
324,130,15787,1,0,0:0:0:0:
404,116,16145,1,0,0:0:0:0:
444,0,16502,6,0,L|450:50,1,47.9999985351563,2|0,0:0|0:0,0:0:0:0:
496,129,17216,2,0,L|484:224,1,96,2|0,0:0|0:0,0:0:0:0:
476,287,17930,69,2,0:0:0:0:
419,352,18287,1,0,0:0:0:0:
485,384,18645,1,0,0:0:0:0:
320,305,19359,5,2,0:0:0:0:
256,360,19716,1,0,0:0:0:0:
191,325,20073,1,0,0:0:0:0:
58,383,20787,6,0,L|68:336,1,47.9999985351563,2|0,0:0|0:0,0:0:0:0:
90,259,21502,1,0,0:0:0:0:
181,155,21859,6,0,L|190:198,1,44,2|0,0:0|0:0,0:0:0:0:
196,204,22930,70,0,P|217:211|239:210,1,45.0000017166138,2|0,0:0|0:0,0:0:0:0:
246,217,23287,54,0,P|251:203|256:184,1,20,2|0,0:0|0:0,0:0:0:0:
314,148,23466,2,0,P|309:136|306:125,1,23.9999992675781,2|0,0:0|0:0,0:0:0:0:
225,7,23645,38,0,B|179:-6|157:55|201:113|305:38,1,184.000003509522,6|0,1:0|0:0,0:0:0:0:
454,62,24359,2,0,B|462:28|429:29|428:0|428:0|403:19|378:0|365:28,1,143.999995605469,8|0,0:1|0:0,0:0:0:0:
386,106,24895,1,0,1:0:0:0:
462,151,25073,2,0,P|478:185|464:225,1,71.9999978027344,0|0,1:0|0:0,0:0:0:0:
349,256,25430,2,0,P|333:290|347:330,1,71.9999978027344,0|0,1:0|0:0,0:0:0:0:
442,357,25787,2,0,B|475:354|484:323|484:323|462:279|412:299,1,143.999995605469,8|2,0:1|0:0,0:0:0:0:
181,384,26502,70,0,P|175:313|174:240,1,143.999995605469,2|0,1:0|0:0,0:0:0:0:
237,41,27216,2,0,P|204:99|137:87,1,143.999995605469,10|0,0:1|0:0,0:0:0:0:
72,21,27752,1,0,1:0:0:0:
13,93,27930,2,0,P|9:128|6:164,1,71.9999978027344,2|0,1:0|0:0,0:0:0:0:
94,205,28287,2,0,P|97:240|100:276,1,71.9999978027344,0|0,1:0|0:0,0:0:0:0:
0,384,28645,2,0,B|-32:343|49:318|66:366,1,107.999996704102,10|0,0:1|0:0,0:0:0:0:
67,364,29002,2,0,P|104:372|152:350,1,77.9999964294435,0|0,1:0|0:0,0:0:0:0:
204,381,29359,6,0,B|171:406|142:348|208:351|223:333|214:278,1,143.999995605469,6|0,1:0|0:0,0:0:0:0:
108,124,30073,2,0,P|174:139|223:88,1,143.999995605469,8|0,0:1|0:0,0:0:0:0:
221,0,30609,1,0,1:0:0:0:
304,45,30787,2,0,B|337:42|335:15|337:42|371:38,1,71.9999978027344,2|0,1:0|0:0,0:0:0:0:
499,99,31145,2,0,B|465:101|467:128|465:101|431:105,1,71.9999978027344,0|0,1:0|0:0,0:0:0:0:
287,187,31502,2,0,B|296:208|327:212|327:212|367:176|344:122,1,143.999995605469,8|0,0:1|0:0,0:0:0:0:
304,45,32037,1,0,0:0:0:0:
174,98,32216,102,0,B|117:119|120:68|63:94|63:94|84:97|101:114,1,143.999995605469,2|0,1:0|0:0,0:0:0:0:
167,265,32930,2,0,B|196:229|178:183|178:183|146:192|121:182,1,143.999995605469,8|0,0:1|0:0,0:0:0:0:
89,104,33466,1,0,1:0:0:0:
30,169,33645,1,0,1:0:0:0:
122,349,33823,1,8,0:1:0:0:
47,313,34002,2,0,L|66:243,1,71.9999978027344,0|0,1:0|0:0,0:0:0:0:
129,22,34359,1,14,0:1:0:0:
342,221,34716,6,0,L|283:211,1,60,0|0,1:0|0:0,0:0:0:0:
349,228,35073,6,0,P|416:215|443:151,1,143.999995605469,6|0,1:0|0:0,0:0:0:0:
425,76,35609,1,0,0:0:0:0:
233,0,35787,2,0,P|237:71|243:143,1,143.999995605469,8|0,0:1|0:0,0:0:0:0:
283,211,36323,1,0,1:0:0:0:
150,264,36502,2,0,P|184:254|217:265,1,71.9999978027344,0|0,1:0|0:0,0:0:0:0:
274,344,36859,2,0,P|308:353|341:342,1,71.9999978027344,0|0,1:0|0:0,0:0:0:0:
402,193,37216,2,0,B|375:219|375:258|375:258|409:271|425:306,1,143.999995605469,10|0,0:1|0:0,0:0:0:0:
410,384,37752,1,0,0:0:0:0:
274,344,37930,86,0,B|232:342|208:371|208:371|201:335|163:320,1,143.999995605469,2|0,1:0|0:0,0:0:0:0:
0,355,38645,2,0,B|35:337|52:306|52:306|47:274|19:244,1,143.999995605469,8|2,0:1|0:0,0:0:0:0:
0,117,39180,1,0,1:0:0:0:
124,166,39359,6,0,B|188:145|176:79|176:79|163:93,1,132.00000402832,2|0,1:0|0:0,0:0:0:0:
170,103,39716,2,0,B|228:121|218:70|277:81,1,107.999996704102,2|0,1:0|0:0,0:0:0:0:
277,87,40073,6,0,P|281:48|325:36,1,83.9999974365235,10|0,0:1|0:0,0:0:0:0:
326,41,40430,86,0,L|336:75,1,35.9999989013672,2|0,1:0|0:0,0:0:0:0:
406,111,40787,6,0,B|453:143|470:85|423:44|335:87,1,176.000005371094,6|0,1:0|0:0,0:0:0:0:
203,179,41502,2,0,P|215:249|224:321,1,143.999995605469,8|0,0:1|0:0,0:0:0:0:
346,384,42037,1,0,1:0:0:0:
473,350,42216,2,0,B|463:357|439:362|439:362|419:349|411:338,1,71.9999978027344,2|0,1:0|0:0,0:0:0:0:
297,236,42573,2,0,B|287:228|263:223|263:223|243:236|235:247,1,71.9999978027344,0|0,1:0|0:0,0:0:0:0:
182,363,42930,2,0,B|196:322|186:287|161:296|155:259|161:226,1,143.999995605469,8|0,0:1|0:0,0:0:0:0:
308,30,43645,6,0,P|237:44|165:50,1,143.999995605469,6|0,1:0|0:0,0:0:0:0:
84,10,44180,1,0,0:0:0:0:
14,168,44359,1,8,0:1:0:0:
95,208,44537,1,0,0:0:0:0:
90,109,44716,1,4,0:0:0:0:
20,268,44895,85,0,1:0:0:0:
20,268,45073,1,0,1:0:0:0:
179,338,45252,1,8,0:1:0:0:
99,374,45430,2,0,L|97:302,1,71.9999978027344,2|0,1:0|0:0,0:0:0:0:
90,109,45787,1,10,0:1:0:0:
477,272,46145,6,0,P|480:289|483:307,1,35.9999989013672,8|0,0:3|0:0,0:0:0:0:
470,265,46502,38,0,P|440:261|410:259,1,60,6|0,1:0|0:0,0:0:0:0:
403,252,46859,2,0,P|383:258|364:263,1,40,2|0,0:0|0:0,0:0:0:0:
301,305,47216,2,0,P|292:287|289:267,1,40,10|0,0:1|0:0,0:0:0:0:
327,201,47573,2,0,P|329:181|330:161,1,40,2|0,0:0|0:0,0:0:0:0:
289,100,47930,5,0,1:0:0:0:
204,129,48287,1,0,1:0:0:0:
93,47,48645,1,8,0:1:0:0:
8,76,49002,5,2,0:0:0:0:
70,127,49180,1,2,0:0:0:0:
16,192,49359,6,0,P|19:232|22:272,1,80,2|0,1:0|0:0,0:0:0:0:
12,358,49895,2,0,P|31:359|51:353,1,40,2|8,0:0|0:1,0:0:0:0:
109,287,50252,2,0,P|135:280|165:287,1,55.9999982910157,2|0,0:0|0:0,0:0:0:0:
269,384,50609,2,0,B|295:345|281:306|254:314|238:273|259:234,1,160,2|0,0:0|0:0,0:0:0:0:
315,167,51145,2,0,P|340:181|370:187,1,60.0000022888184,2|0,1:0|0:0,0:0:0:0:
508,119,51502,1,10,0:1:0:0:
436,65,51680,1,2,0:0:0:0:
438,152,51859,2,0,P|445:181|450:214,1,60.0000022888184,2|0,0:0|0:0,0:0:0:0:
495,326,52216,70,0,P|465:295|422:300,1,90.0000034332277,0|0,1:0|0:0,0:0:0:0:
415,307,52573,1,2,0:0:0:0:
338,279,52752,1,2,0:0:0:0:
238,325,52930,2,0,L|247:386,1,60.0000022888184,10|0,0:1|0:0,0:0:0:0:
345,272,53287,2,0,L|336:212,1,60.0000022888184,2|0,0:0|0:0,0:0:0:0:
313,117,53645,5,0,1:0:0:0:
410,149,54002,1,0,1:0:0:0:
512,37,54359,1,8,0:1:0:0:
391,57,54716,5,2,0:0:0:0:
294,25,54895,1,2,0:0:0:0:
230,74,55073,2,0,P|170:67|110:59,1,120.000004577637,2|0,1:0|0:0,0:0:0:0:
14,12,55609,2,0,P|22:40|27:70,1,60.0000022888184,2|8,0:0|0:1,0:0:0:0:
82,141,55966,2,0,P|65:195|52:250,1,113.999996955872,2|0,0:0|0:0,0:0:0:0:
59,257,56323,1,2,0:0:0:0:
155,380,56502,5,0,1:0:0:0:
75,340,56680,1,2,0:0:0:0:
167,276,56859,2,0,P|204:279|242:286,1,75.9999979705811,2|0,1:0|0:0,0:0:0:0:
409,347,57216,1,10,0:1:0:0:
348,263,57395,1,2,1:0:0:0:
454,226,57573,70,0,L|449:255,1,24,2|0,0:0|0:0,0:0:0:0:
461,219,57930,6,0,B|479:180|442:171|455:131,1,90.0000034332277,0|0,1:0|0:0,0:0:0:0:
461,125,58287,2,0,P|471:97|469:67,1,60.0000022888184,2|0,0:0|0:0,0:0:0:0:
291,160,58645,6,0,B|269:170|254:188|254:188|266:169|268:149,1,88.000002685547,10|0,0:1|0:0,0:0:0:0:
358,71,59002,2,0,B|374:81|392:84|392:84|374:84|359:90,1,71.9999978027344,2|0,0:0|0:0,0:0:0:0:
250,48,59359,2,0,B|251:32|245:19|245:19|252:31|262:39,1,55.9999982910157,2|0,1:0|0:0,0:0:0:0:
296,93,59716,1,2,1:0:0:0:
182,142,60073,2,0,B|166:146|148:149|148:149|133:144|120:130,1,68.0000012969971,10|0,0:1|0:0,0:0:0:0:
78,45,60430,2,0,B|62:40|44:38|44:38|29:42|16:56,1,68.0000012969971,2|8,0:0|0:0,0:0:0:0:
11,61,60698,1,8,0:0:0:0:
6,66,60787,6,0,P|18:115|26:165,1,102.000001945496,2|0,1:0|0:0,0:0:0:0:
33,172,61145,1,2,0:0:0:0:
176,237,61323,2,0,P|149:217|115:216,1,68.0000012969971,2|8,0:0|0:1,0:0:0:0:
28,259,61680,1,2,0:0:0:0:
128,290,61859,1,2,0:0:0:0:
122,295,62216,70,0,P|123:329|128:363,1,68.0000012969971,0|0,1:0|0:0,0:0:0:0:
258,383,62573,2,0,P|267:333|270:282,1,102.000001945496,2|0,1:0|0:0,0:0:0:0:
263,275,62930,1,10,0:1:0:0:
399,329,63109,1,2,0:0:0:0:
481,281,63287,1,2,1:0:0:0:
488,288,63645,6,0,P|474:239|479:188,1,102.000001945496,0|0,1:0|0:0,0:0:0:0:
486,180,64002,2,0,P|493:148|487:114,1,68.0000012969971,2|0,0:0|0:0,0:0:0:0:
303,104,64359,2,0,P|329:161|390:146,1,136.000002593994,10|2,0:1|0:0,0:0:0:0:
408,46,64895,5,8,0:0:0:0:
403,41,64984,1,8,0:0:0:0:
398,36,65073,2,0,P|372:31|346:28,1,51.999997619629,2|0,1:0|0:0,0:0:0:0:
259,0,65430,2,0,P|233:4|207:7,1,51.999997619629,2|0,1:0|0:0,0:0:0:0:
58,26,65787,2,0,P|106:19|129:63,1,103.999995239258,10|0,0:1|0:0,0:0:0:0:
126,166,66323,5,8,0:0:0:0:
131,171,66412,1,8,0:0:0:0:
135,176,66501,2,0,P|186:185|246:167,1,103.999995239258,0|0,1:0|0:0,0:0:0:0:
416,204,67216,2,0,P|390:198|365:203,1,51.999997619629,8|0,0:1|0:0,0:0:0:0:
289,237,67573,1,0,1:0:0:0:
423,197,67752,1,8,0:1:0:0:
391,284,67930,70,0,P|388:322|389:361,1,77.9999964294435
396,368,68287,1,2,1:0:0:0:
384,277,68466,1,0,0:0:0:0:
504,221,68645,1,10,0:1:0:0:
183,132,69002,1,6,0:3:0:0:
416,18,69359,6,0,B|425:10|464:50|402:78|407:22|345:40,1,120,4|0,1:0|0:0,0:0:0:0:
339,46,69716,2,0,P|308:66|278:43,1,80,2|0,0:0|0:0,0:0:0:0:
183,132,70073,2,0,P|212:108|244:129,1,80,10|0,0:1|0:0,0:0:0:0:
301,192,70430,2,0,P|284:227|279:267,1,80,2|0,0:0|0:0,0:0:0:0:
364,332,70787,6,0,B|407:303|380:247|313:249|285:275,1,160,0|2,1:0|1:0,0:0:0:0:
81,349,71502,6,0,B|65:350|50:343|50:343|62:332|73:327,1,60.0000022888184,10|0,0:1|0:0,0:0:0:0:
178,263,71859,2,0,B|197:264|215:255|215:255|200:242|186:237,1,71.9999978027344,2|0,0:0|0:0,0:0:0:0:
34,42,72216,70,0,B|34:61|25:83|25:83|42:67|60:62,1,83.9999974365235,2|0,1:0|0:0,0:0:0:0:
94,189,72573,2,0,B|86:169|90:142|90:142|75:166|57:179,1,95.9999970703126,2|0,0:0|0:0,0:0:0:0:
195,87,72930,2,0,B|181:105|176:136|176:136|167:105|152:85,1,108.000000411987,10|0,0:1|0:0,0:0:0:0:
122,4,73287,1,2,0:0:0:0:
211,8,73466,5,8,0:0:0:0:
216,13,73555,1,8,0:0:0:0:
221,18,73645,2,0,P|251:13|283:11,1,60.0000022888184,0|8,1:0|0:0,0:0:0:0:
386,57,74002,6,0,P|400:55|415:53,1,30,2|0,1:0|0:0,0:0:0:0:
376,51,74359,6,0,P|355:89|370:130,1,90.0000034332277,10|0,0:1|0:0,0:0:0:0:
377,137,74716,2,0,P|387:164|384:194,1,60,2|0,1:0|0:0,0:0:0:0:
377,201,75073,70,0,B|407:182|447:201|433:220|467:231|509:202,1,128,0|2,1:0|0:0,0:0:0:0:
392,285,75787,2,0,B|362:306|321:287|338:278|302:257|272:276,1,128,10|2,0:1|0:0,0:0:0:0:
179,351,76323,1,8,0:1:0:0:
21,254,76502,5,4,1:2:0:0:
92,201,76859,1,10,0:3:0:0:
15,32,77216,1,10,0:1:0:0:
438,45,77573,5,6,1:0:0:0:
256,192,77662,12,0,79359,0:0:0:0:
438,45,79716,5,2,0:0:0:0:
339,195,79895,1,0,1:0:0:0:
341,202,79984,1,0,1:0:0:0:
343,209,80073,2,0,P|365:211|384:207,1,41.9999987182618,14|0,0:1|0:0,0:0:0:0:
474,189,80787,22,0,B|404:168|409:234|342:215,1,138.000002632141,4|0,1:0|0:0,0:0:0:0:
277,180,81145,2,0,P|233:167|195:190,1,92.0000017547608,2|0,0:0|0:0,0:0:0:0:
113,342,81502,1,10,0:1:0:0:
205,295,81680,1,2,0:0:0:0:
108,236,81859,2,0,B|90:217|86:196|86:196|89:175|101:153,1,92.0000017547608,2|0,0:0|1:0,0:0:0:0:
189,91,82216,2,0,B|207:72|211:51|211:51|208:30|195:8,1,92.0000017547608,0|0,1:0|0:0,0:0:0:0:
3,38,82573,2,0,B|16:72|47:84|47:84|77:60|115:67,1,138.000002632141,2|0,1:0|0:0,0:0:0:0:
189,91,82930,2,0,P|211:130|215:176,1,75.9999979705811,10|0,0:1|0:0,0:0:0:0:
255,280,83287,2,0,P|264:251|282:228,1,60.0000022888184,2|0,0:0|0:0,0:0:0:0:
340,342,83645,6,0,B|309:361|261:361|242:291|292:229,1,176.000005371094,2|0,1:0|0:0,0:0:0:0:
365,150,84180,1,2,1:0:0:0:
510,278,84359,1,10,0:1:0:0:
401,253,84537,1,2,0:0:0:0:
485,167,84716,2,0,P|493:123|497:80,1,88.000002685547,2|0,0:0|1:0,0:0:0:0:
280,0,85073,6,0,P|286:65|299:130,1,132.00000402832,0|0,1:0|0:0,0:0:0:0:
365,150,85430,2,0,B|372:171|366:194|366:194|347:204|336:225,1,88.000002685547,2|0,1:0|0:0,0:0:0:0:
297,349,85787,1,10,0:1:0:0:
205,262,85966,1,2,0:0:0:0:
80,363,86145,2,0,P|122:359|160:346,1,77.9999964294435,2|0,1:0|0:0,0:0:0:0:
236,367,86502,70,0,B|197:394|142:325|206:258,1,150,4|0,1:0|0:0,0:0:0:0:
205,262,86859,1,2,0:0:0:0:
111,209,87037,1,2,0:0:0:0:
326,124,87217,1,10,0:1:0:0:
420,177,87395,1,2,0:0:0:0:
218,166,87573,2,0,B|213:111|211:66,1,100,2|0,0:0|1:0,0:0:0:0:
467,91,87930,6,0,B|458:47|428:29|428:29|391:26|358:52,1,150,0|0,1:0|0:0,0:0:0:0:
326,124,88287,2,0,B|322:150|309:173|309:173|319:193|341:207,1,100,2|0,1:0|0:0,0:0:0:0:
489,305,88645,1,10,0:1:0:0:
333,384,88823,1,2,0:0:0:0:
341,207,89002,2,0,B|320:189|297:182|297:182|277:183|245:198,1,100,2|0,0:0|0:0,0:0:0:0:
157,358,89359,6,0,B|139:386|99:383|99:383|60:317|110:261,1,200,6|0,1:0|0:0,0:0:0:0:
165,191,89895,1,0,1:0:0:0:
6,268,90073,1,10,0:1:0:0:
57,183,90252,1,2,0:0:0:0:
19,80,90430,1,2,1:0:0:0:
179,104,90609,2,0,B|227:99|267:144|267:144|271:87|322:67,1,200,10|0,0:1|0:0,0:0:0:0:
376,157,91145,1,2,1:0:0:0:
376,157,91323,1,0,1:0:0:0:
458,252,91502,6,0,P|501:189|494:114,1,150,10|0,0:1|0:0,0:0:0:0:
438,75,91859,70,0,P|437:59|444:38,1,30,6|0,0:3|0:0,0:0:0:0:
512,6,92216,6,0,P|454:31|378:7,1,138.000002632141,4|0,1:0|0:0,0:0:0:0:
316,24,92573,2,0,P|272:11|227:18,1,92.0000017547608,2|0,0:0|1:0,0:0:0:0:
220,173,92930,6,0,B|238:185|259:189|259:189|304:151|263:93,1,138.000002632141,10|0,0:1|0:0,0:0:0:0:
202,83,93287,2,0,P|156:90|110:94,1,92.0000017547608,2|0,0:0|1:0,0:0:0:0:
19,0,93645,6,0,B|38:44|38:44|2:88|39:151,1,138.000002632141,0|0,1:0|0:0,0:0:0:0:
90,169,94002,2,0,B|106:189|125:199|125:199|107:207|89:235,1,92.0000017547608,2|0,1:0|0:0,0:0:0:0:
11,302,94359,2,0,B|20:321|19:338|19:338|34:329|55:325,1,75.9999979705811,10|0,0:1|0:0,0:0:0:0:
212,312,94716,2,0,B|185:310|169:299|169:299|170:319|161:344,1,90.0000034332277,2|0,0:0|0:0,0:0:0:0:
242,372,95073,70,0,B|261:347|251:300|222:321|205:282|222:243,1,138.000002632141,2|0,1:0|0:0,0:0:0:0:
227,239,95430,1,2,0:0:0:0:
311,264,95609,1,2,1:0:0:0:
456,182,95787,1,8,0:1:0:0:
313,98,95966,1,2,0:0:0:0:
401,263,96145,2,0,P|409:308|415:354,1,92.0000017547608,2|0,0:0|1:0,0:0:0:0:
178,165,96502,6,0,P|243:152|298:193,1,138.000002632141,0|0,1:0|0:0,0:0:0:0:
290,199,96859,1,2,1:0:0:0:
376,170,97037,1,2,0:0:0:0:
450,41,97216,1,10,0:1:0:0:
364,12,97394,1,2,0:0:0:0:
229,74,97573,6,0,P|209:73|187:72,1,41.9999987182618,2|0,1:0|0:0,0:0:0:0:
95,19,97930,6,0,P|174:33|168:101,1,138.000002632141,4|0,1:0|0:0,0:0:0:0:
173,86,98287,1,2,0:0:0:0:
64,121,98466,1,2,0:0:0:0:
174,294,98645,1,10,0:1:0:0:
283,259,98824,1,2,0:0:0:0:
96,210,99002,2,0,L|83:301,1,92.0000017547608,2|0,0:0|1:0,0:0:0:0:
35,384,99359,70,0,B|36:346|70:327|70:327|107:329|129:356,1,138.000002632141,0|0,1:0|0:0,0:0:0:0:
191,382,99716,2,0,B|211:353|249:357|249:357|295:384|329:345,1,138.000002632141,2|0,1:0|0:0,0:0:0:0:
322,350,100073,1,10,0:1:0:0:
194,187,100252,1,2,0:0:0:0:
418,94,100430,6,0,P|427:124|418:156,1,60,2|0,0:0|0:0,0:0:0:0:
400,240,100787,6,0,B|364:210|388:164|411:175|434:136|411:100,1,155.999992858887,6|0,1:0|0:0,0:0:0:0:
360,53,101145,2,0,B|337:37|312:32|312:32|288:41|268:58,1,103.999995239258,10|0,0:1|0:0,0:0:0:0:
212,152,101502,5,2,1:0:0:0:
19,85,101680,1,10,0:1:0:0:
139,12,101859,1,8,0:3:0:0:
139,96,102037,1,6,0:3:0:0:
289,214,102216,69,8,0:1:0:0:
169,266,102395,1,8,0:3:0:0:
146,367,102573,1,6,0:3:0:0:
136,373,102930,6,0,L|140:331,1,32,6|0,1:0|0:0,0:0:0:0:
58,267,103287,2,0,L|61:289,1,17.9999994506836,2|0,0:0|0:0,0:0:0:0:
62,296,103645,37,2,0:0:0:0:
186,198,104002,1,0,0:0:0:0:
177,185,104180,1,0,0:0:0:0:
23,61,105073,5,2,0:0:0:0:
66,172,105430,1,0,0:0:0:0:
75,159,105608,1,0,0:0:0:0:
225,26,106502,5,2,0:0:0:0:
353,136,106859,1,0,0:0:0:0:
364,125,107037,1,0,0:0:0:0:
512,0,107930,6,0,P|508:27|504:55,1,55.9999982910157,2|0,0:0|0:0,0:0:0:0:
446,155,108645,1,2,0:0:0:0:
508,223,108823,1,2,0:0:0:0:
472,285,109002,1,2,0:0:0:0:
483,296,109359,69,2,0:0:0:0:
319,378,109716,1,0,0:0:0:0:
310,362,109895,1,0,0:0:0:0:
355,235,110787,5,2,0:0:0:0:
211,165,111145,1,0,0:0:0:0:
201,180,111323,1,0,0:0:0:0:
222,337,112216,5,2,0:0:0:0:
65,384,112573,1,0,0:0:0:0:
57,368,112752,1,0,0:0:0:0:
100,213,113645,6,0,P|104:185|108:157,1,55.9999982910157,2|0,0:0|0:0,0:0:0:0:
81,67,114180,69,8,0:3:0:0:
86,72,114270,1,4,0:3:0:0:
91,77,114359,1,8,0:1:0:0:
209,38,114537,1,8,0:3:0:0:
275,105,114716,6,0,L|272:127,1,17.9999994506836,4|0,0:3|0:0,0:0:0:0:
265,129,115073,6,0,P|273:167|279:205,1,77.9999964294435,4|0,1:0|0:0,0:0:0:0:
272,212,115430,1,2,1:0:0:0:
242,328,115609,2,0,P|265:316|291:315,1,51.999997619629,8|2,0:1|0:0,0:0:0:0:
369,368,115966,1,0,1:0:0:0:
369,368,116145,1,2,1:0:0:0:
512,268,116502,6,0,P|461:262|435:220,1,103.999995239258,0|0,1:0|1:0,0:0:0:0:
471,143,117037,1,0,0:0:0:0:
327,65,117216,1,8,0:1:0:0:
424,20,117395,2,0,L|417:77,1,51.999997619629,0|2,1:0|0:0,0:0:0:0:
370,153,117752,69,10,0:0:0:0:
365,158,117841,1,8,0:0:0:0:
360,163,117930,2,0,B|319:174|274:161|274:161|287:179,1,103.999995239258,2|0,1:0|1:0,0:0:0:0:
340,283,118466,2,0,P|344:308|341:334,1,51.999997619629,10|0,0:1|0:0,0:0:0:0:
412,338,118823,2,0,P|415:304|410:270,1,68.0000012969971,2|0,1:0|0:0,0:0:0:0:
272,310,119180,1,2,1:0:0:0:
221,376,119359,6,0,B|190:388|152:360|187:346|141:314|104:333,1,125.999996154785,2|0,1:0|0:0,0:0:0:0:
83,384,119716,2,0,P|116:361|108:322,1,83.9999974365235,2|0,1:0|0:0,0:0:0:0:
0,217,120073,1,10,0:1:0:0:
102,227,120252,1,2,1:0:0:0:
156,165,120430,6,0,L|151:129,1,30,0|0,0:3|0:0,0:0:0:0:
144,128,120787,6,0,P|175:114|237:125,1,90.0000034332277,0|0,1:0|0:0,0:0:0:0:
236,127,121145,1,2,1:0:0:0:
341,59,121323,2,0,P|339:29|335:0,1,60.0000022888184,8|2,0:1|0:0,0:0:0:0:
327,148,121680,1,0,1:0:0:0:
327,148,121859,1,2,1:0:0:0:
497,119,122216,70,0,P|459:96|417:109,1,90.0000034332277,0|0,1:0|0:0,0:0:0:0:
410,116,122573,2,0,L|420:182,1,60.0000022888184,0|0,1:0|0:0,0:0:0:0:
440,317,122930,1,8,0:1:0:0:
339,384,123109,2,0,L|347:324,1,60.0000022888184,0|2,1:0|0:0,0:0:0:0:
354,228,123466,5,10,0:0:0:0:
359,233,123555,1,8,0:0:0:0:
364,238,123645,2,0,B|305:245|312:193|246:205,1,120.000004577637,2|0,1:0|1:0,0:0:0:0:
248,338,124180,2,0,P|260:314|258:281,1,60.0000022888184,10|0,0:1|0:0,0:0:0:0:
160,216,124537,2,0,P|158:178|174:144,1,75.9999979705811,2|0,1:0|0:0,0:0:0:0:
267,115,124895,1,2,1:0:0:0:
233,24,125073,6,0,P|177:38|121:48,1,113.999996955872,2|0,1:0|0:0,0:0:0:0:
117,55,125430,2,0,P|82:39|44:36,1,75.9999979705811,6|0,1:2|0:0,0:0:0:0:
2,162,125787,6,0,L|6:187,1,20.9999993591309,10|0,0:1|0:0,0:0:0:0:
120,247,126055,70,0,L|116:272,1,16,8|0,0:3|0:0,0:0:0:0:
48,324,126323,6,0,L|49:334,1,11.0000003356934,4|0,0:3|0:0,0:0:0:0:
127,379,126502,6,0,P|180:372|233:362,1,107.999996704102,4|0,1:0|0:0,0:0:0:0:
245,368,126859,2,0,P|256:334|247:290,1,71.9999978027344,10|0,0:1|0:0,0:0:0:0:
217,225,127216,1,2,1:0:0:0:
217,225,127395,2,0,P|253:226|288:221,1,71.9999978027344,0|2,1:0|0:0,0:0:0:0:
456,196,127752,1,8,0:1:0:0:
376,211,127930,6,0,P|373:175|396:140,1,71.9999978027344,2|0,0:0|1:0,0:0:0:0:
504,77,128287,2,0,P|467:78|433:73,1,71.9999978027344,10|0,0:1|0:0,0:0:0:0:
347,14,128645,1,2,1:0:0:0:
347,14,128823,1,0,1:0:0:0:
239,69,129002,2,0,L|250:142,1,71.9999978027344,10|2,0:1|0:0,0:0:0:0:
254,145,129270,1,2,0:0:0:0:
258,149,129359,70,0,P|229:130|193:128,1,71.9999978027344,2|0,1:0|0:0,0:0:0:0:
67,205,129716,2,0,P|74:240|79:275,1,71.9999978027344,10|2,0:1|0:0,0:0:0:0:
74,195,130073,1,0,1:0:0:0:
166,267,130252,2,0,P|158:302|153:337,1,71.9999978027344,2|2,1:0|0:0,0:0:0:0:
160,257,130609,1,8,0:1:0:0:
264,338,130787,6,0,P|299:334|335:329,1,71.9999978027344,0|0,0:0|1:0,0:0:0:0:
500,224,131145,2,0,B|479:192|450:182|450:182|416:188|390:208,1,132.00000402832,10|0,0:1|0:0,0:0:0:0:
397,215,131502,1,10,0:1:0:0:
466,315,131680,1,8,0:3:0:0:
418,381,131859,1,4,0:3:0:0:
408,384,132216,6,0,P|401:336|398:288,1,96,4|0,1:0|0:0,0:0:0:0:
407,283,132573,1,2,1:0:0:0:
304,234,132752,2,0,P|305:202|310:170,1,64,8|2,0:1|0:0,0:0:0:0:
382,102,133109,1,0,1:0:0:0:
382,102,133287,1,2,1:0:0:0:
512,0,133645,6,0,P|464:4|416:8,1,96,2|0,1:0|0:0,0:0:0:0:
410,2,134002,1,2,1:0:0:0:
328,38,134180,1,0,0:0:0:0:
464,103,134359,1,10,0:1:0:0:
424,168,134537,2,0,L|429:231,1,64,0|0,1:0|0:0,0:0:0:0:
502,352,134895,69,8,0:0:0:0:
501,358,134984,1,8,0:0:0:0:
500,364,135073,2,0,P|451:359|404:350,1,96,0|0,1:0|0:0,0:0:0:0:
399,343,135430,1,0,1:0:0:0:
314,378,135609,2,0,P|283:373|251:370,1,64,8|0,0:1|0:0,0:0:0:0:
144,383,135966,2,0,P|144:352|155:322,1,64,0|0,1:0|0:0,0:0:0:0:
239,275,136323,1,0,1:0:0:0:
77,194,136502,6,0,L|85:260,1,64,2|8,1:0|0:0,0:0:0:0:
164,158,136859,2,0,P|142:117|98:100,1,96,0|0,1:0|0:0,0:0:0:0:
92,106,137216,1,8,0:1:0:0:
0,43,137395,6,0,L|26:38,1,20,0|0,1:0|0:0,0:0:0:0:
127,4,137752,1,8,0:3:0:0:
122,9,137841,1,4,0:3:0:0:
117,14,137930,1,6,1:0:0:0:
256,192,138020,12,0,139716,0:0:0:0:
124,16,139895,6,0,L|152:12,1,26.6666666666667,0|0,1:0|1:0,0:0:0:0:
216,4,140073,1,8,0:1:0:0:
181,92,140252,1,0,1:0:0:0:
308,167,140430,70,0,L|305:184,1,17.9999994506836,4|0,0:3|0:0,0:0:0:0:
249,226,140787,54,0,B|280:174|381:236|275:325,1,184.000003509522,6|2,1:0|0:0,0:0:0:0:
200,366,141323,1,0,1:0:0:0:
81,290,141502,2,0,B|103:273|123:268|123:268|139:268|166:276,1,92.0000017547608,10|0,0:1|0:0,0:0:0:0:
132,340,141859,1,2,0:0:0:0:
30,352,142037,1,2,1:0:0:0:
19,226,142216,5,2,1:0:0:0:
186,156,142395,1,2,0:0:0:0:
87,140,142573,2,0,P|82:94|79:48,1,92.0000017547608,2|0,1:0|0:0,0:0:0:0:
294,39,142930,2,0,P|291:108|281:176,1,138.000002632141,10|0,0:1|0:0,0:0:0:0:
242,230,143287,2,0,P|253:272|296:280,1,92.0000017547608,2|0,1:0|0:0,0:0:0:0:
492,163,143645,6,0,B|450:148|405:188|432:206|388:250|336:219,1,184.000003509522,6|0,1:0|0:0,0:0:0:0:
225,135,144180,1,0,1:0:0:0:
159,275,144359,2,0,P|169:319|177:365,1,92.0000017547608,10|0,0:1|0:0,0:0:0:0:
92,231,144716,2,0,B|112:193|137:179|137:179|168:179|201:205,1,138.000002632141,2|0,0:0|0:0,0:0:0:0:
208,210,145073,5,2,1:0:0:0:
287,88,145252,1,10,0:1:0:0:
215,35,145430,2,0,P|170:46|124:52,1,92.0000017547608,2|0,1:0|0:0,0:0:0:0:
0,44,145787,2,0,B|36:66|43:96|43:96|22:128|30:162,1,138.000002632141,10|0,0:1|0:0,0:0:0:0:
18,223,146145,70,0,P|42:188|85:190,1,90.0000034332277,2|0,1:0|0:0,0:0:0:0:
92,197,146502,6,0,B|64:234|78:279|118:267|135:308|101:352,1,160,6|0,1:0|0:0,0:0:0:0:
36,368,147037,1,0,1:0:0:0:
187,309,147216,5,10,0:1:0:0:
285,378,147395,1,2,0:0:0:0:
391,276,147573,1,2,0:0:0:0:
319,304,147752,1,0,1:0:0:0:
267,148,147930,5,2,1:0:0:0:
292,222,148109,1,10,0:1:0:0:
439,116,148287,1,2,1:0:0:0:
414,190,148466,1,2,0:0:0:0:
319,0,148645,69,10,0:1:0:0:
215,48,148823,1,2,1:0:0:0:
296,77,149002,2,0,L|380:69,1,64,2|0,0:0|0:0,0:0:0:0:
101,7,149359,5,6,1:2:0:0:
228,127,149537,1,10,0:1:0:0:
185,241,149716,1,2,0:0:0:0:
96,250,149895,1,2,1:0:0:0:
115,135,150073,5,10,0:1:0:0:
259,205,150251,1,2,1:0:0:0:
218,312,150430,1,14,0:1:0:0:
144,305,150609,1,2,0:0:0:0:
308,384,150787,5,2,1:0:0:0:
404,323,150966,1,2,1:0:0:0:
374,211,151145,1,10,0:1:0:0:
313,288,151323,1,2,1:0:0:0:
465,246,151502,69,10,0:1:0:0:
454,150,151680,1,10,0:3:0:0:
449,155,151770,1,8,0:3:0:0:
444,160,151859,6,0,L|449:111,1,41.9999987182618,6|0,0:3|0:0,0:0:0:0:
480,63,152216,6,0,B|443:37|382:65|406:94|358:119|303:83,1,184.000003509522,6|2,1:0|0:0,0:0:0:0:
231,26,152752,1,0,1:0:0:0:
163,201,152930,2,0,B|181:214|193:236|193:236|194:212|202:191,1,92.0000017547608,10|0,0:1|0:0,0:0:0:0:
176,92,153287,2,0,B|158:79|146:57|146:57|145:81|136:101,1,92.0000017547608,2|0,0:0|1:0,0:0:0:0:
77,303,153645,6,0,B|91:282|111:270|111:270|119:292|114:314,1,92.0000017547608,2|0,1:0|0:0,0:0:0:0:
247,321,154002,2,0,B|230:345|207:359|207:359|198:333|203:307,1,108.000000411987,2|0,1:0|0:0,0:0:0:0:
378,289,154359,2,0,B|368:260|334:248|334:248|318:276|330:308,1,124.000000946045,10|0,0:1|0:0,0:0:0:0:
424,209,154716,2,0,B|449:237|487:229|487:229|491:189|468:165,1,140.000001335144,2|0,1:0|0:0,0:0:0:0:
173,115,155073,70,0,B|115:125|159:28|198:130|278:93,1,140.000001335144,6|0,1:0|0:0,0:0:0:0:
337,38,155430,2,0,B|395:48|351:-49|312:53|232:16,1,156.000000595093,2|0,0:0|1:0,0:0:0:0:
38,46,155787,2,0,B|-11:-7|172:-25|15:148,1,160,10|0,0:1|0:0,0:0:0:0:
76,237,156145,2,0,B|131:230|127:182|131:230|189:221,1,120.000004577637,2|0,0:0|1:0,0:0:0:0:
386,169,156502,6,0,B|381:143|353:132|353:132|298:164|347:229,1,132.00000402832,0|0,1:0|0:0,0:0:0:0:
360,281,156859,2,0,B|367:299|387:315|387:315|386:340|368:358|372:353,1,88.000002685547,2|0,1:0|0:0,0:0:0:0:
495,221,157216,1,10,0:1:0:0:
386,169,157395,1,2,0:0:0:0:
463,71,157573,2,0,L|476:-17,1,71.9999978027344,2|0,1:0|0:0,0:0:0:0:
470,78,157930,6,0,P|441:34|361:56,1,125.999996154785,6|0,1:0|0:0,0:0:0:0:
318,83,158287,2,0,P|332:122|334:163,1,83.9999974365235,2|0,0:0|1:0,0:0:0:0:
190,373,158645,5,10,0:1:0:0:
169,221,158823,1,2,0:0:0:0:
239,140,159002,1,2,0:0:0:0:
256,216,159180,1,0,1:0:0:0:
154,308,159359,70,0,P|113:304|73:292,1,83.9999974365235,2|0,1:0|0:0,0:0:0:0:
10,260,159716,2,0,B|-1:199|-1:199|31:150,1,120,2|0,1:0|0:0,0:0:0:0:
84,107,160073,2,0,B|122:111|147:139|147:139|167:106|200:93,1,143.999995605469,10|0,0:1|0:0,0:0:0:0:
274,81,160430,2,0,B|257:112|275:147|299:131|311:173|286:197,1,120,2|0,0:0|0:0,0:0:0:0:
286,201,160787,5,2,1:0:0:0:
384,297,160966,1,10,0:1:0:0:
394,196,161145,6,0,L|422:197,2,26.6666666666667,2|2|2,0:0|0:0|0:0,0:0:0:0:
381,196,161323,1,2,1:0:0:0:
275,294,161502,5,10,0:1:0:0:
181,225,161680,1,2,0:0:0:0:
121,288,161859,1,2,1:0:0:0:
13,206,162037,1,10,0:1:0:0:
171,137,162216,69,2,1:0:0:0:
171,137,162395,1,0,1:0:0:0:
52,0,162573,2,0,P|59:39|64:78,1,80,10|0,0:1|0:0,0:0:0:0:
72,280,162930,5,10,0:3:0:0:
67,322,163049,5,8,0:3:0:0:
50,347,163168,5,8,0:3:0:0:
30,356,163287,70,0,P|33:323|33:290,1,66.0000020141602,6|0,0:3|0:0,0:0:0:0:
23,363,163645,54,0,B|83:377|74:325|135:339,1,120,4|0,1:0|0:0,0:0:0:0:
141,331,164002,2,0,P|168:346|197:354,1,60.0000022888184,2|0,0:0|0:0,0:0:0:0:
320,384,164359,2,0,P|346:369|375:361,1,60.0000022888184,10|0,0:1|0:0,0:0:0:0:
449,384,164716,1,2,0:0:0:0:
508,290,164895,5,0,1:0:0:0:
508,290,165073,2,0,P|501:246|496:201,1,90.0000034332277,0|0,1:0|0:0,0:0:0:0:
489,194,165430,2,0,P|493:164|496:134,1,60.0000022888184,2|0,1:0|0:0,0:0:0:0:
379,60,165787,2,0,P|381:89|385:119,1,60.0000022888184,10|0,0:1|0:0,0:0:0:0:
391,234,166145,2,0,B|376:211|356:205|356:205|333:205|315:217,1,90.0000034332277,2|0,0:0|0:0,0:0:0:0:
309,225,166502,6,0,B|294:235|286:248|286:248|292:234|294:218,1,60.0000022888184,2|0,1:0|0:0,0:0:0:0:
196,168,166859,2,0,B|210:184|213:202|213:202|217:184|228:164,1,80,2|0,0:0|0:0,0:0:0:0:
137,223,167216,2,0,B|137:248|145:271|145:271|129:252|104:244,1,100,10|0,0:1|0:0,0:0:0:0:
82,326,167573,1,2,0:0:0:0:
3,230,167752,5,8,0:0:0:0:
8,235,167841,1,8,0:0:0:0:
13,240,167930,2,0,P|22:196|28:152,1,90.0000034332277,0|0,1:0|0:0,0:0:0:0:
21,145,168287,2,0,P|50:135|85:138,1,60.0000022888184,2|0,1:0|0:0,0:0:0:0:
227,164,168645,1,10,0:1:0:0:
167,98,168823,2,0,L|163:35,1,55.9999982910157,0|0,1:0|0:0,0:0:0:0:
231,171,169359,70,0,B|289:196|283:122|351:148,1,120.000004577637,0|2,1:0|0:0,0:0:0:0:
424,282,170073,2,0,P|407:224|416:176,1,90.0000034332277,10|0,0:1|0:0,0:0:0:0:
417,188,170430,1,2,1:0:0:0:
338,61,170609,1,8,0:1:0:0:
491,62,170787,5,8,0:3:0:0:
417,104,170966,1,8,0:3:0:0:
268,22,171145,1,2,1:0:0:0:
493,149,171502,5,6,0:3:0:0:
120,296,171859,1,6,1:0:0:0:
256,192,171948,12,0,173010,0:0:0:0:
333,117,173347,6,0,L|329:131,1,10,8|0,0:3|0:0,0:0:0:0:
278,248,173892,1,8,0:3:0:0:
355,294,174048,2,0,L|376:289,1,17.9999994506836,8|0,0:3|0:0,0:0:0:0:
382,284,174409,70,0,L|452:295,1,70,4|0,0:3|0:0,0:0:0:0:
461,300,175168,5,6,0:0:0:0:
499,187,175533,1,0,0:0:0:0:
439,129,175902,1,0,0:0:0:0:
260,141,176624,5,2,0:0:0:0:
275,23,176989,1,0,0:0:0:0:
364,1,177355,2,0,L|356:47,1,40,2|0,0:0|0:0,0:0:0:0:
276,213,178087,6,0,P|256:215|236:211,1,40,2|0,0:0|0:0,0:0:0:0:
172,162,178819,1,0,0:0:0:0:
55,177,179184,1,0,0:0:0:0:
12,324,179550,70,0,L|55:333,1,40,2|0,0:0|0:0,0:0:0:0:
163,378,180282,2,0,L|252:367,1,83.9999974365235,2|0,0:0|0:0,0:0:0:0:
322,378,181014,5,2,0:0:0:0:
418,306,181380,1,0,0:0:0:0:
389,228,181745,1,0,0:0:0:0:
202,270,182477,5,2,0:0:0:0:
147,187,182843,1,0,0:0:0:0:
242,108,183209,2,0,B|270:105|270:105|271:107|271:107|306:103,1,55.9999982910157,2|0,0:0|0:0,0:0:0:0:
399,71,183941,5,2,0:0:0:0:
450,140,184306,1,0,0:0:0:0:
385,240,184672,1,0,0:0:0:0:
248,188,185038,1,0,0:0:0:0:
280,361,185404,70,0,P|287:333|288:306,1,55.9999982910157,2|0,0:0|0:0,0:0:0:0:
163,236,186136,2,0,P|152:195|149:153,1,83.9999974365235,2|0,0:0|0:0,0:0:0:0:
183,91,186867,5,2,0:0:0:0:
296,129,187233,1,0,0:0:0:0:
364,71,187599,1,0,0:0:0:0:
193,2,188331,5,2,0:0:0:0:
102,84,188697,1,0,0:0:0:0:
15,50,189063,2,0,L|23:105,1,55.9999982910157,2|0,0:0|0:0,0:0:0:0:
46,228,189794,5,2,0:0:0:0:
127,188,190160,1,0,0:0:0:0:
214,280,190526,1,0,0:0:0:0:
359,232,190892,1,0,0:0:0:0:
263,82,191258,2,0,P|286:96|314:96,1,55.9999982910157,2|0,0:0|0:0,0:0:0:0:
424,141,191989,2,0,P|458:117|499:113,1,83.9999974365235,2|0,0:0|0:0,0:0:0:0:
489,215,192721,69,2,0:0:0:0:
433,291,193087,1,0,0:0:0:0:
510,369,193453,2,0,L|512:384,1,16
376,44,202750,53,2,0:0:0:0:
381,49,202838,1,2,0:0:0:0:
386,54,202930,2,0,B|406:5|302:-13|281:94|379:149,1,180.000006866455,6|0,1:0|0:0,0:0:0:0:
387,177,203287,2,0,P|411:219|399:266,1,100,2|0,0:0|1:0,0:0:0:0:
236,353,203645,1,10,0:1:0:0:
153,289,203823,1,2,0:0:0:0:
260,185,204002,2,0,B|272:211|290:225|290:225|270:235|252:257,1,100,2|0,0:0|1:0,0:0:0:0:
151,151,204359,2,0,B|136:127|117:115|117:115|136:103|151:78,1,100,0|0,1:0|0:0,0:0:0:0:
0,23,204716,6,0,P|48:64|93:0,1,150,2|0,1:0|0:0,0:0:0:0:
49,88,205073,6,0,B|34:123|46:156|59:146|70:174|45:203,1,120,10|0,0:1|0:0,0:0:0:0:
1,266,205430,6,0,P|9:223|49:207,1,90.0000034332277,2|0,1:0|0:0,0:0:0:0:
112,253,205787,70,0,B|163:245|176:186|176:186|196:241|247:249,1,200,2|0,1:0|0:0,0:0:0:0:
336,174,206323,1,2,1:0:0:0:
318,384,206502,1,10,0:1:0:0:
181,321,206680,1,2,0:0:0:0:
416,285,206859,2,0,B|396:266|373:259|373:259|351:264|328:279,1,100,2|0,0:0|0:0,0:0:0:0:
436,384,207216,5,0,1:0:0:0:
496,209,207395,1,8,0:1:0:0:
420,168,207573,2,0,P|425:123|431:78,1,90.0000034332277,2|0,1:0|0:0,0:0:0:0:
436,68,207930,1,10,0:1:0:0:
277,20,208109,6,0,L|281:41,1,20,2|0,1:0|0:0,0:0:0:0:
296,111,208466,1,2,0:0:0:0:
125,85,208645,6,0,B|88:94|80:22|174:2|144:102|245:89,1,167.999994873047,4|0,1:0|0:0,0:0:0:0:
223,87,209002,1,2,0:0:0:0:
166,156,209180,1,2,1:0:0:0:
0,96,209359,1,10,0:1:0:0:
104,221,209537,1,2,0:0:0:0:
35,285,209716,2,0,B|40:331|45:386,1,100,2|0,0:0|1:0,0:0:0:0:
250,301,210073,70,0,B|243:271|223:259|223:259|199:257|176:274,1,100,0|8,1:0|0:1,0:0:0:0:
333,346,210430,2,0,B|364:369|403:358|403:358|419:320|465:312,1,150,2|0,1:0|0:0,0:0:0:0:
471,319,210787,1,10,0:1:0:0:
318,246,210966,1,2,0:0:0:0:
512,172,211145,2,0,B|490:155|466:157|466:157|445:169|439:198,1,100,2|0,1:0|0:0,0:0:0:0:
333,345,211502,6,0,P|327:296|318:247,1,100,2|8,1:0|0:1,0:0:0:0:
385,87,211859,2,0,P|375:136|370:185,1,100,2|0,0:0|1:0,0:0:0:0:
278,27,212216,1,14,0:1:0:0:
296,141,212395,1,2,0:0:0:0:
220,92,212573,1,0,1:0:0:0:
385,87,212752,1,10,0:1:0:0:
473,141,212930,5,2,1:0:0:0:
473,141,213109,1,0,1:0:0:0:
407,262,213287,2,0,B|376:258|358:273|358:273|345:253|318:244,1,100,14|0,0:1|0:0,0:0:0:0:
127,368,213645,5,10,0:1:0:0:
284,317,213823,1,8,0:3:0:0:
247,194,214002,1,10,0:3:0:0:
175,142,214180,1,4,0:3:0:0:
65,233,214359,70,0,P|138:260|178:198,1,150,6|0,1:0|0:0,0:0:0:0:
175,142,214716,2,0,B|167:117|155:96|155:96|158:73|180:48,1,100,2|0,0:0|1:0,0:0:0:0:
336,90,215073,2,0,B|314:109|293:116|293:116|274:114|247:98,1,100,10|0,0:1|0:0,0:0:0:0:
399,13,215430,1,2,0:0:0:0:
485,74,215609,1,0,1:0:0:0:
421,152,215787,6,0,P|430:202|437:251,1,100,0|8,1:0|0:0,0:0:0:0:
494,372,216145,2,0,B|478:323|478:323|453:371,1,100,2|0,1:0|0:0,0:0:0:0:
336,250,216502,2,0,B|351:278|351:278|361:245,1,68.0000012969971,10|0,0:1|0:0,0:0:0:0:
266,375,216859,2,0,B|261:345|261:345|250:372,1,60,2|0,1:0|0:0,0:0:0:0:
188,384,217216,6,0,B|167:356|178:305|209:328|228:286|209:244,1,150,6|0,1:0|0:0,0:0:0:0:
205,238,217573,1,2,0:0:0:0:
122,269,217752,1,2,1:0:0:0:
0,127,217930,1,8,0:1:0:0:
83,96,218109,1,2,0:0:0:0:
59,203,218287,2,0,P|50:252|43:301,1,100,2|0,0:0|1:0,0:0:0:0:
284,211,218645,86,0,P|222:150|157:173,1,150,0|0,1:0|0:0,0:0:0:0:
163,172,219002,1,2,1:2:0:0:
182,67,219180,1,2,0:0:0:0:
389,36,219359,1,10,0:1:0:0:
370,142,219537,1,2,0:0:0:0:
182,67,219716,6,0,L|214:71,1,30,2|0,1:0|0:0,0:0:0:0:
271,89,220073,6,0,L|122:70,1,150,4|0,1:0|0:0,0:0:0:0:
114,59,220430,1,2,0:0:0:0:
37,0,220609,1,2,1:0:0:0:
76,195,220787,1,10,0:1:0:0:
170,164,220966,1,2,0:0:0:0:
66,187,221145,2,0,L|47:292,1,100,2|0,0:0|1:0,0:0:0:0:
32,372,221502,6,0,B|-18:332|64:259|125:352,1,150,0|0,1:0|0:0,0:0:0:0:
161,369,221859,2,0,B|192:394|230:387|230:387|245:349|300:332,1,150,2|0,1:0|0:0,0:0:0:0:
292,341,222216,1,10,0:1:0:0:
462,252,222395,1,2,0:0:0:0:
336,124,222573,70,0,P|327:154|336:186,1,60,2|0,1:0|0:0,0:0:0:0:
360,266,222930,6,0,B|391:240|367:194|344:205|321:166|344:130,1,150,6|0,1:0|0:0,0:0:0:0:
350,138,223287,1,2,0:0:0:0:
466,144,223466,1,0,1:0:0:0:
512,7,223645,6,0,P|463:17|413:21,1,100,10|0,0:1|0:0,0:0:0:0:
280,28,224002,1,2,1:0:0:0:
220,131,224180,1,10,0:3:0:0:
287,214,224359,5,0,1:0:0:0:
192,220,224537,1,8,0:1:0:0:
130,145,224716,70,0,P|126:123|125:95,1,48,6|0,0:3|0:0,0:0:0:0:
108,32,225073,54,0,P|123:32|138:34,1,30.0000011444092,10|0,0:1|0:0,0:0:0:0:
147,37,225252,6,0,P|168:47|186:66,1,40,2|0,0:0|0:0,0:0:0:0:
187,65,225430,6,0,P|207:78|232:79,1,50,2|0,0:0|0:0,0:0:0:0:
243,78,225609,6,0,P|270:67|287:43,1,60.0000022888184,2|0,0:0|0:0,0:0:0:0:
362,6,225764,6,0,B|377:38|366:69|366:69|395:72|416:96|416:96|410:113|410:134|410:134|430:147|436:171,1,207.999990478516,6|2,1:0|0:1,0:0:0:0:
329,269,226299,1,0,1:0:0:0:
274,206,226478,2,0,B|314:173|314:173|365:193,1,103.999995239258,10|0,0:1|0:0,0:0:0:0:
384,333,226835,2,0,B|344:366|344:366|295:346,1,103.999995239258,2|0,0:1|1:0,0:0:0:0:
136,340,227192,6,0,B|166:374|220:320|177:276|177:276|151:270|141:252|141:252|148:234|151:213,1,207.999990478516,2|2,1:1|1:1,0:0:0:0:
11,45,227907,2,0,B|25:65|52:67|52:67|50:71|50:71|73:46|94:48,1,103.999995239258,10|0,0:1|1:0,0:0:0:0:
249,129,228264,2,0,B|235:149|208:151|208:151|210:155|210:155|187:130|165:132,1,103.999995239258,2|0,0:1|0:0,0:0:0:0:
29,341,228621,6,0,B|60:319|70:283|70:283|48:256|43:223|43:223|66:199|67:160,1,207.999990478516,2|2,1:1|0:1,0:0:0:0:
94,48,229157,1,0,1:0:0:0:
249,129,229335,2,0,P|276:121|295:101,1,51.999997619629,10|0,0:1|0:0,0:0:0:0:
298,95,229514,2,0,P|303:67|291:35,1,51.999997619629,2|0,0:0|0:0,0:0:0:0:
232,10,229692,2,0,P|205:18|186:38,1,51.999997619629,2|0,0:1|0:0,0:0:0:0:
183,44,229871,2,0,P|178:72|190:104,1,51.999997619629,2|0,1:2|0:0,0:0:0:0:
265,214,230049,6,0,B|304:209|324:181|324:181|332:213|368:223|368:223|407:206|441:220,1,207.999990478516,2|2,1:1|1:1,0:0:0:0:
406,381,230764,2,0,P|379:340|402:296,1,103.999995239258,10|0,0:1|1:0,0:0:0:0:
488,291,231121,1,2,0:1:0:0:
311,376,231299,1,2,0:0:0:0:
185,271,231478,69,6,1:0:0:0:
341,166,231657,1,2,0:0:0:0:
264,213,231835,6,0,P|277:236|282:261,1,51.999997619629,2|0,0:1|0:0,0:0:0:0:
284,271,232014,2,0,P|281:294|267:325,1,51.999997619629,2|0,1:2|0:0,0:0:0:0:
263,329,232192,6,0,B|211:388|140:359|140:359|134:323|99:299,1,207.999990478516,10|2,0:1|0:1,0:0:0:0:
36,384,232728,1,2,1:2:0:0:
102,301,232907,6,0,P|116:278|125:246,1,51.999997619629,2|0,1:1|0:0,0:0:0:0:
126,246,233085,2,0,P|128:216|123:188,1,51.999997619629,2|0,0:0|0:0,0:0:0:0:
39,110,233264,70,0,P|48:87|68:66,1,44.0000013427735,2|0,1:1|0:0,0:0:0:0:
71,62,233442,2,0,P|90:47|118:39,1,44.0000013427735,2|0,0:0|0:0,0:0:0:0:
124,184,233621,6,0,P|129:163|146:142,1,35.9999989013672,10|0,0:1|0:0,0:0:0:0:
144,144,233799,2,0,P|158:132|175:125,1,35.9999989013672,2|0,1:2|0:0,0:0:0:0:
119,36,233978,6,0,P|137:31|157:29,1,27.9999991455078,2|0,0:1|0:0,0:0:0:0:
156,27,234157,2,0,P|173:25|193:27,1,27.9999991455078,2|0,0:0|0:0,0:0:0:0:
262,87,234335,6,0,P|266:102|270:117,1,23.9999992675781,4|0,1:0|0:0,0:0:0:0:
270,120,234514,2,0,P|273:134|274:150,1,23.9999992675781,2|0,0:0|0:0,0:0:0:0:
374,159,234692,70,0,P|370:173|369:186,1,20,2|0,0:1|0:0,0:0:0:0:
369,188,234871,2,0,P|366:201|366:216,1,20,2|0,1:2|0:0,0:0:0:0:
275,152,235049,6,0,L|273:173,1,16,10|0,0:1|0:0,0:0:0:0:
273,175,235228,2,0,L|270:195,1,16,2|0,0:0|0:0,0:0:0:0:
365,217,235407,6,0,L|367:234,1,11.9999996337891,2|0,1:1|0:0,0:0:0:0:
367,237,235585,2,0,L|372:253,1,11.9999996337891,8|0,0:1|0:0,0:0:0:0:
266,306,235764,5,2,1:1:0:0:
483,230,235942,1,10,0:1:0:0:
402,339,236121,1,2,1:1:0:0:
402,339,236299,1,2,1:2:0:0:
271,191,236478,2,0,P|232:181|192:176,1,80,14|0,0:1|0:0,0:0:0:0:
33,204,236835,1,10,0:3:0:0:
0,309,237014,1,4,0:3:0:0:
114,381,237192,70,0,B|115:357|110:338|110:338|120:320|130:306|130:306|125:290|126:261,1,120,6|0,1:0|0:0,0:0:0:0:
129,202,237549,2,0,L|116:170,1,20,2|0,0:1|0:0,0:0:0:0:
132,190,237728,2,0,L|119:158,1,20,0|0,1:0|0:0,0:0:0:0:
62,102,237907,6,0,B|96:69|144:80|144:80|143:73|143:73|159:98|190:107|190:107|207:93|230:89,1,200,10|2,0:1|0:1,0:0:0:0:
313,43,238442,2,0,L|308:70,1,15.0000005722046,0|0,1:0|0:0,0:0:0:0:
284,187,238621,5,2,1:1:0:0:
343,138,238799,1,8,0:1:0:0:
312,271,238978,5,2,1:1:0:0:
385,361,239157,1,2,0:0:0:0:
504,272,239335,1,10,0:1:0:0:
343,138,239514,1,2,1:2:0:0:
230,251,239692,69,2,0:1:0:0:
199,177,239871,1,2,0:0:0:0:
63,255,240049,6,0,B|87:268|112:270|112:270|111:273|111:273|125:251|151:236,1,100,4|0,1:0|0:0,0:0:0:0:
284,187,240407,1,2,0:1:0:0:
279,312,240585,1,2,1:2:0:0:
206,367,240764,5,10,0:1:0:0:
290,316,240942,1,2,0:0:0:0:
294,185,241121,1,2,1:1:0:0:
173,110,241299,1,2,1:2:0:0:
316,16,241478,1,2,0:1:0:0:
370,229,241657,1,8,0:1:0:0:
505,109,241835,6,0,P|492:103|478:99,1,25,2|0,1:1|0:0,0:0:0:0:
508,105,242192,70,0,B|482:84|424:96|424:96|431:88|431:88|412:109|393:126|359:124|359:124|386:117|400:95,1,223.999993164063,12|2,0:1|0:1,0:0:0:0:
316,16,242728,1,0,0:0:0:0:
260,104,242907,2,0,P|259:149|284:187,1,92.0000017547608,4|0,1:0|0:0,0:0:0:0:
456,258,243264,2,0,B|439:243|411:238|411:238|413:234|413:234|399:259|385:266,1,92.0000017547608,2|0,0:1|1:0,0:0:0:0:
101,241,243621,6,0,B|138:216|190:240|186:289|186:289|216:297|244:286|244:286|259:302|277:310,1,223.999993164063,10|2,0:1|0:1,0:0:0:0:
377,370,244157,1,2,1:2:0:0:
458,337,244335,5,2,1:1:0:0:
366,180,244514,1,8,0:1:0:0:
277,310,244692,6,0,P|249:311|222:302,1,55.9999982910157,2|0,1:1|0:0,0:0:0:0:
278,319,245049,2,0,B|231:329|184:282|184:282|159:293|143:309|143:309|116:280|76:281,1,223.999993164063,10|2,0:1|0:1,0:0:0:0:
0,345,245585,1,2,0:0:0:0:
155,208,245764,69,4,1:0:0:0:
163,138,245942,1,2,0:0:0:0:
31,68,246121,5,2,0:1:0:0:
23,168,246300,1,2,1:2:0:0:
153,219,246478,5,10,0:1:0:0:
164,126,246656,1,2,0:0:0:0:
29,57,246835,5,2,1:0:0:0:
24,179,247014,1,8,0:3:0:0:
152,230,247192,69,2,0:1:0:0:
165,115,247370,1,8,0:3:0:0:
28,43,247549,5,6,0:3:0:0:
24,190,247728,1,2,0:0:0:0:
230,62,247906,6,0,B|216:16|161:9|161:9|143:49|102:61,1,167.999994873047,6|0,0:3|0:0,0:0:0:0:
28,43,248264,6,0,B|58:74|107:59|107:59|83:93|95:141|95:141|119:154|132:177,1,210.000002002716,6|0,0:3|0:0,0:0:0:0:
162,231,248621,21,6,0:0:0:0:
250,211,248978,1,0,0:0:0:0:
298,270,249335,1,0,0:0:0:0:
392,251,250049,5,2,0:0:0:0:
419,164,250406,1,0,0:0:0:0:
347,190,250763,1,0,0:0:0:0:
237,47,251478,5,2,0:0:0:0:
283,118,251835,1,0,0:0:0:0:
400,82,252192,1,0,0:0:0:0:
504,162,252549,1,0,0:0:0:0:
412,274,252906,70,0,L|407:322,1,47.9999985351563,2|0,0:0|0:0,0:0:0:0:
318,374,253620,1,2,0:0:0:0:
237,300,253978,1,2,0:0:0:0:
138,370,254335,5,2,0:0:0:0:
82,294,254692,1,0,0:0:0:0:
9,319,255049,1,0,0:0:0:0:
167,292,255763,5,2,0:0:0:0:
210,199,256120,1,0,0:0:0:0:
138,151,256478,1,0,0:0:0:0:
21,30,257192,5,2,0:0:0:0:
80,77,257549,1,0,0:0:0:0:
160,24,257906,1,0,0:0:0:0:
282,60,258263,1,0,0:0:0:0:
207,177,258620,70,0,L|200:122,1,47.9999985351563,2|0,0:0|0:0,0:0:0:0:
288,47,259335,1,2,0:0:0:0:
367,115,259692,1,2,0:0:0:0:
458,88,260049,5,2,0:0:0:0:
458,178,260406,1,0,0:0:0:0:
308,238,260763,1,2,0:0:0:0:
358,319,261120,1,0,0:0:0:0:
471,319,261478,5,2,0:0:0:0:
502,247,261835,1,2,0:0:0:0:
405,235,262192,1,0,0:0:0:0:
362,174,262549,1,0,0:0:0:0:
249,253,262906,6,0,L|202:247,1,47.9999985351563,2|0,0:0|0:0,0:0:0:0:
102,272,263620,1,0,0:0:0:0:
25,169,263978,1,0,0:0:0:0:
135,52,264335,70,0,L|128:104,1,47.9999985351563,2|0,0:0|0:0,0:0:0:0:
25,169,265049,2,0,L|34:240,1,71.9999978027344,2|0,0:0|0:0,0:0:0:0:
50,312,265763,5,2,0:0:0:0:
132,368,266120,1,0,0:0:0:0:
204,326,266478,1,0,0:0:0:0:
332,211,267192,5,2,0:0:0:0:
430,249,267549,1,0,0:0:0:0:
442,322,267906,1,0,0:0:0:0:
217,224,268620,6,0,L|223:176,1,47.9999985351563,2|0,0:0|0:0,0:0:0:0:
239,81,269335,1,2,0:0:0:0:
312,144,269692,2,0,L|306:173,1,23.9999992675781,2|0,0:0|0:0,0:0:0:0:
