osu file format v14

[General]
AudioFilename: audio.mp3
AudioLeadIn: 0
PreviewTime: 65759
Countdown: 0
SampleSet: None
StackLeniency: 0.7
Mode: 3
LetterboxInBreaks: 0
SpecialStyle: 0
WidescreenStoryboard: 0

[Editor]
DistanceSpacing: 0.8
BeatDivisor: 4
GridSize: 16
TimelineZoom: 1

[Metadata]
Title:MINEMBYURI DESU KA
TitleUnicode:MINEMBYURI DESU KA
Artist:magewage
ArtistUnicode:magewage
Creator:Verald
Version:love live KEK
Source:
Tags:
BeatmapID:1588055
BeatmapSetID:754266

[Difficulty]
HPDrainRate:7.5
CircleSize:4
OverallDifficulty:6
ApproachRate:5
SliderMultiplier:1.4
SliderTickRate:1

[Events]
//Background and Video events
0,0,"bg.png",0,0
//Break Periods
//Storyboard Layer 0 (Background)
//Storyboard Layer 1 (Fail)
//Storyboard Layer 2 (Pass)
//Storyboard Layer 3 (Foreground)
//Storyboard Sound Samples

[TimingPoints]
699,441.176470588235,4,3,0,100,1,0

[HitObjects]
64,192,699,128,0,919:0:0:0:0:
192,192,699,128,0,919:0:0:0:0:
320,192,699,128,0,919:0:0:0:0:
448,192,699,128,0,919:0:0:0:0:
64,192,1140,128,0,1360:0:0:0:0:
192,192,1140,128,0,1360:0:0:0:0:
320,192,1140,128,0,1360:0:0:0:0:
448,192,1140,128,0,1360:0:0:0:0:
192,192,1581,128,0,1801:0:0:0:0:
320,192,1581,128,0,1801:0:0:0:0:
448,192,1581,128,0,1801:0:0:0:0:
64,192,1581,128,0,1801:0:0:0:0:
64,192,1912,128,0,2022:0:0:0:0:
192,192,1912,128,0,2022:0:0:0:0:
320,192,1912,128,0,2022:0:0:0:0:
448,192,1912,128,0,2022:0:0:0:0:
320,192,2463,128,0,2684:0:0:0:0:
448,192,2463,128,0,2684:0:0:0:0:
192,192,2463,128,0,2684:0:0:0:0:
64,192,2463,128,0,2684:0:0:0:0:
320,192,2904,128,0,3125:0:0:0:0:
448,192,2904,128,0,3125:0:0:0:0:
192,192,2904,128,0,3125:0:0:0:0:
64,192,2904,128,0,3125:0:0:0:0:
448,192,3346,128,0,3566:0:0:0:0:
320,192,3346,128,0,3566:0:0:0:0:
192,192,3346,128,0,3566:0:0:0:0:
64,192,3346,128,0,3566:0:0:0:0:
320,192,3676,128,0,3787:0:0:0:0:
192,192,3676,128,0,3787:0:0:0:0:
448,192,3676,128,0,3787:0:0:0:0:
64,192,3676,128,0,3787:0:0:0:0:
192,192,4228,128,0,4448:0:0:0:0:
320,192,4228,128,0,4448:0:0:0:0:
448,192,4228,128,0,4448:0:0:0:0:
64,192,4228,128,0,4448:0:0:0:0:
192,192,4669,128,0,4890:0:0:0:0:
64,192,4669,128,0,4890:0:0:0:0:
320,192,4669,128,0,4890:0:0:0:0:
448,192,4669,128,0,4890:0:0:0:0:
448,192,5110,128,0,5331:0:0:0:0:
192,192,5110,128,0,5331:0:0:0:0:
320,192,5110,128,0,5331:0:0:0:0:
64,192,5110,128,0,5331:0:0:0:0:
64,192,5441,128,0,5551:0:0:0:0:
192,192,5441,128,0,5551:0:0:0:0:
320,192,5441,128,0,5551:0:0:0:0:
448,192,5441,128,0,5551:0:0:0:0:
192,192,5772,128,0,5882:0:0:0:0:
64,192,5772,128,0,5882:0:0:0:0:
320,192,5772,128,0,5882:0:0:0:0:
448,192,5772,128,0,5882:0:0:0:0:
320,192,5993,128,0,6213:0:0:0:0:
448,192,5993,128,0,6213:0:0:0:0:
192,192,5993,128,0,6213:0:0:0:0:
64,192,5993,128,0,6213:0:0:0:0:
320,192,6434,128,0,6654:0:0:0:0:
448,192,6434,128,0,6654:0:0:0:0:
192,192,6434,128,0,6654:0:0:0:0:
64,192,6434,128,0,6654:0:0:0:0:
448,192,6875,128,0,7096:0:0:0:0:
192,192,6875,128,0,7096:0:0:0:0:
64,192,6875,128,0,7096:0:0:0:0:
320,192,6875,128,0,7096:0:0:0:0:
192,192,7206,1,0,0:0:0:0:
320,192,7206,1,0,0:0:0:0:
448,192,7206,1,0,0:0:0:0:
64,192,7206,1,0,0:0:0:0:
448,192,7316,1,0,0:0:0:0:
320,192,7316,1,0,0:0:0:0:
64,192,7316,1,0,0:0:0:0:
192,192,7316,1,0,0:0:0:0:
64,192,7757,128,0,7978:0:0:0:0:
192,192,7757,128,0,7978:0:0:0:0:
320,192,7757,128,0,7978:0:0:0:0:
448,192,7757,128,0,7978:0:0:0:0:
448,192,8088,1,0,0:0:0:0:
320,192,8088,1,0,0:0:0:0:
192,192,8088,1,0,0:0:0:0:
64,192,8088,1,0,0:0:0:0:
448,192,8198,128,0,8419:0:0:0:0:
64,192,8198,128,0,8419:0:0:0:0:
320,192,8198,128,0,8419:0:0:0:0:
192,192,8198,128,0,8419:0:0:0:0:
64,192,8529,1,0,0:0:0:0:
192,192,8529,1,0,0:0:0:0:
320,192,8529,1,0,0:0:0:0:
448,192,8529,1,0,0:0:0:0:
320,192,8640,128,0,8971:0:0:0:0:
64,192,8640,128,0,8971:0:0:0:0:
448,192,8640,128,0,8971:0:0:0:0:
192,192,8640,128,0,8971:0:0:0:0:
64,192,9081,1,0,0:0:0:0:
192,192,9081,1,0,0:0:0:0:
320,192,9081,1,0,0:0:0:0:
448,192,9081,1,0,0:0:0:0:
448,192,9191,1,0,0:0:0:0:
320,192,9191,1,0,0:0:0:0:
192,192,9191,1,0,0:0:0:0:
64,192,9191,1,0,0:0:0:0:
64,192,9301,1,0,0:0:0:0:
192,192,9301,1,0,0:0:0:0:
320,192,9301,1,0,0:0:0:0:
448,192,9301,1,0,0:0:0:0:
448,192,9412,1,0,0:0:0:0:
320,192,9412,1,0,0:0:0:0:
192,192,9412,1,0,0:0:0:0:
64,192,9412,1,0,0:0:0:0:
64,192,9522,128,0,9743:0:0:0:0:
448,192,9522,128,0,9743:0:0:0:0:
320,192,9522,128,0,9743:0:0:0:0:
192,192,9522,128,0,9743:0:0:0:0:
448,192,9853,1,0,0:0:0:0:
320,192,9853,1,0,0:0:0:0:
192,192,9853,1,0,0:0:0:0:
64,192,9853,1,0,0:0:0:0:
64,192,9963,128,0,10184:0:0:0:0:
320,192,9963,128,0,10184:0:0:0:0:
448,192,9963,128,0,10184:0:0:0:0:
192,192,9963,128,0,10184:0:0:0:0:
64,192,10294,1,0,0:0:0:0:
192,192,10294,1,0,0:0:0:0:
320,192,10294,1,0,0:0:0:0:
448,192,10294,1,0,0:0:0:0:
448,192,10404,128,0,10735:0:0:0:0:
64,192,10404,128,0,10735:0:0:0:0:
192,192,10404,128,0,10735:0:0:0:0:
320,192,10404,128,0,10735:0:0:0:0:
448,192,10846,1,0,0:0:0:0:
320,192,10846,1,0,0:0:0:0:
192,192,10846,1,0,0:0:0:0:
64,192,10846,1,0,0:0:0:0:
448,192,10956,1,0,0:0:0:0:
192,192,10956,1,0,0:0:0:0:
64,192,10956,1,0,0:0:0:0:
320,192,10956,1,0,0:0:0:0:
64,192,11066,1,0,0:0:0:0:
192,192,11066,1,0,0:0:0:0:
320,192,11066,1,0,0:0:0:0:
448,192,11066,1,0,0:0:0:0:
448,192,11176,1,0,0:0:0:0:
320,192,11176,1,0,0:0:0:0:
192,192,11176,1,0,0:0:0:0:
64,192,11176,1,0,0:0:0:0:
448,192,11287,128,0,11507:0:0:0:0:
192,192,11287,128,0,11507:0:0:0:0:
320,192,11287,128,0,11507:0:0:0:0:
64,192,11287,128,0,11507:0:0:0:0:
64,192,11618,1,0,0:0:0:0:
192,192,11618,1,0,0:0:0:0:
320,192,11618,1,0,0:0:0:0:
448,192,11618,1,0,0:0:0:0:
64,192,11728,128,0,11948:0:0:0:0:
320,192,11728,128,0,11948:0:0:0:0:
448,192,11728,128,0,11948:0:0:0:0:
192,192,11728,128,0,11948:0:0:0:0:
448,192,12059,1,0,0:0:0:0:
320,192,12059,1,0,0:0:0:0:
192,192,12059,1,0,0:0:0:0:
64,192,12059,1,0,0:0:0:0:
320,192,12169,128,0,12500:0:0:0:0:
192,192,12169,128,0,12500:0:0:0:0:
448,192,12169,128,0,12500:0:0:0:0:
64,192,12169,128,0,12500:0:0:0:0:
192,192,12610,1,0,0:0:0:0:
64,192,12610,1,0,0:0:0:0:
320,192,12610,1,0,0:0:0:0:
448,192,12610,1,0,0:0:0:0:
64,192,12721,1,0,0:0:0:0:
192,192,12721,1,0,0:0:0:0:
320,192,12721,1,0,0:0:0:0:
448,192,12721,1,0,0:0:0:0:
320,192,12831,128,0,12941:0:0:0:0:
192,192,12831,128,0,12941:0:0:0:0:
448,192,12831,128,0,12941:0:0:0:0:
64,192,12831,128,0,12941:0:0:0:0:
448,192,13051,128,0,13272:0:0:0:0:
64,192,13051,128,0,13272:0:0:0:0:
192,192,13051,128,0,13272:0:0:0:0:
320,192,13051,128,0,13272:0:0:0:0:
448,192,13382,1,0,0:0:0:0:
320,192,13382,1,0,0:0:0:0:
192,192,13382,1,0,0:0:0:0:
64,192,13382,1,0,0:0:0:0:
448,192,13493,128,0,13713:0:0:0:0:
320,192,13493,128,0,13713:0:0:0:0:
192,192,13493,128,0,13713:0:0:0:0:
64,192,13493,128,0,13713:0:0:0:0:
64,192,13823,1,0,0:0:0:0:
192,192,13823,1,0,0:0:0:0:
320,192,13823,1,0,0:0:0:0:
448,192,13823,1,0,0:0:0:0:
64,192,13934,128,0,14154:0:0:0:0:
192,192,13934,128,0,14154:0:0:0:0:
320,192,13934,128,0,14154:0:0:0:0:
448,192,13934,128,0,14154:0:0:0:0:
192,192,14265,128,0,14375:0:0:0:0:
320,192,14265,128,0,14375:0:0:0:0:
448,192,14265,128,0,14375:0:0:0:0:
64,192,14265,128,0,14375:0:0:0:0:
448,192,14485,1,0,0:0:0:0:
320,192,14485,1,0,0:0:0:0:
192,192,14485,1,0,0:0:0:0:
64,192,14485,1,0,0:0:0:0:
192,192,14596,128,0,14706:0:0:0:0:
320,192,14596,128,0,14706:0:0:0:0:
448,192,14596,128,0,14706:0:0:0:0:
64,192,14596,128,0,14706:0:0:0:0:
320,192,14816,1,0,0:0:0:0:
192,192,14816,1,0,0:0:0:0:
64,192,14816,1,0,0:0:0:0:
448,192,14816,1,0,0:0:0:0:
192,192,14926,128,0,15037:0:0:0:0:
320,192,14926,128,0,15037:0:0:0:0:
448,192,14926,128,0,15037:0:0:0:0:
64,192,14926,128,0,15037:0:0:0:0:
64,192,15147,1,0,0:0:0:0:
192,192,15147,1,0,0:0:0:0:
320,192,15147,1,0,0:0:0:0:
448,192,15147,1,0,0:0:0:0:
64,192,15257,128,0,15478:0:0:0:0:
192,192,15257,128,0,15478:0:0:0:0:
320,192,15257,128,0,15478:0:0:0:0:
448,192,15257,128,0,15478:0:0:0:0:
448,192,15588,1,0,0:0:0:0:
320,192,15588,1,0,0:0:0:0:
192,192,15588,1,0,0:0:0:0:
64,192,15588,1,0,0:0:0:0:
448,192,15698,128,0,16029:0:0:0:0:
320,192,15698,128,0,16029:0:0:0:0:
192,192,15698,128,0,16029:0:0:0:0:
64,192,15698,128,0,16029:0:0:0:0:
64,192,16140,1,0,0:0:0:0:
192,192,16140,1,0,0:0:0:0:
320,192,16140,1,0,0:0:0:0:
448,192,16140,1,0,0:0:0:0:
64,192,16250,1,0,0:0:0:0:
192,192,16250,1,0,0:0:0:0:
320,192,16250,1,0,0:0:0:0:
448,192,16250,1,0,0:0:0:0:
64,192,16360,1,0,0:0:0:0:
192,192,16360,1,0,0:0:0:0:
320,192,16360,1,0,0:0:0:0:
448,192,16360,1,0,0:0:0:0:
64,192,16471,1,0,0:0:0:0:
192,192,16471,1,0,0:0:0:0:
320,192,16471,1,0,0:0:0:0:
448,192,16471,1,0,0:0:0:0:
448,192,16581,128,0,16801:0:0:0:0:
320,192,16581,128,0,16801:0:0:0:0:
192,192,16581,128,0,16801:0:0:0:0:
64,192,16581,128,0,16801:0:0:0:0:
448,192,16912,1,0,0:0:0:0:
320,192,16912,1,0,0:0:0:0:
192,192,16912,1,0,0:0:0:0:
64,192,16912,1,0,0:0:0:0:
64,192,17022,128,0,17243:0:0:0:0:
192,192,17022,128,0,17243:0:0:0:0:
320,192,17022,128,0,17243:0:0:0:0:
448,192,17022,128,0,17243:0:0:0:0:
64,192,17353,1,0,0:0:0:0:
192,192,17353,1,0,0:0:0:0:
320,192,17353,1,0,0:0:0:0:
448,192,17353,1,0,0:0:0:0:
448,192,17463,128,0,17794:0:0:0:0:
320,192,17463,128,0,17794:0:0:0:0:
64,192,17463,128,0,17794:0:0:0:0:
192,192,17463,128,0,17794:0:0:0:0:
64,192,17904,1,0,0:0:0:0:
192,192,17904,1,0,0:0:0:0:
320,192,17904,1,0,0:0:0:0:
448,192,17904,1,0,0:0:0:0:
448,192,18015,1,0,0:0:0:0:
320,192,18015,1,0,0:0:0:0:
192,192,18015,1,0,0:0:0:0:
64,192,18015,1,0,0:0:0:0:
448,192,18125,1,0,0:0:0:0:
320,192,18125,1,0,0:0:0:0:
192,192,18125,1,0,0:0:0:0:
64,192,18125,1,0,0:0:0:0:
448,192,18235,1,0,0:0:0:0:
320,192,18235,1,0,0:0:0:0:
192,192,18235,1,0,0:0:0:0:
64,192,18235,1,0,0:0:0:0:
448,192,18346,128,0,18566:0:0:0:0:
192,192,18346,128,0,18566:0:0:0:0:
320,192,18346,128,0,18566:0:0:0:0:
64,192,18346,128,0,18566:0:0:0:0:
64,192,18676,1,0,0:0:0:0:
192,192,18676,1,0,0:0:0:0:
320,192,18676,1,0,0:0:0:0:
448,192,18676,1,0,0:0:0:0:
64,192,18787,128,0,19007:0:0:0:0:
192,192,18787,128,0,19007:0:0:0:0:
320,192,18787,128,0,19007:0:0:0:0:
448,192,18787,128,0,19007:0:0:0:0:
448,192,19118,1,0,0:0:0:0:
320,192,19118,1,0,0:0:0:0:
192,192,19118,1,0,0:0:0:0:
64,192,19118,1,0,0:0:0:0:
192,192,19228,128,0,19559:0:0:0:0:
320,192,19228,128,0,19559:0:0:0:0:
64,192,19228,128,0,19559:0:0:0:0:
448,192,19228,128,0,19559:0:0:0:0:
64,192,19669,1,0,0:0:0:0:
192,192,19669,1,0,0:0:0:0:
320,192,19669,1,0,0:0:0:0:
448,192,19669,1,0,0:0:0:0:
64,192,19779,1,0,0:0:0:0:
192,192,19779,1,0,0:0:0:0:
320,192,19779,1,0,0:0:0:0:
448,192,19779,1,0,0:0:0:0:
448,192,19890,128,0,20000:0:0:0:0:
320,192,19890,128,0,20000:0:0:0:0:
192,192,19890,128,0,20000:0:0:0:0:
64,192,19890,128,0,20000:0:0:0:0:
448,192,20110,1,0,0:0:0:0:
320,192,20110,128,0,20221:0:0:0:0:
192,192,20110,128,0,20331:0:0:0:0:
64,192,20110,128,0,20441:0:0:0:0:
64,192,20551,1,0,0:0:0:0:
448,192,20551,1,0,0:0:0:0:
64,192,20662,1,0,0:0:0:0:
448,192,20662,1,0,0:0:0:0:
64,192,20772,1,0,0:0:0:0:
448,192,20772,1,0,0:0:0:0:
64,192,20882,1,0,0:0:0:0:
448,192,20882,1,0,0:0:0:0:
64,192,20993,1,0,0:0:0:0:
448,192,20993,1,0,0:0:0:0:
64,192,21103,1,0,0:0:0:0:
448,192,21103,1,0,0:0:0:0:
64,192,21323,1,0,0:0:0:0:
448,192,21323,1,0,0:0:0:0:
64,192,21434,1,0,0:0:0:0:
192,192,21461,1,0,0:0:0:0:
320,192,21489,1,0,0:0:0:0:
448,192,21517,1,0,0:0:0:0:
64,192,21544,1,0,0:0:0:0:
192,192,21572,1,0,0:0:0:0:
320,192,21599,1,0,0:0:0:0:
448,192,21627,1,0,0:0:0:0:
64,192,21654,1,0,0:0:0:0:
192,192,21682,1,0,0:0:0:0:
320,192,21710,1,0,0:0:0:0:
448,192,21737,1,0,0:0:0:0:
64,192,21765,1,0,0:0:0:0:
192,192,21792,1,0,0:0:0:0:
320,192,21820,1,0,0:0:0:0:
448,192,21847,1,0,0:0:0:0:
64,192,21875,1,0,0:0:0:0:
192,192,21875,1,0,0:0:0:0:
448,192,21875,1,0,0:0:0:0:
320,192,21875,1,0,0:0:0:0:
448,192,21985,1,0,0:0:0:0:
320,192,21985,1,0,0:0:0:0:
192,192,22096,1,0,0:0:0:0:
64,192,22096,1,0,0:0:0:0:
320,192,22206,1,0,0:0:0:0:
448,192,22206,1,0,0:0:0:0:
192,192,22316,1,0,0:0:0:0:
64,192,22316,1,0,0:0:0:0:
320,192,22316,1,0,0:0:0:0:
448,192,22316,1,0,0:0:0:0:
320,192,22426,1,0,0:0:0:0:
448,192,22426,1,0,0:0:0:0:
192,192,22537,1,0,0:0:0:0:
64,192,22537,1,0,0:0:0:0:
320,192,22647,1,0,0:0:0:0:
448,192,22647,1,0,0:0:0:0:
192,192,22757,1,0,0:0:0:0:
64,192,22757,1,0,0:0:0:0:
448,192,22757,1,0,0:0:0:0:
320,192,22757,1,0,0:0:0:0:
320,192,22868,1,0,0:0:0:0:
448,192,22868,1,0,0:0:0:0:
192,192,22978,1,0,0:0:0:0:
64,192,22978,1,0,0:0:0:0:
448,192,23088,1,0,0:0:0:0:
320,192,23088,1,0,0:0:0:0:
192,192,23198,1,0,0:0:0:0:
64,192,23198,1,0,0:0:0:0:
320,192,23198,1,0,0:0:0:0:
448,192,23198,1,0,0:0:0:0:
448,192,23309,1,0,0:0:0:0:
320,192,23309,1,0,0:0:0:0:
192,192,23419,1,0,0:0:0:0:
64,192,23419,1,0,0:0:0:0:
320,192,23529,1,0,0:0:0:0:
448,192,23529,1,0,0:0:0:0:
192,192,23640,1,0,0:0:0:0:
64,192,23640,1,0,0:0:0:0:
448,192,23640,1,0,0:0:0:0:
320,192,23640,1,0,0:0:0:0:
448,192,23750,1,0,0:0:0:0:
320,192,23750,1,0,0:0:0:0:
192,192,23860,1,0,0:0:0:0:
64,192,23860,1,0,0:0:0:0:
320,192,23971,1,0,0:0:0:0:
448,192,23971,1,0,0:0:0:0:
192,192,24081,1,0,0:0:0:0:
64,192,24081,1,0,0:0:0:0:
320,192,24081,1,0,0:0:0:0:
448,192,24081,1,0,0:0:0:0:
448,192,24191,1,0,0:0:0:0:
320,192,24191,1,0,0:0:0:0:
192,192,24301,1,0,0:0:0:0:
64,192,24301,1,0,0:0:0:0:
320,192,24412,1,0,0:0:0:0:
448,192,24412,1,0,0:0:0:0:
192,192,24522,1,0,0:0:0:0:
64,192,24522,1,0,0:0:0:0:
448,192,24522,1,0,0:0:0:0:
320,192,24522,1,0,0:0:0:0:
320,192,24632,1,0,0:0:0:0:
448,192,24632,1,0,0:0:0:0:
192,192,24743,1,0,0:0:0:0:
64,192,24743,1,0,0:0:0:0:
320,192,24853,1,0,0:0:0:0:
448,192,24853,1,0,0:0:0:0:
192,192,24963,1,0,0:0:0:0:
64,192,24963,1,0,0:0:0:0:
448,192,24963,1,0,0:0:0:0:
320,192,24963,1,0,0:0:0:0:
448,192,25073,1,0,0:0:0:0:
320,192,25073,1,0,0:0:0:0:
192,192,25184,1,0,0:0:0:0:
64,192,25184,1,0,0:0:0:0:
64,192,25404,1,0,0:0:0:0:
320,192,25404,1,0,0:0:0:0:
192,192,25404,1,0,0:0:0:0:
448,192,25404,1,0,0:0:0:0:
320,192,25625,1,0,0:0:0:0:
448,192,25625,1,0,0:0:0:0:
192,192,25735,1,0,0:0:0:0:
64,192,25735,1,0,0:0:0:0:
64,192,25846,1,0,0:0:0:0:
192,192,25846,1,0,0:0:0:0:
320,192,25846,1,0,0:0:0:0:
448,192,25846,1,0,0:0:0:0:
192,192,25956,1,0,0:0:0:0:
64,192,25956,1,0,0:0:0:0:
448,192,26066,1,0,0:0:0:0:
320,192,26066,1,0,0:0:0:0:
192,192,26176,1,0,0:0:0:0:
64,192,26176,1,0,0:0:0:0:
448,192,26287,1,0,0:0:0:0:
320,192,26287,1,0,0:0:0:0:
192,192,26287,1,0,0:0:0:0:
64,192,26287,1,0,0:0:0:0:
64,192,26397,1,0,0:0:0:0:
192,192,26397,1,0,0:0:0:0:
448,192,26507,1,0,0:0:0:0:
320,192,26507,1,0,0:0:0:0:
192,192,26618,1,0,0:0:0:0:
64,192,26618,1,0,0:0:0:0:
320,192,26728,1,0,0:0:0:0:
448,192,26728,1,0,0:0:0:0:
64,192,26728,1,0,0:0:0:0:
192,192,26728,1,0,0:0:0:0:
192,192,26838,1,0,0:0:0:0:
64,192,26838,1,0,0:0:0:0:
448,192,26948,1,0,0:0:0:0:
320,192,26948,1,0,0:0:0:0:
192,192,27059,1,0,0:0:0:0:
64,192,27059,1,0,0:0:0:0:
320,192,27169,1,0,0:0:0:0:
448,192,27169,1,0,0:0:0:0:
192,192,27169,1,0,0:0:0:0:
64,192,27169,1,0,0:0:0:0:
192,192,27279,1,0,0:0:0:0:
64,192,27279,1,0,0:0:0:0:
320,192,27390,1,0,0:0:0:0:
448,192,27390,1,0,0:0:0:0:
192,192,27500,1,0,0:0:0:0:
64,192,27500,1,0,0:0:0:0:
320,192,27610,1,0,0:0:0:0:
448,192,27610,1,0,0:0:0:0:
64,192,27610,1,0,0:0:0:0:
192,192,27610,1,0,0:0:0:0:
192,192,27721,1,0,0:0:0:0:
64,192,27721,1,0,0:0:0:0:
320,192,27831,1,0,0:0:0:0:
448,192,27831,1,0,0:0:0:0:
192,192,27941,1,0,0:0:0:0:
64,192,27941,1,0,0:0:0:0:
448,192,28051,1,0,0:0:0:0:
320,192,28051,1,0,0:0:0:0:
192,192,28051,1,0,0:0:0:0:
64,192,28051,1,0,0:0:0:0:
192,192,28162,1,0,0:0:0:0:
64,192,28162,1,0,0:0:0:0:
192,192,28272,1,0,0:0:0:0:
320,192,28272,1,0,0:0:0:0:
448,192,28272,1,0,0:0:0:0:
448,192,28382,1,0,0:0:0:0:
320,192,28382,1,0,0:0:0:0:
64,192,28382,1,0,0:0:0:0:
64,192,28493,1,0,0:0:0:0:
192,192,28493,1,0,0:0:0:0:
448,192,28493,1,0,0:0:0:0:
320,192,28603,1,0,0:0:0:0:
64,192,28603,1,0,0:0:0:0:
192,192,28603,1,0,0:0:0:0:
64,192,28713,1,0,0:0:0:0:
192,192,28713,1,0,0:0:0:0:
448,192,28713,1,0,0:0:0:0:
448,192,28823,1,0,0:0:0:0:
320,192,28823,1,0,0:0:0:0:
64,192,28823,1,0,0:0:0:0:
448,192,28934,1,0,0:0:0:0:
320,192,28934,1,0,0:0:0:0:
192,192,28934,1,0,0:0:0:0:
64,192,28934,1,0,0:0:0:0:
448,192,29044,1,0,0:0:0:0:
320,192,29044,1,0,0:0:0:0:
64,192,29044,1,0,0:0:0:0:
192,192,29044,1,0,0:0:0:0:
64,192,29154,1,0,0:0:0:0:
192,192,29154,1,0,0:0:0:0:
320,192,29154,1,0,0:0:0:0:
448,192,29154,1,0,0:0:0:0:
448,192,29265,1,0,0:0:0:0:
320,192,29265,1,0,0:0:0:0:
192,192,29265,1,0,0:0:0:0:
64,192,29265,1,0,0:0:0:0:
64,192,29375,1,0,0:0:0:0:
192,192,29375,1,0,0:0:0:0:
320,192,29375,1,0,0:0:0:0:
448,192,29375,1,0,0:0:0:0:
448,192,29485,1,0,0:0:0:0:
320,192,29485,1,0,0:0:0:0:
64,192,29485,1,0,0:0:0:0:
192,192,29485,1,0,0:0:0:0:
64,192,29596,1,0,0:0:0:0:
192,192,29596,1,0,0:0:0:0:
320,192,29596,1,0,0:0:0:0:
448,192,29596,1,0,0:0:0:0:
448,192,29706,1,0,0:0:0:0:
320,192,29706,1,0,0:0:0:0:
192,192,29706,1,0,0:0:0:0:
64,192,29706,1,0,0:0:0:0:
64,192,29816,1,0,0:0:0:0:
192,192,29816,1,0,0:0:0:0:
320,192,29816,1,0,0:0:0:0:
448,192,29816,1,0,0:0:0:0:
448,192,29926,1,0,0:0:0:0:
320,192,29926,1,0,0:0:0:0:
192,192,29926,1,0,0:0:0:0:
64,192,29926,1,0,0:0:0:0:
64,192,30037,1,0,0:0:0:0:
192,192,30037,1,0,0:0:0:0:
320,192,30037,1,0,0:0:0:0:
448,192,30037,1,0,0:0:0:0:
448,192,30147,1,0,0:0:0:0:
320,192,30147,1,0,0:0:0:0:
192,192,30147,1,0,0:0:0:0:
64,192,30147,1,0,0:0:0:0:
64,192,30257,1,0,0:0:0:0:
192,192,30257,1,0,0:0:0:0:
320,192,30257,1,0,0:0:0:0:
448,192,30257,1,0,0:0:0:0:
448,192,30368,1,0,0:0:0:0:
320,192,30368,1,0,0:0:0:0:
192,192,30368,1,0,0:0:0:0:
64,192,30368,1,0,0:0:0:0:
320,192,30478,1,0,0:0:0:0:
64,192,30478,1,0,0:0:0:0:
192,192,30478,1,0,0:0:0:0:
448,192,30478,1,0,0:0:0:0:
64,192,30588,1,0,0:0:0:0:
448,192,30588,1,0,0:0:0:0:
320,192,30588,1,0,0:0:0:0:
192,192,30588,1,0,0:0:0:0:
64,192,30698,1,0,0:0:0:0:
192,192,30698,1,0,0:0:0:0:
320,192,30698,1,0,0:0:0:0:
448,192,30698,1,0,0:0:0:0:
320,192,30809,1,0,0:0:0:0:
64,192,30809,1,0,0:0:0:0:
192,192,30809,1,0,0:0:0:0:
192,192,30919,1,0,0:0:0:0:
64,192,30919,1,0,0:0:0:0:
64,192,31029,1,0,0:0:0:0:
64,192,31360,1,0,0:0:0:0:
192,192,31360,1,0,0:0:0:0:
448,192,31360,1,0,0:0:0:0:
320,192,31360,1,0,0:0:0:0:
64,192,31471,1,0,0:0:0:0:
192,192,31471,1,0,0:0:0:0:
320,192,31471,1,0,0:0:0:0:
64,192,31581,1,0,0:0:0:0:
192,192,31581,1,0,0:0:0:0:
64,192,31691,1,0,0:0:0:0:
64,192,31801,1,0,0:0:0:0:
192,192,31801,1,0,0:0:0:0:
64,192,31912,1,0,0:0:0:0:
192,192,31912,1,0,0:0:0:0:
320,192,31912,1,0,0:0:0:0:
64,192,32022,1,0,0:0:0:0:
192,192,32022,1,0,0:0:0:0:
320,192,32022,1,0,0:0:0:0:
448,192,32022,1,0,0:0:0:0:
64,192,32132,1,0,0:0:0:0:
192,192,32132,1,0,0:0:0:0:
320,192,32132,1,0,0:0:0:0:
64,192,32243,1,0,0:0:0:0:
192,192,32243,1,0,0:0:0:0:
64,192,32353,1,0,0:0:0:0:
64,192,32463,1,0,0:0:0:0:
192,192,32463,1,0,0:0:0:0:
320,192,32463,1,0,0:0:0:0:
448,192,32463,1,0,0:0:0:0:
192,192,32573,1,0,0:0:0:0:
448,192,32573,1,0,0:0:0:0:
448,192,32684,1,0,0:0:0:0:
192,192,32684,1,0,0:0:0:0:
192,192,32794,1,0,0:0:0:0:
448,192,32794,1,0,0:0:0:0:
448,192,32904,1,0,0:0:0:0:
192,192,32904,1,0,0:0:0:0:
320,192,32904,1,0,0:0:0:0:
64,192,32904,1,0,0:0:0:0:
64,192,33015,1,0,0:0:0:0:
320,192,33015,1,0,0:0:0:0:
320,192,33125,1,0,0:0:0:0:
64,192,33125,1,0,0:0:0:0:
64,192,33235,1,0,0:0:0:0:
320,192,33235,1,0,0:0:0:0:
448,192,33346,1,0,0:0:0:0:
320,192,33346,1,0,0:0:0:0:
192,192,33346,1,0,0:0:0:0:
64,192,33346,1,0,0:0:0:0:
192,192,33456,1,0,0:0:0:0:
320,192,33456,1,0,0:0:0:0:
320,192,33566,1,0,0:0:0:0:
192,192,33566,1,0,0:0:0:0:
192,192,33676,1,0,0:0:0:0:
320,192,33676,1,0,0:0:0:0:
448,192,33787,1,0,0:0:0:0:
320,192,33787,1,0,0:0:0:0:
192,192,33787,1,0,0:0:0:0:
64,192,33787,1,0,0:0:0:0:
64,192,33897,1,0,0:0:0:0:
448,192,33897,1,0,0:0:0:0:
448,192,34007,1,0,0:0:0:0:
64,192,34007,1,0,0:0:0:0:
64,192,34118,1,0,0:0:0:0:
448,192,34118,1,0,0:0:0:0:
448,192,34228,1,0,0:0:0:0:
320,192,34228,1,0,0:0:0:0:
192,192,34228,1,0,0:0:0:0:
64,192,34228,1,0,0:0:0:0:
448,192,35993,1,0,0:0:0:0:
320,192,35993,1,0,0:0:0:0:
192,192,35993,1,0,0:0:0:0:
64,192,35993,1,0,0:0:0:0:
64,192,36103,1,0,0:0:0:0:
64,192,36213,1,0,0:0:0:0:
64,192,36323,1,0,0:0:0:0:
64,192,36434,1,0,0:0:0:0:
192,192,36434,1,0,0:0:0:0:
320,192,36434,1,0,0:0:0:0:
448,192,36434,1,0,0:0:0:0:
192,192,36544,1,0,0:0:0:0:
192,192,36654,1,0,0:0:0:0:
192,192,36765,1,0,0:0:0:0:
64,192,36875,1,0,0:0:0:0:
192,192,36875,1,0,0:0:0:0:
320,192,36875,1,0,0:0:0:0:
448,192,36875,1,0,0:0:0:0:
320,192,36985,1,0,0:0:0:0:
320,192,37096,1,0,0:0:0:0:
320,192,37206,1,0,0:0:0:0:
448,192,37316,1,0,0:0:0:0:
320,192,37316,1,0,0:0:0:0:
64,192,37316,1,0,0:0:0:0:
192,192,37316,1,0,0:0:0:0:
448,192,37426,1,0,0:0:0:0:
448,192,37537,1,0,0:0:0:0:
448,192,37647,1,0,0:0:0:0:
448,192,37757,1,0,0:0:0:0:
320,192,37757,1,0,0:0:0:0:
192,192,37757,1,0,0:0:0:0:
64,192,37757,1,0,0:0:0:0:
320,192,37868,1,0,0:0:0:0:
320,192,37978,1,0,0:0:0:0:
320,192,38088,1,0,0:0:0:0:
448,192,38198,1,0,0:0:0:0:
320,192,38198,1,0,0:0:0:0:
192,192,38198,1,0,0:0:0:0:
64,192,38198,1,0,0:0:0:0:
192,192,38309,1,0,0:0:0:0:
192,192,38419,1,0,0:0:0:0:
192,192,38529,1,0,0:0:0:0:
448,192,38640,1,0,0:0:0:0:
320,192,38640,1,0,0:0:0:0:
192,192,38640,1,0,0:0:0:0:
64,192,38640,1,0,0:0:0:0:
64,192,39081,1,0,0:0:0:0:
192,192,39081,1,0,0:0:0:0:
320,192,39081,1,0,0:0:0:0:
448,192,39081,1,0,0:0:0:0:
64,192,39522,1,0,0:0:0:0:
192,192,39522,1,0,0:0:0:0:
320,192,39522,1,0,0:0:0:0:
448,192,39522,1,0,0:0:0:0:
64,192,39632,1,0,0:0:0:0:
320,192,39632,1,0,0:0:0:0:
320,192,39743,1,0,0:0:0:0:
64,192,39743,1,0,0:0:0:0:
64,192,39853,1,0,0:0:0:0:
320,192,39853,1,0,0:0:0:0:
448,192,39963,1,0,0:0:0:0:
320,192,39963,1,0,0:0:0:0:
192,192,39963,1,0,0:0:0:0:
64,192,39963,1,0,0:0:0:0:
192,192,40073,1,0,0:0:0:0:
448,192,40073,1,0,0:0:0:0:
448,192,40184,1,0,0:0:0:0:
192,192,40184,1,0,0:0:0:0:
192,192,40294,1,0,0:0:0:0:
448,192,40294,1,0,0:0:0:0:
448,192,40404,1,0,0:0:0:0:
320,192,40404,1,0,0:0:0:0:
192,192,40404,1,0,0:0:0:0:
64,192,40404,1,0,0:0:0:0:
64,192,40515,1,0,0:0:0:0:
448,192,40515,1,0,0:0:0:0:
448,192,40625,1,0,0:0:0:0:
64,192,40625,1,0,0:0:0:0:
64,192,40735,1,0,0:0:0:0:
448,192,40735,1,0,0:0:0:0:
448,192,40846,1,0,0:0:0:0:
320,192,40846,1,0,0:0:0:0:
64,192,40846,1,0,0:0:0:0:
192,192,40846,1,0,0:0:0:0:
192,192,40956,1,0,0:0:0:0:
320,192,40956,1,0,0:0:0:0:
320,192,41066,1,0,0:0:0:0:
192,192,41066,1,0,0:0:0:0:
192,192,41176,1,0,0:0:0:0:
320,192,41176,1,0,0:0:0:0:
448,192,41287,5,0,0:0:0:0:
320,192,41287,1,0,0:0:0:0:
192,192,41287,1,0,0:0:0:0:
64,192,41287,1,0,0:0:0:0:
64,192,41397,1,0,0:0:0:0:
192,192,41397,1,0,0:0:0:0:
320,192,41397,1,0,0:0:0:0:
320,192,41507,1,0,0:0:0:0:
192,192,41507,1,0,0:0:0:0:
64,192,41507,1,0,0:0:0:0:
64,192,41618,1,0,0:0:0:0:
192,192,41618,1,0,0:0:0:0:
320,192,41618,1,0,0:0:0:0:
320,192,41728,1,0,0:0:0:0:
192,192,41728,1,0,0:0:0:0:
448,192,41728,1,0,0:0:0:0:
64,192,41728,1,0,0:0:0:0:
448,192,41838,1,0,0:0:0:0:
320,192,41838,1,0,0:0:0:0:
192,192,41838,1,0,0:0:0:0:
448,192,41948,1,0,0:0:0:0:
320,192,41948,1,0,0:0:0:0:
192,192,41948,1,0,0:0:0:0:
448,192,42059,1,0,0:0:0:0:
320,192,42059,1,0,0:0:0:0:
192,192,42059,1,0,0:0:0:0:
448,192,42169,1,0,0:0:0:0:
320,192,42169,1,0,0:0:0:0:
192,192,42169,1,0,0:0:0:0:
64,192,42169,1,0,0:0:0:0:
192,192,42390,5,0,0:0:0:0:
320,192,42390,1,0,0:0:0:0:
448,192,42390,1,0,0:0:0:0:
192,192,42500,1,0,0:0:0:0:
320,192,42500,1,0,0:0:0:0:
448,192,42500,1,0,0:0:0:0:
320,192,42610,1,0,0:0:0:0:
448,192,42610,1,0,0:0:0:0:
64,192,42610,1,0,0:0:0:0:
320,192,42721,1,0,0:0:0:0:
64,192,42721,1,0,0:0:0:0:
448,192,42721,1,0,0:0:0:0:
448,192,42831,1,0,0:0:0:0:
192,192,42831,1,0,0:0:0:0:
64,192,42831,1,0,0:0:0:0:
448,192,42941,1,0,0:0:0:0:
64,192,42941,1,0,0:0:0:0:
192,192,42941,1,0,0:0:0:0:
448,192,43051,1,0,0:0:0:0:
320,192,43051,1,0,0:0:0:0:
64,192,43051,1,0,0:0:0:0:
192,192,43051,1,0,0:0:0:0:
64,192,43162,1,0,0:0:0:0:
320,192,43162,1,0,0:0:0:0:
448,192,43162,1,0,0:0:0:0:
192,192,43162,1,0,0:0:0:0:
448,192,43272,1,0,0:0:0:0:
320,192,43272,1,0,0:0:0:0:
64,192,43272,1,0,0:0:0:0:
192,192,43272,1,0,0:0:0:0:
64,192,43382,1,0,0:0:0:0:
320,192,43382,1,0,0:0:0:0:
448,192,43382,1,0,0:0:0:0:
192,192,43382,1,0,0:0:0:0:
448,192,43493,1,0,0:0:0:0:
320,192,43493,1,0,0:0:0:0:
192,192,43493,1,0,0:0:0:0:
64,192,43493,1,0,0:0:0:0:
192,192,43603,1,0,0:0:0:0:
320,192,43603,1,0,0:0:0:0:
448,192,43603,1,0,0:0:0:0:
64,192,43603,1,0,0:0:0:0:
448,192,43713,1,0,0:0:0:0:
320,192,43713,1,0,0:0:0:0:
192,192,43713,1,0,0:0:0:0:
64,192,43713,1,0,0:0:0:0:
192,192,43823,1,0,0:0:0:0:
320,192,43823,1,0,0:0:0:0:
448,192,43823,1,0,0:0:0:0:
64,192,43823,1,0,0:0:0:0:
320,192,43934,1,0,0:0:0:0:
192,192,43934,1,0,0:0:0:0:
64,192,43934,1,0,0:0:0:0:
448,192,43934,1,0,0:0:0:0:
64,192,44044,1,0,0:0:0:0:
192,192,44044,1,0,0:0:0:0:
320,192,44044,1,0,0:0:0:0:
448,192,44044,1,0,0:0:0:0:
320,192,44154,1,0,0:0:0:0:
192,192,44154,1,0,0:0:0:0:
64,192,44154,1,0,0:0:0:0:
448,192,44154,1,0,0:0:0:0:
64,192,44265,1,0,0:0:0:0:
192,192,44265,1,0,0:0:0:0:
320,192,44265,1,0,0:0:0:0:
448,192,44265,1,0,0:0:0:0:
64,192,44375,1,0,0:0:0:0:
320,192,44375,1,0,0:0:0:0:
448,192,44375,1,0,0:0:0:0:
192,192,44375,1,0,0:0:0:0:
448,192,44485,1,0,0:0:0:0:
320,192,44485,1,0,0:0:0:0:
64,192,44485,1,0,0:0:0:0:
192,192,44485,1,0,0:0:0:0:
64,192,44596,1,0,0:0:0:0:
320,192,44596,1,0,0:0:0:0:
448,192,44596,1,0,0:0:0:0:
192,192,44596,1,0,0:0:0:0:
448,192,44706,1,0,0:0:0:0:
320,192,44706,1,0,0:0:0:0:
64,192,44706,1,0,0:0:0:0:
192,192,44706,1,0,0:0:0:0:
64,192,44816,1,0,0:0:0:0:
192,192,44816,1,0,0:0:0:0:
320,192,44816,1,0,0:0:0:0:
448,192,44816,1,0,0:0:0:0:
192,192,44926,1,0,0:0:0:0:
64,192,44926,1,0,0:0:0:0:
320,192,44926,1,0,0:0:0:0:
64,192,45037,1,0,0:0:0:0:
192,192,45037,1,0,0:0:0:0:
64,192,45147,1,0,0:0:0:0:
448,192,46581,1,0,0:0:0:0:
320,192,46581,1,0,0:0:0:0:
192,192,46581,1,0,0:0:0:0:
64,192,46581,1,0,0:0:0:0:
192,192,46691,1,0,0:0:0:0:
448,192,46691,1,0,0:0:0:0:
320,192,46691,1,0,0:0:0:0:
320,192,46801,1,0,0:0:0:0:
192,192,46801,1,0,0:0:0:0:
448,192,46801,1,0,0:0:0:0:
448,192,46912,1,0,0:0:0:0:
320,192,46912,1,0,0:0:0:0:
192,192,46912,1,0,0:0:0:0:
64,192,47022,1,0,0:0:0:0:
192,192,47022,1,0,0:0:0:0:
320,192,47022,1,0,0:0:0:0:
448,192,47022,1,0,0:0:0:0:
64,192,47132,1,0,0:0:0:0:
192,192,47132,1,0,0:0:0:0:
448,192,47132,1,0,0:0:0:0:
448,192,47243,1,0,0:0:0:0:
192,192,47243,1,0,0:0:0:0:
64,192,47243,1,0,0:0:0:0:
448,192,47353,1,0,0:0:0:0:
192,192,47353,1,0,0:0:0:0:
64,192,47353,1,0,0:0:0:0:
64,192,47463,1,0,0:0:0:0:
192,192,47463,1,0,0:0:0:0:
320,192,47463,1,0,0:0:0:0:
448,192,47463,1,0,0:0:0:0:
320,192,47573,1,0,0:0:0:0:
64,192,47573,1,0,0:0:0:0:
192,192,47573,1,0,0:0:0:0:
64,192,47684,1,0,0:0:0:0:
192,192,47684,1,0,0:0:0:0:
320,192,47684,1,0,0:0:0:0:
320,192,47794,1,0,0:0:0:0:
192,192,47794,1,0,0:0:0:0:
64,192,47794,1,0,0:0:0:0:
64,192,47904,1,0,0:0:0:0:
192,192,47904,1,0,0:0:0:0:
320,192,47904,1,0,0:0:0:0:
448,192,47904,1,0,0:0:0:0:
64,192,48015,1,0,0:0:0:0:
320,192,48015,1,0,0:0:0:0:
448,192,48015,1,0,0:0:0:0:
448,192,48125,1,0,0:0:0:0:
320,192,48125,1,0,0:0:0:0:
64,192,48125,1,0,0:0:0:0:
448,192,48235,1,0,0:0:0:0:
320,192,48235,1,0,0:0:0:0:
64,192,48235,1,0,0:0:0:0:
64,192,48346,1,0,0:0:0:0:
192,192,48346,1,0,0:0:0:0:
320,192,48346,1,0,0:0:0:0:
448,192,48346,1,0,0:0:0:0:
192,192,48456,1,0,0:0:0:0:
320,192,48456,1,0,0:0:0:0:
448,192,48456,1,0,0:0:0:0:
448,192,48566,1,0,0:0:0:0:
320,192,48566,1,0,0:0:0:0:
192,192,48566,1,0,0:0:0:0:
192,192,48676,1,0,0:0:0:0:
320,192,48676,1,0,0:0:0:0:
448,192,48676,1,0,0:0:0:0:
448,192,48787,1,0,0:0:0:0:
320,192,48787,1,0,0:0:0:0:
192,192,48787,1,0,0:0:0:0:
64,192,48787,1,0,0:0:0:0:
64,192,48897,1,0,0:0:0:0:
320,192,48897,1,0,0:0:0:0:
448,192,48897,1,0,0:0:0:0:
448,192,49007,1,0,0:0:0:0:
320,192,49007,1,0,0:0:0:0:
64,192,49007,1,0,0:0:0:0:
64,192,49118,1,0,0:0:0:0:
320,192,49118,1,0,0:0:0:0:
448,192,49118,1,0,0:0:0:0:
448,192,49228,1,0,0:0:0:0:
320,192,49228,1,0,0:0:0:0:
192,192,49228,1,0,0:0:0:0:
64,192,49228,1,0,0:0:0:0:
64,192,49338,1,0,0:0:0:0:
192,192,49338,1,0,0:0:0:0:
320,192,49338,1,0,0:0:0:0:
320,192,49448,1,0,0:0:0:0:
192,192,49448,1,0,0:0:0:0:
64,192,49448,1,0,0:0:0:0:
64,192,49559,1,0,0:0:0:0:
192,192,49559,1,0,0:0:0:0:
320,192,49559,1,0,0:0:0:0:
64,192,49669,1,0,0:0:0:0:
192,192,49669,1,0,0:0:0:0:
320,192,49669,1,0,0:0:0:0:
448,192,49669,1,0,0:0:0:0:
448,192,49779,1,0,0:0:0:0:
192,192,49779,1,0,0:0:0:0:
64,192,49779,1,0,0:0:0:0:
64,192,49890,1,0,0:0:0:0:
448,192,49890,1,0,0:0:0:0:
192,192,49890,1,0,0:0:0:0:
448,192,50000,1,0,0:0:0:0:
64,192,50000,1,0,0:0:0:0:
192,192,50000,1,0,0:0:0:0:
64,192,50110,1,0,0:0:0:0:
192,192,50110,1,0,0:0:0:0:
64,192,50221,1,0,0:0:0:0:
64,192,50331,1,0,0:0:0:0:
64,192,50441,1,0,0:0:0:0:
64,192,50551,1,0,0:0:0:0:
192,192,50551,1,0,0:0:0:0:
64,192,50662,1,0,0:0:0:0:
64,192,50772,1,0,0:0:0:0:
64,192,50882,1,0,0:0:0:0:
192,192,50993,1,0,0:0:0:0:
64,192,50993,1,0,0:0:0:0:
64,192,51103,1,0,0:0:0:0:
64,192,51213,1,0,0:0:0:0:
64,192,51323,1,0,0:0:0:0:
64,192,51434,1,0,0:0:0:0:
192,192,51434,1,0,0:0:0:0:
64,192,51544,1,0,0:0:0:0:
64,192,51654,1,0,0:0:0:0:
64,192,51765,1,0,0:0:0:0:
64,192,51875,1,0,0:0:0:0:
192,192,51875,1,0,0:0:0:0:
192,192,51985,1,0,0:0:0:0:
192,192,52096,1,0,0:0:0:0:
192,192,52206,1,0,0:0:0:0:
192,192,52316,1,0,0:0:0:0:
320,192,52316,1,0,0:0:0:0:
192,192,52426,1,0,0:0:0:0:
192,192,52537,1,0,0:0:0:0:
192,192,52647,1,0,0:0:0:0:
192,192,52757,1,0,0:0:0:0:
320,192,52757,1,0,0:0:0:0:
192,192,52868,1,0,0:0:0:0:
192,192,52978,1,0,0:0:0:0:
192,192,53088,1,0,0:0:0:0:
192,192,53198,1,0,0:0:0:0:
320,192,53198,1,0,0:0:0:0:
192,192,53309,1,0,0:0:0:0:
192,192,53419,1,0,0:0:0:0:
192,192,53529,1,0,0:0:0:0:
192,192,53640,1,0,0:0:0:0:
320,192,53640,1,0,0:0:0:0:
320,192,53750,1,0,0:0:0:0:
320,192,53860,1,0,0:0:0:0:
320,192,53971,1,0,0:0:0:0:
320,192,54081,1,0,0:0:0:0:
448,192,54081,1,0,0:0:0:0:
320,192,54191,1,0,0:0:0:0:
320,192,54301,1,0,0:0:0:0:
320,192,54412,1,0,0:0:0:0:
320,192,54522,1,0,0:0:0:0:
448,192,54522,1,0,0:0:0:0:
320,192,54632,1,0,0:0:0:0:
320,192,54743,1,0,0:0:0:0:
320,192,54853,1,0,0:0:0:0:
320,192,54963,1,0,0:0:0:0:
448,192,54963,1,0,0:0:0:0:
320,192,55073,1,0,0:0:0:0:
320,192,55184,1,0,0:0:0:0:
320,192,55294,1,0,0:0:0:0:
320,192,55404,1,0,0:0:0:0:
448,192,55404,1,0,0:0:0:0:
448,192,55515,1,0,0:0:0:0:
448,192,55625,1,0,0:0:0:0:
448,192,55735,1,0,0:0:0:0:
448,192,55846,1,0,0:0:0:0:
320,192,55846,1,0,0:0:0:0:
320,192,55956,1,0,0:0:0:0:
320,192,56066,1,0,0:0:0:0:
320,192,56176,1,0,0:0:0:0:
320,192,56287,1,0,0:0:0:0:
192,192,56287,1,0,0:0:0:0:
192,192,56397,1,0,0:0:0:0:
192,192,56507,1,0,0:0:0:0:
192,192,56618,1,0,0:0:0:0:
192,192,56728,1,0,0:0:0:0:
64,192,56728,1,0,0:0:0:0:
64,192,57169,1,0,0:0:0:0:
320,192,57169,1,0,0:0:0:0:
320,192,57279,1,0,0:0:0:0:
64,192,57279,1,0,0:0:0:0:
64,192,57390,1,0,0:0:0:0:
320,192,57390,1,0,0:0:0:0:
320,192,57500,1,0,0:0:0:0:
64,192,57500,1,0,0:0:0:0:
192,192,57610,1,0,0:0:0:0:
448,192,57610,1,0,0:0:0:0:
320,192,57610,1,0,0:0:0:0:
64,192,57610,1,0,0:0:0:0:
448,192,57721,1,0,0:0:0:0:
192,192,57721,1,0,0:0:0:0:
192,192,57831,1,0,0:0:0:0:
448,192,57831,1,0,0:0:0:0:
448,192,57941,1,0,0:0:0:0:
192,192,57941,1,0,0:0:0:0:
192,192,58051,1,0,0:0:0:0:
320,192,58051,1,0,0:0:0:0:
64,192,58051,1,0,0:0:0:0:
448,192,58051,1,0,0:0:0:0:
448,192,58272,1,0,0:0:0:0:
320,192,58272,1,0,0:0:0:0:
64,192,58272,1,0,0:0:0:0:
192,192,58493,1,0,0:0:0:0:
320,192,58493,1,0,0:0:0:0:
448,192,58493,1,0,0:0:0:0:
64,192,58493,1,0,0:0:0:0:
448,192,58603,1,0,0:0:0:0:
64,192,58603,1,0,0:0:0:0:
64,192,58713,1,0,0:0:0:0:
448,192,58713,1,0,0:0:0:0:
448,192,58823,1,0,0:0:0:0:
64,192,58823,1,0,0:0:0:0:
448,192,58934,1,0,0:0:0:0:
320,192,58934,1,0,0:0:0:0:
192,192,58934,1,0,0:0:0:0:
64,192,58934,1,0,0:0:0:0:
320,192,59044,1,0,0:0:0:0:
192,192,59044,1,0,0:0:0:0:
320,192,59154,1,0,0:0:0:0:
192,192,59154,1,0,0:0:0:0:
192,192,59265,1,0,0:0:0:0:
320,192,59265,1,0,0:0:0:0:
64,192,59375,1,0,0:0:0:0:
320,192,59375,1,0,0:0:0:0:
192,192,59375,1,0,0:0:0:0:
448,192,59375,1,0,0:0:0:0:
64,192,59485,1,0,0:0:0:0:
320,192,59485,1,0,0:0:0:0:
320,192,59596,1,0,0:0:0:0:
64,192,59596,1,0,0:0:0:0:
320,192,59706,1,0,0:0:0:0:
64,192,59706,1,0,0:0:0:0:
64,192,59816,1,0,0:0:0:0:
192,192,59816,1,0,0:0:0:0:
320,192,59816,1,0,0:0:0:0:
448,192,59816,1,0,0:0:0:0:
192,192,59926,1,0,0:0:0:0:
448,192,59926,1,0,0:0:0:0:
448,192,60037,1,0,0:0:0:0:
192,192,60037,1,0,0:0:0:0:
192,192,60147,1,0,0:0:0:0:
448,192,60147,1,0,0:0:0:0:
64,192,60257,1,0,0:0:0:0:
192,192,60257,1,0,0:0:0:0:
448,192,60257,1,0,0:0:0:0:
320,192,60257,1,0,0:0:0:0:
64,192,60368,1,0,0:0:0:0:
448,192,60368,1,0,0:0:0:0:
448,192,60478,1,0,0:0:0:0:
64,192,60478,1,0,0:0:0:0:
448,192,60588,1,0,0:0:0:0:
64,192,60588,1,0,0:0:0:0:
192,192,60698,1,0,0:0:0:0:
320,192,60698,1,0,0:0:0:0:
448,192,60698,1,0,0:0:0:0:
64,192,60698,1,0,0:0:0:0:
64,192,60809,1,0,0:0:0:0:
192,192,60809,1,0,0:0:0:0:
320,192,60809,1,0,0:0:0:0:
320,192,60919,1,0,0:0:0:0:
192,192,60919,1,0,0:0:0:0:
64,192,60919,1,0,0:0:0:0:
64,192,61029,1,0,0:0:0:0:
192,192,61029,1,0,0:0:0:0:
320,192,61029,1,0,0:0:0:0:
64,192,61140,1,0,0:0:0:0:
320,192,61140,1,0,0:0:0:0:
448,192,61140,1,0,0:0:0:0:
192,192,61140,1,0,0:0:0:0:
64,192,61250,1,0,0:0:0:0:
320,192,61250,1,0,0:0:0:0:
448,192,61250,1,0,0:0:0:0:
320,192,61360,5,0,0:0:0:0:
448,192,61360,1,0,0:0:0:0:
64,192,61360,1,0,0:0:0:0:
320,192,61471,1,0,0:0:0:0:
64,192,61471,1,0,0:0:0:0:
448,192,61471,1,0,0:0:0:0:
192,192,61581,1,0,0:0:0:0:
64,192,61581,1,0,0:0:0:0:
320,192,61581,1,0,0:0:0:0:
448,192,61581,1,0,0:0:0:0:
448,192,61691,1,0,0:0:0:0:
192,192,61691,1,0,0:0:0:0:
64,192,61691,1,0,0:0:0:0:
448,192,61801,1,0,0:0:0:0:
192,192,61801,1,0,0:0:0:0:
64,192,61801,1,0,0:0:0:0:
192,192,61912,1,0,0:0:0:0:
64,192,61912,1,0,0:0:0:0:
448,192,61912,1,0,0:0:0:0:
192,192,62022,1,0,0:0:0:0:
64,192,62022,1,0,0:0:0:0:
320,192,62022,1,0,0:0:0:0:
448,192,62022,1,0,0:0:0:0:
448,192,62132,1,0,0:0:0:0:
320,192,62132,1,0,0:0:0:0:
192,192,62132,1,0,0:0:0:0:
448,192,62243,1,0,0:0:0:0:
320,192,62243,1,0,0:0:0:0:
192,192,62243,1,0,0:0:0:0:
192,192,62353,1,0,0:0:0:0:
448,192,62353,1,0,0:0:0:0:
320,192,62353,1,0,0:0:0:0:
448,192,62463,5,0,0:0:0:0:
320,192,62463,1,0,0:0:0:0:
192,192,62463,1,0,0:0:0:0:
64,192,62463,1,0,0:0:0:0:
64,192,62491,1,0,0:0:0:0:
192,192,62491,1,0,0:0:0:0:
448,192,62518,1,0,0:0:0:0:
320,192,62518,1,0,0:0:0:0:
192,192,62546,1,0,0:0:0:0:
64,192,62546,1,0,0:0:0:0:
448,192,62573,1,0,0:0:0:0:
320,192,62573,1,0,0:0:0:0:
192,192,62601,1,0,0:0:0:0:
64,192,62601,1,0,0:0:0:0:
448,192,62629,1,0,0:0:0:0:
320,192,62629,1,0,0:0:0:0:
64,192,62656,1,0,0:0:0:0:
192,192,62656,1,0,0:0:0:0:
448,192,62684,1,0,0:0:0:0:
320,192,62684,1,0,0:0:0:0:
64,192,62711,1,0,0:0:0:0:
192,192,62711,1,0,0:0:0:0:
320,192,62739,1,0,0:0:0:0:
448,192,62739,1,0,0:0:0:0:
192,192,62767,1,0,0:0:0:0:
64,192,62767,1,0,0:0:0:0:
320,192,62794,1,0,0:0:0:0:
448,192,62794,1,0,0:0:0:0:
192,192,62822,1,0,0:0:0:0:
64,192,62822,1,0,0:0:0:0:
320,192,62849,1,0,0:0:0:0:
448,192,62849,1,0,0:0:0:0:
192,192,62877,1,0,0:0:0:0:
64,192,62877,1,0,0:0:0:0:
448,192,62904,1,0,0:0:0:0:
320,192,62904,1,0,0:0:0:0:
64,192,62932,1,0,0:0:0:0:
192,192,62932,1,0,0:0:0:0:
448,192,62960,1,0,0:0:0:0:
320,192,62960,1,0,0:0:0:0:
64,192,62987,1,0,0:0:0:0:
192,192,62987,1,0,0:0:0:0:
448,192,63015,1,0,0:0:0:0:
320,192,63015,1,0,0:0:0:0:
64,192,63042,1,0,0:0:0:0:
192,192,63042,1,0,0:0:0:0:
320,192,63070,1,0,0:0:0:0:
448,192,63070,1,0,0:0:0:0:
192,192,63097,1,0,0:0:0:0:
64,192,63097,1,0,0:0:0:0:
320,192,63125,1,0,0:0:0:0:
448,192,63125,1,0,0:0:0:0:
192,192,63153,1,0,0:0:0:0:
64,192,63153,1,0,0:0:0:0:
320,192,63180,1,0,0:0:0:0:
448,192,63180,1,0,0:0:0:0:
192,192,63208,1,0,0:0:0:0:
64,192,63208,1,0,0:0:0:0:
448,192,63235,1,0,0:0:0:0:
320,192,63235,1,0,0:0:0:0:
64,192,63263,1,0,0:0:0:0:
192,192,63263,1,0,0:0:0:0:
448,192,63290,1,0,0:0:0:0:
320,192,63290,1,0,0:0:0:0:
64,192,63318,1,0,0:0:0:0:
192,192,63318,1,0,0:0:0:0:
448,192,63346,1,0,0:0:0:0:
320,192,63346,1,0,0:0:0:0:
64,192,63373,1,0,0:0:0:0:
192,192,63373,1,0,0:0:0:0:
320,192,63401,1,0,0:0:0:0:
448,192,63401,1,0,0:0:0:0:
192,192,63428,1,0,0:0:0:0:
64,192,63428,1,0,0:0:0:0:
448,192,63456,1,0,0:0:0:0:
320,192,63456,1,0,0:0:0:0:
64,192,63483,1,0,0:0:0:0:
192,192,63483,1,0,0:0:0:0:
448,192,63511,1,0,0:0:0:0:
320,192,63511,1,0,0:0:0:0:
64,192,63539,1,0,0:0:0:0:
192,192,63539,1,0,0:0:0:0:
320,192,63566,1,0,0:0:0:0:
448,192,63566,1,0,0:0:0:0:
192,192,63594,1,0,0:0:0:0:
64,192,63594,1,0,0:0:0:0:
320,192,63621,1,0,0:0:0:0:
448,192,63621,1,0,0:0:0:0:
192,192,63649,1,0,0:0:0:0:
64,192,63649,1,0,0:0:0:0:
320,192,63676,1,0,0:0:0:0:
448,192,63676,1,0,0:0:0:0:
192,192,63704,1,0,0:0:0:0:
64,192,63704,1,0,0:0:0:0:
448,192,63732,1,0,0:0:0:0:
320,192,63732,1,0,0:0:0:0:
64,192,63759,1,0,0:0:0:0:
192,192,63759,1,0,0:0:0:0:
448,192,63787,1,0,0:0:0:0:
320,192,63787,1,0,0:0:0:0:
64,192,63814,1,0,0:0:0:0:
192,192,63814,1,0,0:0:0:0:
448,192,63842,1,0,0:0:0:0:
320,192,63842,1,0,0:0:0:0:
64,192,63869,1,0,0:0:0:0:
192,192,63869,1,0,0:0:0:0:
320,192,63897,1,0,0:0:0:0:
448,192,63897,1,0,0:0:0:0:
192,192,63925,1,0,0:0:0:0:
64,192,63925,1,0,0:0:0:0:
320,192,63952,1,0,0:0:0:0:
448,192,63952,1,0,0:0:0:0:
192,192,63980,1,0,0:0:0:0:
64,192,63980,1,0,0:0:0:0:
320,192,64007,1,0,0:0:0:0:
448,192,64007,1,0,0:0:0:0:
192,192,64035,1,0,0:0:0:0:
64,192,64035,1,0,0:0:0:0:
448,192,64062,1,0,0:0:0:0:
320,192,64062,1,0,0:0:0:0:
64,192,64090,1,0,0:0:0:0:
192,192,64090,1,0,0:0:0:0:
448,192,64118,1,0,0:0:0:0:
320,192,64118,1,0,0:0:0:0:
192,192,64145,1,0,0:0:0:0:
64,192,64145,1,0,0:0:0:0:
320,192,64173,1,0,0:0:0:0:
448,192,64173,1,0,0:0:0:0:
192,192,64200,1,0,0:0:0:0:
64,192,64200,1,0,0:0:0:0:
448,192,64228,1,0,0:0:0:0:
320,192,64228,1,0,0:0:0:0:
64,192,65993,1,0,0:0:0:0:
192,192,66048,1,0,0:0:0:0:
320,192,66103,1,0,0:0:0:0:
448,192,66158,1,0,0:0:0:0:
64,192,66213,1,0,0:0:0:0:
192,192,66268,1,0,0:0:0:0:
320,192,66323,1,0,0:0:0:0:
448,192,66379,1,0,0:0:0:0:
64,192,66434,1,0,0:0:0:0:
192,192,66471,1,0,0:0:0:0:
320,192,66507,1,0,0:0:0:0:
448,192,66544,1,0,0:0:0:0:
64,192,66581,1,0,0:0:0:0:
192,192,66618,1,0,0:0:0:0:
320,192,66654,1,0,0:0:0:0:
448,192,66691,1,0,0:0:0:0:
64,192,66728,1,0,0:0:0:0:
192,192,66765,1,0,0:0:0:0:
320,192,66801,1,0,0:0:0:0:
448,192,66838,1,0,0:0:0:0:
64,192,66875,1,0,0:0:0:0:
192,192,66903,1,0,0:0:0:0:
320,192,66930,1,0,0:0:0:0:
448,192,66958,1,0,0:0:0:0:
64,192,66985,1,0,0:0:0:0:
192,192,67013,1,0,0:0:0:0:
320,192,67040,1,0,0:0:0:0:
448,192,67068,1,0,0:0:0:0:
64,192,67096,1,0,0:0:0:0:
192,192,67123,1,0,0:0:0:0:
320,192,67151,1,0,0:0:0:0:
448,192,67178,1,0,0:0:0:0:
64,192,67206,1,0,0:0:0:0:
192,192,67233,1,0,0:0:0:0:
320,192,67261,1,0,0:0:0:0:
448,192,67289,1,0,0:0:0:0:
448,192,67316,1,0,0:0:0:0:
64,192,67316,1,0,0:0:0:0:
320,192,67316,1,0,0:0:0:0:
192,192,67316,1,0,0:0:0:0:
64,192,67426,1,0,0:0:0:0:
448,192,67426,1,0,0:0:0:0:
448,192,67537,1,0,0:0:0:0:
64,192,67537,1,0,0:0:0:0:
64,192,67647,1,0,0:0:0:0:
448,192,67647,1,0,0:0:0:0:
64,192,67757,1,0,0:0:0:0:
192,192,67757,1,0,0:0:0:0:
320,192,67757,1,0,0:0:0:0:
448,192,67757,1,0,0:0:0:0:
192,192,67868,1,0,0:0:0:0:
64,192,67868,1,0,0:0:0:0:
64,192,67978,1,0,0:0:0:0:
192,192,67978,1,0,0:0:0:0:
192,192,68088,1,0,0:0:0:0:
64,192,68088,1,0,0:0:0:0:
448,192,68198,1,0,0:0:0:0:
320,192,68198,1,0,0:0:0:0:
192,192,68198,1,0,0:0:0:0:
64,192,68198,1,0,0:0:0:0:
448,192,68309,1,0,0:0:0:0:
320,192,68309,1,0,0:0:0:0:
448,192,68419,1,0,0:0:0:0:
320,192,68419,1,0,0:0:0:0:
448,192,68529,1,0,0:0:0:0:
320,192,68529,1,0,0:0:0:0:
320,192,68640,1,0,0:0:0:0:
192,192,68640,1,0,0:0:0:0:
448,192,68640,1,0,0:0:0:0:
64,192,68640,1,0,0:0:0:0:
192,192,68750,1,0,0:0:0:0:
320,192,68750,1,0,0:0:0:0:
320,192,68860,1,0,0:0:0:0:
192,192,68860,1,0,0:0:0:0:
192,192,68971,1,0,0:0:0:0:
320,192,68971,1,0,0:0:0:0:
64,192,69081,1,0,0:0:0:0:
448,192,69081,1,0,0:0:0:0:
320,192,69081,1,0,0:0:0:0:
192,192,69081,1,0,0:0:0:0:
448,192,69191,1,0,0:0:0:0:
64,192,69191,1,0,0:0:0:0:
64,192,69301,1,0,0:0:0:0:
448,192,69301,1,0,0:0:0:0:
448,192,69412,1,0,0:0:0:0:
64,192,69412,1,0,0:0:0:0:
64,192,69522,1,0,0:0:0:0:
320,192,69522,1,0,0:0:0:0:
448,192,69522,1,0,0:0:0:0:
192,192,69522,1,0,0:0:0:0:
320,192,69632,1,0,0:0:0:0:
64,192,69632,1,0,0:0:0:0:
64,192,69743,1,0,0:0:0:0:
320,192,69743,1,0,0:0:0:0:
320,192,69853,1,0,0:0:0:0:
64,192,69853,1,0,0:0:0:0:
448,192,69963,1,0,0:0:0:0:
192,192,69963,1,0,0:0:0:0:
320,192,69963,1,0,0:0:0:0:
64,192,69963,1,0,0:0:0:0:
192,192,70073,1,0,0:0:0:0:
448,192,70073,1,0,0:0:0:0:
448,192,70184,1,0,0:0:0:0:
192,192,70184,1,0,0:0:0:0:
192,192,70294,1,0,0:0:0:0:
448,192,70294,1,0,0:0:0:0:
64,192,70404,1,0,0:0:0:0:
192,192,70404,1,0,0:0:0:0:
320,192,70404,1,0,0:0:0:0:
448,192,70404,1,0,0:0:0:0:
64,192,70515,1,0,0:0:0:0:
448,192,70515,1,0,0:0:0:0:
448,192,70625,1,0,0:0:0:0:
64,192,70625,1,0,0:0:0:0:
64,192,70735,1,0,0:0:0:0:
448,192,70735,1,0,0:0:0:0:
448,192,70846,1,0,0:0:0:0:
320,192,70846,1,0,0:0:0:0:
192,192,70846,1,0,0:0:0:0:
64,192,70846,1,0,0:0:0:0:
192,192,70956,1,0,0:0:0:0:
320,192,70956,1,0,0:0:0:0:
320,192,71066,1,0,0:0:0:0:
192,192,71066,1,0,0:0:0:0:
192,192,71176,1,0,0:0:0:0:
320,192,71176,1,0,0:0:0:0:
320,192,71287,1,0,0:0:0:0:
192,192,71287,1,0,0:0:0:0:
448,192,71287,1,0,0:0:0:0:
64,192,71287,1,0,0:0:0:0:
320,192,71397,1,0,0:0:0:0:
64,192,71397,1,0,0:0:0:0:
64,192,71507,1,0,0:0:0:0:
320,192,71507,1,0,0:0:0:0:
320,192,71618,1,0,0:0:0:0:
64,192,71618,1,0,0:0:0:0:
64,192,71728,1,0,0:0:0:0:
192,192,71728,1,0,0:0:0:0:
320,192,71728,1,0,0:0:0:0:
448,192,71728,1,0,0:0:0:0:
448,192,71838,1,0,0:0:0:0:
192,192,71838,1,0,0:0:0:0:
192,192,71948,1,0,0:0:0:0:
448,192,71948,1,0,0:0:0:0:
448,192,72059,1,0,0:0:0:0:
192,192,72059,1,0,0:0:0:0:
192,192,72169,1,0,0:0:0:0:
448,192,72169,1,0,0:0:0:0:
320,192,72169,1,0,0:0:0:0:
64,192,72169,1,0,0:0:0:0:
320,192,72279,1,0,0:0:0:0:
448,192,72279,1,0,0:0:0:0:
448,192,72390,1,0,0:0:0:0:
320,192,72390,1,0,0:0:0:0:
320,192,72500,1,0,0:0:0:0:
448,192,72500,1,0,0:0:0:0:
448,192,72610,1,0,0:0:0:0:
320,192,72610,1,0,0:0:0:0:
192,192,72610,1,0,0:0:0:0:
64,192,72610,1,0,0:0:0:0:
192,192,72721,1,0,0:0:0:0:
320,192,72721,1,0,0:0:0:0:
320,192,72831,1,0,0:0:0:0:
192,192,72831,1,0,0:0:0:0:
320,192,72941,1,0,0:0:0:0:
192,192,72941,1,0,0:0:0:0:
448,192,73051,1,0,0:0:0:0:
320,192,73051,1,0,0:0:0:0:
192,192,73051,1,0,0:0:0:0:
64,192,73051,1,0,0:0:0:0:
64,192,73162,1,0,0:0:0:0:
192,192,73162,1,0,0:0:0:0:
192,192,73272,1,0,0:0:0:0:
64,192,73272,1,0,0:0:0:0:
64,192,73382,1,0,0:0:0:0:
192,192,73382,1,0,0:0:0:0:
192,192,73493,1,0,0:0:0:0:
64,192,73493,1,0,0:0:0:0:
320,192,73493,1,0,0:0:0:0:
448,192,73493,1,0,0:0:0:0:
64,192,73603,1,0,0:0:0:0:
448,192,73603,1,0,0:0:0:0:
448,192,73713,1,0,0:0:0:0:
64,192,73713,1,0,0:0:0:0:
64,192,73823,1,0,0:0:0:0:
448,192,73823,1,0,0:0:0:0:
448,192,73934,1,0,0:0:0:0:
320,192,73934,1,0,0:0:0:0:
192,192,73934,1,0,0:0:0:0:
64,192,73934,1,0,0:0:0:0:
192,192,74044,1,0,0:0:0:0:
448,192,74044,1,0,0:0:0:0:
448,192,74154,1,0,0:0:0:0:
192,192,74154,1,0,0:0:0:0:
192,192,74265,1,0,0:0:0:0:
448,192,74265,1,0,0:0:0:0:
448,192,74375,1,0,0:0:0:0:
320,192,74375,1,0,0:0:0:0:
192,192,74375,1,0,0:0:0:0:
64,192,74375,1,0,0:0:0:0:
64,192,74485,1,0,0:0:0:0:
320,192,74485,1,0,0:0:0:0:
320,192,74596,1,0,0:0:0:0:
64,192,74596,1,0,0:0:0:0:
64,192,74706,1,0,0:0:0:0:
320,192,74706,1,0,0:0:0:0:
64,192,74816,1,0,0:0:0:0:
192,192,74816,1,0,0:0:0:0:
320,192,74816,1,0,0:0:0:0:
448,192,74816,1,0,0:0:0:0:
192,192,74926,1,0,0:0:0:0:
320,192,74926,1,0,0:0:0:0:
320,192,75037,1,0,0:0:0:0:
192,192,75037,1,0,0:0:0:0:
192,192,75147,1,0,0:0:0:0:
320,192,75147,1,0,0:0:0:0:
448,192,75257,1,0,0:0:0:0:
320,192,75257,1,0,0:0:0:0:
192,192,75257,1,0,0:0:0:0:
64,192,75257,1,0,0:0:0:0:
64,192,75368,1,0,0:0:0:0:
320,192,75368,1,0,0:0:0:0:
320,192,75478,1,0,0:0:0:0:
64,192,75478,1,0,0:0:0:0:
320,192,75588,1,0,0:0:0:0:
64,192,75588,1,0,0:0:0:0:
192,192,75698,1,0,0:0:0:0:
64,192,75698,1,0,0:0:0:0:
320,192,75698,1,0,0:0:0:0:
448,192,75698,1,0,0:0:0:0:
448,192,75809,1,0,0:0:0:0:
192,192,75809,1,0,0:0:0:0:
192,192,75919,1,0,0:0:0:0:
448,192,75919,1,0,0:0:0:0:
448,192,76029,1,0,0:0:0:0:
192,192,76029,1,0,0:0:0:0:
192,192,76140,1,0,0:0:0:0:
320,192,76140,1,0,0:0:0:0:
448,192,76140,1,0,0:0:0:0:
64,192,76140,1,0,0:0:0:0:
64,192,76250,1,0,0:0:0:0:
448,192,76250,1,0,0:0:0:0:
448,192,76360,1,0,0:0:0:0:
64,192,76360,1,0,0:0:0:0:
64,192,76471,1,0,0:0:0:0:
448,192,76471,1,0,0:0:0:0:
448,192,76581,1,0,0:0:0:0:
320,192,76581,1,0,0:0:0:0:
192,192,76581,1,0,0:0:0:0:
64,192,76581,1,0,0:0:0:0:
192,192,76691,1,0,0:0:0:0:
448,192,76691,1,0,0:0:0:0:
448,192,76801,1,0,0:0:0:0:
192,192,76801,1,0,0:0:0:0:
192,192,76912,1,0,0:0:0:0:
448,192,76912,1,0,0:0:0:0:
448,192,77022,1,0,0:0:0:0:
320,192,77022,1,0,0:0:0:0:
192,192,77022,1,0,0:0:0:0:
64,192,77022,1,0,0:0:0:0:
192,192,77132,1,0,0:0:0:0:
320,192,77132,1,0,0:0:0:0:
320,192,77243,1,0,0:0:0:0:
192,192,77243,1,0,0:0:0:0:
192,192,77353,1,0,0:0:0:0:
320,192,77353,1,0,0:0:0:0:
320,192,77463,1,0,0:0:0:0:
192,192,77463,1,0,0:0:0:0:
64,192,77463,1,0,0:0:0:0:
448,192,77463,1,0,0:0:0:0:
64,192,77573,1,0,0:0:0:0:
192,192,77573,1,0,0:0:0:0:
192,192,77684,1,0,0:0:0:0:
64,192,77684,1,0,0:0:0:0:
64,192,77794,1,0,0:0:0:0:
192,192,77794,1,0,0:0:0:0:
64,192,77904,1,0,0:0:0:0:
192,192,77904,1,0,0:0:0:0:
320,192,77904,1,0,0:0:0:0:
448,192,77904,1,0,0:0:0:0:
448,192,78015,1,0,0:0:0:0:
320,192,78015,1,0,0:0:0:0:
320,192,78125,1,0,0:0:0:0:
448,192,78125,1,0,0:0:0:0:
448,192,78235,1,0,0:0:0:0:
320,192,78235,1,0,0:0:0:0:
448,192,78346,1,0,0:0:0:0:
320,192,78346,1,0,0:0:0:0:
192,192,78346,1,0,0:0:0:0:
64,192,78346,1,0,0:0:0:0:
64,192,78456,1,0,0:0:0:0:
320,192,78456,1,0,0:0:0:0:
320,192,78566,1,0,0:0:0:0:
64,192,78566,1,0,0:0:0:0:
64,192,78676,1,0,0:0:0:0:
320,192,78676,1,0,0:0:0:0:
320,192,78787,1,0,0:0:0:0:
192,192,78787,1,0,0:0:0:0:
64,192,78787,1,0,0:0:0:0:
448,192,78787,1,0,0:0:0:0:
64,192,78897,1,0,0:0:0:0:
448,192,78897,1,0,0:0:0:0:
448,192,79007,1,0,0:0:0:0:
64,192,79007,1,0,0:0:0:0:
64,192,79118,1,0,0:0:0:0:
448,192,79118,1,0,0:0:0:0:
448,192,79228,1,0,0:0:0:0:
320,192,79228,1,0,0:0:0:0:
192,192,79228,1,0,0:0:0:0:
64,192,79228,1,0,0:0:0:0:
320,192,79338,1,0,0:0:0:0:
448,192,79338,1,0,0:0:0:0:
448,192,79448,1,0,0:0:0:0:
320,192,79448,1,0,0:0:0:0:
320,192,79559,1,0,0:0:0:0:
448,192,79559,1,0,0:0:0:0:
448,192,79669,1,0,0:0:0:0:
320,192,79669,1,0,0:0:0:0:
192,192,79669,1,0,0:0:0:0:
64,192,79669,1,0,0:0:0:0:
64,192,79779,1,0,0:0:0:0:
192,192,79779,1,0,0:0:0:0:
192,192,79890,1,0,0:0:0:0:
64,192,79890,1,0,0:0:0:0:
64,192,80000,1,0,0:0:0:0:
192,192,80000,1,0,0:0:0:0:
64,192,80110,1,0,0:0:0:0:
192,192,80110,1,0,0:0:0:0:
320,192,80110,1,0,0:0:0:0:
448,192,80110,1,0,0:0:0:0:
64,192,80221,1,0,0:0:0:0:
320,192,80221,1,0,0:0:0:0:
320,192,80331,1,0,0:0:0:0:
64,192,80331,1,0,0:0:0:0:
64,192,80441,1,0,0:0:0:0:
320,192,80441,1,0,0:0:0:0:
64,192,80551,1,0,0:0:0:0:
192,192,80551,1,0,0:0:0:0:
320,192,80551,1,0,0:0:0:0:
448,192,80551,1,0,0:0:0:0:
448,192,80662,1,0,0:0:0:0:
192,192,80662,1,0,0:0:0:0:
192,192,80772,1,0,0:0:0:0:
448,192,80772,1,0,0:0:0:0:
448,192,80882,1,0,0:0:0:0:
192,192,80882,1,0,0:0:0:0:
448,192,80993,1,0,0:0:0:0:
320,192,80993,1,0,0:0:0:0:
192,192,80993,1,0,0:0:0:0:
64,192,80993,1,0,0:0:0:0:
64,192,81103,1,0,0:0:0:0:
448,192,81103,1,0,0:0:0:0:
448,192,81213,1,0,0:0:0:0:
64,192,81213,1,0,0:0:0:0:
64,192,81323,1,0,0:0:0:0:
448,192,81323,1,0,0:0:0:0:
320,192,81434,1,0,0:0:0:0:
448,192,81434,1,0,0:0:0:0:
192,192,81434,1,0,0:0:0:0:
64,192,81434,1,0,0:0:0:0:
192,192,81544,1,0,0:0:0:0:
320,192,81544,1,0,0:0:0:0:
320,192,81654,1,0,0:0:0:0:
192,192,81654,1,0,0:0:0:0:
192,192,81765,1,0,0:0:0:0:
320,192,81765,1,0,0:0:0:0:
448,192,81875,1,0,0:0:0:0:
320,192,81875,1,0,0:0:0:0:
192,192,81875,1,0,0:0:0:0:
64,192,81875,1,0,0:0:0:0:
64,192,81985,1,0,0:0:0:0:
192,192,81985,1,0,0:0:0:0:
448,192,82096,1,0,0:0:0:0:
320,192,82096,1,0,0:0:0:0:
192,192,82206,1,0,0:0:0:0:
64,192,82206,1,0,0:0:0:0:
320,192,82316,1,0,0:0:0:0:
448,192,82316,1,0,0:0:0:0:
192,192,82316,1,0,0:0:0:0:
64,192,82316,1,0,0:0:0:0:
320,192,82426,1,0,0:0:0:0:
448,192,82426,1,0,0:0:0:0:
192,192,82537,1,0,0:0:0:0:
64,192,82537,1,0,0:0:0:0:
320,192,82647,1,0,0:0:0:0:
448,192,82647,1,0,0:0:0:0:
192,192,82757,1,0,0:0:0:0:
64,192,82757,1,0,0:0:0:0:
320,192,82757,1,0,0:0:0:0:
448,192,82757,1,0,0:0:0:0:
448,192,82868,1,0,0:0:0:0:
320,192,82868,1,0,0:0:0:0:
192,192,82978,1,0,0:0:0:0:
64,192,82978,1,0,0:0:0:0:
320,192,83088,1,0,0:0:0:0:
448,192,83088,1,0,0:0:0:0:
192,192,83198,1,0,0:0:0:0:
64,192,83198,1,0,0:0:0:0:
320,192,83198,1,0,0:0:0:0:
448,192,83198,1,0,0:0:0:0:
192,192,83419,1,0,0:0:0:0:
64,192,83419,1,0,0:0:0:0:
448,192,83419,1,0,0:0:0:0:
320,192,83419,1,0,0:0:0:0:
320,192,83529,1,0,0:0:0:0:
448,192,83529,1,0,0:0:0:0:
192,192,83640,1,0,0:0:0:0:
64,192,83640,1,0,0:0:0:0:
320,192,83750,1,0,0:0:0:0:
448,192,83750,1,0,0:0:0:0:
192,192,83860,1,0,0:0:0:0:
64,192,83860,1,0,0:0:0:0:
320,192,83971,1,0,0:0:0:0:
448,192,83971,1,0,0:0:0:0:
192,192,84081,1,0,0:0:0:0:
64,192,84081,1,0,0:0:0:0:
448,192,84081,1,0,0:0:0:0:
320,192,84081,1,0,0:0:0:0:
448,192,84191,1,0,0:0:0:0:
320,192,84191,1,0,0:0:0:0:
192,192,84301,1,0,0:0:0:0:
64,192,84301,1,0,0:0:0:0:
320,192,84412,1,0,0:0:0:0:
448,192,84412,1,0,0:0:0:0:
192,192,84522,1,0,0:0:0:0:
64,192,84522,1,0,0:0:0:0:
320,192,84522,1,0,0:0:0:0:
448,192,84522,1,0,0:0:0:0:
448,192,84632,1,0,0:0:0:0:
320,192,84632,1,0,0:0:0:0:
192,192,84743,1,0,0:0:0:0:
64,192,84743,1,0,0:0:0:0:
320,192,84853,1,0,0:0:0:0:
448,192,84853,1,0,0:0:0:0:
192,192,84963,1,0,0:0:0:0:
64,192,84963,1,0,0:0:0:0:
320,192,84963,1,0,0:0:0:0:
448,192,84963,1,0,0:0:0:0:
448,192,85073,1,0,0:0:0:0:
320,192,85073,1,0,0:0:0:0:
192,192,85184,1,0,0:0:0:0:
64,192,85184,1,0,0:0:0:0:
320,192,85294,1,0,0:0:0:0:
448,192,85294,1,0,0:0:0:0:
192,192,85404,1,0,0:0:0:0:
64,192,85404,1,0,0:0:0:0:
448,192,85404,1,0,0:0:0:0:
320,192,85404,1,0,0:0:0:0:
448,192,85515,1,0,0:0:0:0:
320,192,85515,1,0,0:0:0:0:
192,192,85625,1,0,0:0:0:0:
64,192,85625,1,0,0:0:0:0:
448,192,85735,1,0,0:0:0:0:
320,192,85735,1,0,0:0:0:0:
192,192,85846,1,0,0:0:0:0:
64,192,85846,1,0,0:0:0:0:
320,192,85846,1,0,0:0:0:0:
448,192,85846,1,0,0:0:0:0:
448,192,86287,5,0,0:0:0:0:
320,192,86287,1,0,0:0:0:0:
64,192,86287,1,0,0:0:0:0:
192,192,86287,1,0,0:0:0:0:
448,192,86397,1,0,0:0:0:0:
320,192,86397,1,0,0:0:0:0:
192,192,86507,1,0,0:0:0:0:
64,192,86507,1,0,0:0:0:0:
320,192,86618,1,0,0:0:0:0:
448,192,86618,1,0,0:0:0:0:
192,192,86618,1,0,0:0:0:0:
64,192,86618,1,0,0:0:0:0:
448,192,86948,1,0,0:0:0:0:
320,192,86948,1,0,0:0:0:0:
192,192,86948,1,0,0:0:0:0:
64,192,86948,1,0,0:0:0:0:
448,192,87169,5,0,0:0:0:0:
320,192,87169,1,0,0:0:0:0:
192,192,87224,1,0,0:0:0:0:
64,192,87224,1,0,0:0:0:0:
448,192,87279,1,0,0:0:0:0:
320,192,87279,1,0,0:0:0:0:
192,192,87335,1,0,0:0:0:0:
64,192,87335,1,0,0:0:0:0:
448,192,87390,1,0,0:0:0:0:
320,192,87390,1,0,0:0:0:0:
192,192,87445,1,0,0:0:0:0:
64,192,87445,1,0,0:0:0:0:
320,192,87500,1,0,0:0:0:0:
448,192,87500,1,0,0:0:0:0:
192,192,87555,1,0,0:0:0:0:
64,192,87555,1,0,0:0:0:0:
320,192,87610,1,0,0:0:0:0:
448,192,87610,1,0,0:0:0:0:
192,192,87665,1,0,0:0:0:0:
64,192,87665,1,0,0:0:0:0:
320,192,87721,1,0,0:0:0:0:
448,192,87721,1,0,0:0:0:0:
192,192,87776,1,0,0:0:0:0:
64,192,87776,1,0,0:0:0:0:
320,192,87831,1,0,0:0:0:0:
448,192,87831,1,0,0:0:0:0:
192,192,87886,1,0,0:0:0:0:
64,192,87886,1,0,0:0:0:0:
448,192,87941,1,0,0:0:0:0:
320,192,87941,1,0,0:0:0:0:
192,192,87996,1,0,0:0:0:0:
64,192,87996,1,0,0:0:0:0:
320,192,88051,1,0,0:0:0:0:
448,192,88051,1,0,0:0:0:0:
192,192,88107,1,0,0:0:0:0:
64,192,88107,1,0,0:0:0:0:
320,192,88162,1,0,0:0:0:0:
448,192,88162,1,0,0:0:0:0:
192,192,88217,1,0,0:0:0:0:
64,192,88217,1,0,0:0:0:0:
448,192,88272,1,0,0:0:0:0:
320,192,88272,1,0,0:0:0:0:
192,192,88327,1,0,0:0:0:0:
64,192,88327,1,0,0:0:0:0:
320,192,88382,1,0,0:0:0:0:
448,192,88382,1,0,0:0:0:0:
192,192,88437,1,0,0:0:0:0:
64,192,88437,1,0,0:0:0:0:
448,192,88493,1,0,0:0:0:0:
320,192,88520,1,0,0:0:0:0:
192,192,88548,1,0,0:0:0:0:
64,192,88575,1,0,0:0:0:0:
448,192,88603,1,0,0:0:0:0:
320,192,88630,1,0,0:0:0:0:
192,192,88658,1,0,0:0:0:0:
64,192,88686,1,0,0:0:0:0:
448,192,88713,1,0,0:0:0:0:
320,192,88741,1,0,0:0:0:0:
192,192,88768,1,0,0:0:0:0:
64,192,88796,1,0,0:0:0:0:
448,192,88823,1,0,0:0:0:0:
320,192,88851,1,0,0:0:0:0:
192,192,88879,1,0,0:0:0:0:
64,192,88906,1,0,0:0:0:0:
320,192,88934,1,0,0:0:0:0:
448,192,88934,1,0,0:0:0:0:
192,192,88934,1,0,0:0:0:0:
64,192,88934,1,0,0:0:0:0:
320,192,89044,1,0,0:0:0:0:
448,192,89044,1,0,0:0:0:0:
192,192,89044,1,0,0:0:0:0:
448,192,89154,1,0,0:0:0:0:
320,192,89154,1,0,0:0:0:0:
192,192,89154,1,0,0:0:0:0:
320,192,89265,1,0,0:0:0:0:
448,192,89265,1,0,0:0:0:0:
192,192,89265,1,0,0:0:0:0:
448,192,89375,1,0,0:0:0:0:
320,192,89375,1,0,0:0:0:0:
192,192,89375,1,0,0:0:0:0:
64,192,89375,1,0,0:0:0:0:
64,192,89485,1,0,0:0:0:0:
192,192,89485,1,0,0:0:0:0:
320,192,89485,1,0,0:0:0:0:
320,192,89596,1,0,0:0:0:0:
192,192,89596,1,0,0:0:0:0:
64,192,89596,1,0,0:0:0:0:
64,192,89706,1,0,0:0:0:0:
192,192,89706,1,0,0:0:0:0:
320,192,89706,1,0,0:0:0:0:
64,192,89816,1,0,0:0:0:0:
192,192,89816,1,0,0:0:0:0:
320,192,89816,1,0,0:0:0:0:
448,192,89816,1,0,0:0:0:0:
448,192,89926,1,0,0:0:0:0:
320,192,89926,1,0,0:0:0:0:
192,192,89926,1,0,0:0:0:0:
192,192,90037,1,0,0:0:0:0:
320,192,90037,1,0,0:0:0:0:
448,192,90037,1,0,0:0:0:0:
448,192,90147,1,0,0:0:0:0:
320,192,90147,1,0,0:0:0:0:
192,192,90147,1,0,0:0:0:0:
64,192,90257,1,0,0:0:0:0:
192,192,90257,1,0,0:0:0:0:
448,192,90257,1,0,0:0:0:0:
448,192,90368,1,0,0:0:0:0:
192,192,90368,1,0,0:0:0:0:
64,192,90368,1,0,0:0:0:0:
64,192,90478,1,0,0:0:0:0:
192,192,90478,1,0,0:0:0:0:
448,192,90478,1,0,0:0:0:0:
448,192,90588,1,0,0:0:0:0:
192,192,90588,1,0,0:0:0:0:
64,192,90588,1,0,0:0:0:0:
64,192,90698,1,0,0:0:0:0:
192,192,90698,1,0,0:0:0:0:
320,192,90698,1,0,0:0:0:0:
448,192,90698,1,0,0:0:0:0:
320,192,90809,1,0,0:0:0:0:
64,192,90809,1,0,0:0:0:0:
192,192,90809,1,0,0:0:0:0:
64,192,90919,1,0,0:0:0:0:
320,192,90919,1,0,0:0:0:0:
192,192,90919,1,0,0:0:0:0:
320,192,91029,1,0,0:0:0:0:
64,192,91029,1,0,0:0:0:0:
192,192,91029,1,0,0:0:0:0:
64,192,91140,1,0,0:0:0:0:
192,192,91140,1,0,0:0:0:0:
320,192,91140,1,0,0:0:0:0:
448,192,91140,1,0,0:0:0:0:
448,192,91250,1,0,0:0:0:0:
320,192,91250,1,0,0:0:0:0:
192,192,91250,1,0,0:0:0:0:
192,192,91360,1,0,0:0:0:0:
320,192,91360,1,0,0:0:0:0:
448,192,91360,1,0,0:0:0:0:
448,192,91471,1,0,0:0:0:0:
320,192,91471,1,0,0:0:0:0:
192,192,91471,1,0,0:0:0:0:
64,192,91581,1,0,0:0:0:0:
192,192,91581,1,0,0:0:0:0:
320,192,91581,1,0,0:0:0:0:
448,192,91581,1,0,0:0:0:0:
64,192,91691,1,0,0:0:0:0:
192,192,91691,1,0,0:0:0:0:
320,192,91691,1,0,0:0:0:0:
320,192,91801,1,0,0:0:0:0:
192,192,91801,1,0,0:0:0:0:
64,192,91801,1,0,0:0:0:0:
64,192,91912,1,0,0:0:0:0:
192,192,91912,1,0,0:0:0:0:
320,192,91912,1,0,0:0:0:0:
320,192,92022,1,0,0:0:0:0:
192,192,92022,1,0,0:0:0:0:
64,192,92022,1,0,0:0:0:0:
448,192,92022,1,0,0:0:0:0:
448,192,92132,1,0,0:0:0:0:
320,192,92132,1,0,0:0:0:0:
64,192,92132,1,0,0:0:0:0:
64,192,92243,1,0,0:0:0:0:
320,192,92243,1,0,0:0:0:0:
448,192,92243,1,0,0:0:0:0:
448,192,92353,1,0,0:0:0:0:
320,192,92353,1,0,0:0:0:0:
64,192,92353,1,0,0:0:0:0:
64,192,92463,1,0,0:0:0:0:
192,192,92463,1,0,0:0:0:0:
320,192,92463,1,0,0:0:0:0:
448,192,92463,1,0,0:0:0:0:
192,192,92573,1,0,0:0:0:0:
320,192,92573,1,0,0:0:0:0:
64,192,92573,1,0,0:0:0:0:
320,192,92684,1,0,0:0:0:0:
192,192,92684,1,0,0:0:0:0:
64,192,92684,1,0,0:0:0:0:
64,192,92794,1,0,0:0:0:0:
192,192,92794,1,0,0:0:0:0:
320,192,92794,1,0,0:0:0:0:
320,192,92904,1,0,0:0:0:0:
192,192,92904,1,0,0:0:0:0:
64,192,92904,1,0,0:0:0:0:
448,192,92904,1,0,0:0:0:0:
192,192,93015,1,0,0:0:0:0:
320,192,93015,1,0,0:0:0:0:
448,192,93015,1,0,0:0:0:0:
448,192,93125,1,0,0:0:0:0:
320,192,93125,1,0,0:0:0:0:
192,192,93125,1,0,0:0:0:0:
192,192,93235,1,0,0:0:0:0:
320,192,93235,1,0,0:0:0:0:
448,192,93235,1,0,0:0:0:0:
448,192,93346,1,0,0:0:0:0:
320,192,93346,1,0,0:0:0:0:
192,192,93346,1,0,0:0:0:0:
64,192,93346,1,0,0:0:0:0:
64,192,93456,1,0,0:0:0:0:
320,192,93456,1,0,0:0:0:0:
448,192,93456,1,0,0:0:0:0:
448,192,93566,1,0,0:0:0:0:
320,192,93566,1,0,0:0:0:0:
64,192,93566,1,0,0:0:0:0:
64,192,93676,1,0,0:0:0:0:
320,192,93676,1,0,0:0:0:0:
448,192,93676,1,0,0:0:0:0:
448,192,93787,1,0,0:0:0:0:
320,192,93787,1,0,0:0:0:0:
192,192,93787,1,0,0:0:0:0:
64,192,93787,1,0,0:0:0:0:
64,192,93897,1,0,0:0:0:0:
192,192,93897,1,0,0:0:0:0:
448,192,93897,1,0,0:0:0:0:
448,192,94007,1,0,0:0:0:0:
192,192,94007,1,0,0:0:0:0:
64,192,94007,1,0,0:0:0:0:
64,192,94118,1,0,0:0:0:0:
192,192,94118,1,0,0:0:0:0:
448,192,94118,1,0,0:0:0:0:
448,192,94228,1,0,0:0:0:0:
320,192,94228,1,0,0:0:0:0:
192,192,94228,1,0,0:0:0:0:
64,192,94228,1,0,0:0:0:0:
64,192,94338,1,0,0:0:0:0:
192,192,94338,1,0,0:0:0:0:
320,192,94338,1,0,0:0:0:0:
320,192,94448,1,0,0:0:0:0:
192,192,94448,1,0,0:0:0:0:
64,192,94448,1,0,0:0:0:0:
64,192,94559,1,0,0:0:0:0:
192,192,94559,1,0,0:0:0:0:
320,192,94559,1,0,0:0:0:0:
320,192,94669,1,0,0:0:0:0:
192,192,94669,1,0,0:0:0:0:
64,192,94669,1,0,0:0:0:0:
448,192,94669,1,0,0:0:0:0:
448,192,94779,1,0,0:0:0:0:
320,192,94779,1,0,0:0:0:0:
64,192,94779,1,0,0:0:0:0:
64,192,94890,1,0,0:0:0:0:
320,192,94890,1,0,0:0:0:0:
448,192,94890,1,0,0:0:0:0:
448,192,95000,1,0,0:0:0:0:
320,192,95000,1,0,0:0:0:0:
64,192,95000,1,0,0:0:0:0:
64,192,95110,1,0,0:0:0:0:
192,192,95110,1,0,0:0:0:0:
448,192,95110,1,0,0:0:0:0:
320,192,95110,1,0,0:0:0:0:
192,192,95221,1,0,0:0:0:0:
320,192,95221,1,0,0:0:0:0:
448,192,95221,1,0,0:0:0:0:
448,192,95331,1,0,0:0:0:0:
320,192,95331,1,0,0:0:0:0:
192,192,95331,1,0,0:0:0:0:
192,192,95441,1,0,0:0:0:0:
320,192,95441,1,0,0:0:0:0:
448,192,95441,1,0,0:0:0:0:
448,192,95551,1,0,0:0:0:0:
320,192,95551,1,0,0:0:0:0:
192,192,95551,1,0,0:0:0:0:
64,192,95551,1,0,0:0:0:0:
64,192,95662,1,0,0:0:0:0:
192,192,95662,1,0,0:0:0:0:
320,192,95662,1,0,0:0:0:0:
320,192,95772,1,0,0:0:0:0:
192,192,95772,1,0,0:0:0:0:
64,192,95772,1,0,0:0:0:0:
64,192,95882,1,0,0:0:0:0:
192,192,95882,1,0,0:0:0:0:
320,192,95882,1,0,0:0:0:0:
64,192,95993,1,0,0:0:0:0:
192,192,95993,1,0,0:0:0:0:
320,192,95993,1,0,0:0:0:0:
448,192,95993,1,0,0:0:0:0:
448,192,96103,1,0,0:0:0:0:
320,192,96103,1,0,0:0:0:0:
192,192,96103,1,0,0:0:0:0:
64,192,96103,1,0,0:0:0:0:
448,192,96213,1,0,0:0:0:0:
320,192,96213,1,0,0:0:0:0:
192,192,96213,1,0,0:0:0:0:
64,192,96213,1,0,0:0:0:0:
64,192,96323,1,0,0:0:0:0:
320,192,96323,1,0,0:0:0:0:
448,192,96323,1,0,0:0:0:0:
192,192,96323,1,0,0:0:0:0:
448,192,96434,1,0,0:0:0:0:
64,192,96434,1,0,0:0:0:0:
192,192,96434,1,0,0:0:0:0:
320,192,96434,1,0,0:0:0:0:
448,192,96544,1,0,0:0:0:0:
320,192,96544,1,0,0:0:0:0:
192,192,96544,1,0,0:0:0:0:
64,192,96544,1,0,0:0:0:0:
64,192,96654,1,0,0:0:0:0:
192,192,96654,1,0,0:0:0:0:
320,192,96654,1,0,0:0:0:0:
448,192,96654,1,0,0:0:0:0:
448,192,96765,1,0,0:0:0:0:
192,192,96765,1,0,0:0:0:0:
64,192,96765,1,0,0:0:0:0:
320,192,96765,1,0,0:0:0:0:
448,192,96875,1,0,0:0:0:0:
320,192,96875,1,0,0:0:0:0:
192,192,96875,1,0,0:0:0:0:
64,192,96875,1,0,0:0:0:0:
64,192,96985,1,0,0:0:0:0:
192,192,96985,1,0,0:0:0:0:
320,192,96985,1,0,0:0:0:0:
448,192,96985,1,0,0:0:0:0:
448,192,97096,1,0,0:0:0:0:
320,192,97096,1,0,0:0:0:0:
192,192,97096,1,0,0:0:0:0:
64,192,97096,1,0,0:0:0:0:
448,192,97206,1,0,0:0:0:0:
192,192,97206,1,0,0:0:0:0:
64,192,97206,1,0,0:0:0:0:
320,192,97206,1,0,0:0:0:0:
64,192,97316,1,0,0:0:0:0:
320,192,97316,1,0,0:0:0:0:
448,192,97316,1,0,0:0:0:0:
192,192,97316,1,0,0:0:0:0:
64,192,97426,1,0,0:0:0:0:
192,192,97426,1,0,0:0:0:0:
320,192,97426,1,0,0:0:0:0:
448,192,97426,1,0,0:0:0:0:
448,192,97537,1,0,0:0:0:0:
320,192,97537,1,0,0:0:0:0:
192,192,97537,1,0,0:0:0:0:
64,192,97537,1,0,0:0:0:0:
64,192,97647,1,0,0:0:0:0:
192,192,97647,1,0,0:0:0:0:
448,192,97647,1,0,0:0:0:0:
320,192,97647,1,0,0:0:0:0:
448,192,97757,1,0,0:0:0:0:
320,192,97757,1,0,0:0:0:0:
192,192,97757,1,0,0:0:0:0:
64,192,97757,1,0,0:0:0:0:
64,192,97868,1,0,0:0:0:0:
192,192,97868,1,0,0:0:0:0:
320,192,97868,1,0,0:0:0:0:
448,192,97868,1,0,0:0:0:0:
448,192,97978,1,0,0:0:0:0:
320,192,97978,1,0,0:0:0:0:
192,192,97978,1,0,0:0:0:0:
64,192,97978,1,0,0:0:0:0:
64,192,98088,1,0,0:0:0:0:
192,192,98088,1,0,0:0:0:0:
320,192,98088,1,0,0:0:0:0:
448,192,98088,1,0,0:0:0:0:
448,192,98198,1,0,0:0:0:0:
320,192,98198,1,0,0:0:0:0:
192,192,98198,1,0,0:0:0:0:
64,192,98198,1,0,0:0:0:0:
64,192,98309,1,0,0:0:0:0:
192,192,98309,1,0,0:0:0:0:
320,192,98309,1,0,0:0:0:0:
448,192,98309,1,0,0:0:0:0:
448,192,98419,1,0,0:0:0:0:
320,192,98419,1,0,0:0:0:0:
192,192,98419,1,0,0:0:0:0:
64,192,98419,1,0,0:0:0:0:
192,192,98529,1,0,0:0:0:0:
64,192,98529,1,0,0:0:0:0:
320,192,98529,1,0,0:0:0:0:
448,192,98529,1,0,0:0:0:0:
448,192,98640,1,0,0:0:0:0:
320,192,98640,1,0,0:0:0:0:
192,192,98640,1,0,0:0:0:0:
64,192,98640,1,0,0:0:0:0:
64,192,98750,1,0,0:0:0:0:
192,192,98750,1,0,0:0:0:0:
320,192,98750,1,0,0:0:0:0:
448,192,98750,1,0,0:0:0:0:
448,192,98860,1,0,0:0:0:0:
320,192,98860,1,0,0:0:0:0:
64,192,98860,1,0,0:0:0:0:
192,192,98860,1,0,0:0:0:0:
64,192,98971,1,0,0:0:0:0:
192,192,98971,1,0,0:0:0:0:
320,192,98971,1,0,0:0:0:0:
448,192,98971,1,0,0:0:0:0:
448,192,99081,1,0,0:0:0:0:
320,192,99081,1,0,0:0:0:0:
192,192,99081,1,0,0:0:0:0:
64,192,99081,1,0,0:0:0:0:
64,192,99191,1,0,0:0:0:0:
192,192,99191,1,0,0:0:0:0:
320,192,99191,1,0,0:0:0:0:
448,192,99191,1,0,0:0:0:0:
448,192,99301,1,0,0:0:0:0:
320,192,99301,1,0,0:0:0:0:
192,192,99301,1,0,0:0:0:0:
64,192,99301,1,0,0:0:0:0:
64,192,99412,1,0,0:0:0:0:
192,192,99412,1,0,0:0:0:0:
320,192,99412,1,0,0:0:0:0:
448,192,99412,1,0,0:0:0:0:
448,192,99522,1,0,0:0:0:0:
320,192,99522,1,0,0:0:0:0:
192,192,99522,1,0,0:0:0:0:
64,192,99522,1,0,0:0:0:0:
64,192,99632,1,0,0:0:0:0:
192,192,99632,1,0,0:0:0:0:
320,192,99632,1,0,0:0:0:0:
448,192,99632,1,0,0:0:0:0:
448,192,99743,1,0,0:0:0:0:
320,192,99743,1,0,0:0:0:0:
192,192,99743,1,0,0:0:0:0:
64,192,99743,1,0,0:0:0:0:
64,192,99853,1,0,0:0:0:0:
192,192,99853,1,0,0:0:0:0:
320,192,99853,1,0,0:0:0:0:
448,192,99853,1,0,0:0:0:0:
448,192,99963,1,0,0:0:0:0:
320,192,99963,1,0,0:0:0:0:
192,192,99963,1,0,0:0:0:0:
64,192,99963,1,0,0:0:0:0:
64,192,100073,1,0,0:0:0:0:
192,192,100073,1,0,0:0:0:0:
320,192,100073,1,0,0:0:0:0:
448,192,100073,1,0,0:0:0:0:
448,192,100184,5,0,0:0:0:0:
320,192,100184,1,0,0:0:0:0:
192,192,100184,1,0,0:0:0:0:
64,192,100184,1,0,0:0:0:0:
64,192,100294,1,0,0:0:0:0:
192,192,100294,1,0,0:0:0:0:
448,192,100294,1,0,0:0:0:0:
320,192,100294,1,0,0:0:0:0:
448,192,100404,1,0,0:0:0:0:
320,192,100404,1,0,0:0:0:0:
192,192,100404,1,0,0:0:0:0:
64,192,100404,1,0,0:0:0:0:
64,192,100515,1,0,0:0:0:0:
192,192,100515,1,0,0:0:0:0:
320,192,100515,1,0,0:0:0:0:
448,192,100515,1,0,0:0:0:0:
448,192,100625,1,0,0:0:0:0:
320,192,100625,1,0,0:0:0:0:
192,192,100625,1,0,0:0:0:0:
64,192,100625,1,0,0:0:0:0:
64,192,100735,1,0,0:0:0:0:
192,192,100735,1,0,0:0:0:0:
448,192,100735,1,0,0:0:0:0:
320,192,100735,1,0,0:0:0:0:
448,192,100846,1,0,0:0:0:0:
320,192,100846,1,0,0:0:0:0:
64,192,100846,1,0,0:0:0:0:
192,192,100846,1,0,0:0:0:0:
64,192,100956,1,0,0:0:0:0:
192,192,100956,1,0,0:0:0:0:
320,192,100956,1,0,0:0:0:0:
448,192,100956,1,0,0:0:0:0:
448,192,101066,1,0,0:0:0:0:
320,192,101066,1,0,0:0:0:0:
192,192,101066,1,0,0:0:0:0:
64,192,101066,1,0,0:0:0:0:
448,192,101176,1,0,0:0:0:0:
192,192,101176,1,0,0:0:0:0:
320,192,101176,1,0,0:0:0:0:
64,192,101176,1,0,0:0:0:0:
64,192,101287,5,0,0:0:0:0:
192,192,101314,1,0,0:0:0:0:
320,192,101342,1,0,0:0:0:0:
448,192,101369,1,0,0:0:0:0:
64,192,101397,1,0,0:0:0:0:
192,192,101425,1,0,0:0:0:0:
320,192,101452,1,0,0:0:0:0:
448,192,101480,1,0,0:0:0:0:
64,192,101507,1,0,0:0:0:0:
192,192,101535,1,0,0:0:0:0:
320,192,101562,1,0,0:0:0:0:
448,192,101590,1,0,0:0:0:0:
64,192,101618,1,0,0:0:0:0:
192,192,101645,1,0,0:0:0:0:
320,192,101673,1,0,0:0:0:0:
448,192,101700,1,0,0:0:0:0:
64,192,101728,1,0,0:0:0:0:
192,192,101755,1,0,0:0:0:0:
320,192,101783,1,0,0:0:0:0:
448,192,101811,1,0,0:0:0:0:
64,192,101838,1,0,0:0:0:0:
192,192,101866,1,0,0:0:0:0:
320,192,101893,1,0,0:0:0:0:
448,192,101921,1,0,0:0:0:0:
64,192,101948,1,0,0:0:0:0:
192,192,101976,1,0,0:0:0:0:
320,192,102004,1,0,0:0:0:0:
448,192,102031,1,0,0:0:0:0:
64,192,102059,1,0,0:0:0:0:
192,192,102086,1,0,0:0:0:0:
320,192,102114,1,0,0:0:0:0:
448,192,102142,1,0,0:0:0:0:
64,192,102169,1,0,0:0:0:0:
192,192,102197,1,0,0:0:0:0:
320,192,102224,1,0,0:0:0:0:
448,192,102252,1,0,0:0:0:0:
64,192,102279,1,0,0:0:0:0:
192,192,102307,1,0,0:0:0:0:
320,192,102335,1,0,0:0:0:0:
448,192,102362,1,0,0:0:0:0:
64,192,102390,1,0,0:0:0:0:
192,192,102417,1,0,0:0:0:0:
320,192,102445,1,0,0:0:0:0:
448,192,102472,1,0,0:0:0:0:
64,192,102500,1,0,0:0:0:0:
192,192,102528,1,0,0:0:0:0:
320,192,102555,1,0,0:0:0:0:
448,192,102583,1,0,0:0:0:0:
64,192,102610,1,0,0:0:0:0:
192,192,102638,1,0,0:0:0:0:
320,192,102665,1,0,0:0:0:0:
448,192,102693,1,0,0:0:0:0:
64,192,102721,1,0,0:0:0:0:
192,192,102748,1,0,0:0:0:0:
320,192,102776,1,0,0:0:0:0:
448,192,102803,1,0,0:0:0:0:
64,192,102831,1,0,0:0:0:0:
192,192,102858,1,0,0:0:0:0:
320,192,102886,1,0,0:0:0:0:
448,192,102914,1,0,0:0:0:0:
64,192,102941,1,0,0:0:0:0:
192,192,102969,1,0,0:0:0:0:
320,192,102996,1,0,0:0:0:0:
448,192,103024,1,0,0:0:0:0:
