osu file format v14

[General]
AudioFilename: audio.mp3
AudioLeadIn: 0
PreviewTime: 58261
Countdown: 0
SampleSet: Soft
StackLeniency: 0.4
Mode: 0
LetterboxInBreaks: 0
WidescreenStoryboard: 1

[Editor]
Bookmarks: 11466,21844,29952,32223,42601,52979,58169,84439,89299,99682,104871,105520,108439,111358
DistanceSpacing: 0.4
BeatDivisor: 4
GridSize: 16
TimelineZoom: 2.899999

[Metadata]
Title:nonfantasy
TitleUnicode:ノンファンタジー
Artist:mafumafu x Amatsuki
ArtistUnicode:まふまふ×天月
Creator:Jian
Version:normal
Source:いつだって僕らの恋は10センチだった。
Tags:Itsudatte Bokura no Koi wa 10 cm Datta honeyworks utaite cover jpop j-pop japanese pop anime あまつき AirinCat William K Asuka_- Nikakis William_K
BeatmapID:1761692
BeatmapSetID:841289

[Difficulty]
HPDrainRate:3
CircleSize:3
OverallDifficulty:4
ApproachRate:5
SliderMultiplier:0.999999999999999
SliderTickRate:1

[Events]
//Background and Video events
0,0,"mafu.jpg",0,0
//Break Periods
//Storyboard Layer 0 (Background)
//Storyboard Layer 1 (Fail)
//Storyboard Layer 2 (Pass)
//Storyboard Layer 3 (Foreground)
//Storyboard Layer 4 (Overlay)
//Storyboard Sound Samples

[TimingPoints]
1247,324.324324324324,4,2,1,47,1,0
1247,-100,4,2,1,47,0,0
11301,-100,4,2,1,37,0,0
11625,-100,4,2,1,67,0,0
22003,-100,4,2,1,47,0,0
32382,-100,4,2,1,57,0,0
42775,324.324324324324,4,2,1,47,1,0
42775,-100,4,2,1,47,0,0
53152,-100,4,2,1,57,0,0
58314,324.324324324324,4,2,1,47,1,0
58314,-100,4,2,1,77,0,1
68368,-100,4,2,1,77,0,0
68692,-100,4,2,1,77,0,1
78746,-100,4,2,1,77,0,0
79070,-100,4,2,1,77,0,1
89453,324.324324324324,4,2,1,67,1,0
99831,-100,4,2,1,37,0,0
105020,-100,4,2,1,57,0,0

[Colours]
Combo1 : 167,79,255
Combo2 : 255,154,53
Combo3 : 0,86,191
Combo4 : 250,169,181
Combo5 : 135,216,233

[HitObjects]
5,102,1247,6,0,B|51:79|105:100|95:112|158:140|212:100,1,200,2|2,0:0|0:0,0:0:0:0:
369,4,2544,2,0,P|361:58|346:217,1,200,2|0,0:0|0:0,0:0:0:0:
463,365,3841,6,0,B|383:358|383:358|350:371|350:371|254:362,1,200,2|2,0:0|0:0,0:0:0:0:
67,337,5138,2,0,B|107:287|99:222|99:222|137:243|181:227,1,200,2|0,0:0|0:0,0:0:0:0:
269,53,6436,6,0,L|261:162,2,99.9999999999999,2|2|2,0:0|0:0|0:0,0:0:0:0:
365,26,7409,1,2,0:0:0:0:
460,55,7733,2,0,L|468:164,1,99.9999999999999,2|2,0:0|0:0,0:0:0:0:
427,184,8219,2,0,P|377:198|312:177,1,99.9999999999999,2|2,0:0|0:0,0:0:0:0:
296,152,8706,1,2,0:0:0:0:
269,53,9030,6,0,L|169:45,2,99.9999999999999,2|2|2,0:0|0:0|0:0,0:0:0:0:
365,26,10003,1,2,0:0:0:0:
460,55,10328,6,0,B|446:96|459:131|459:131|483:186|470:231|470:231|411:199|342:232,1,300,2|0,0:0|0:0,0:0:0:0:
260,302,11625,6,0,P|205:293|150:291,1,99.9999999999999,14|8,0:0|0:0,0:0:0:0:
64,318,12274,2,0,L|66:258,1,50,10|2,0:0|1:2,0:0:0:0:
28,175,12760,2,0,L|26:115,1,50,2|8,1:2|0:2,0:0:0:0:
60,88,13084,1,2,1:2:0:0:
60,88,13246,2,0,L|62:28,1,50,10|2,0:0|0:0,0:0:0:0:
95,0,13571,1,8,0:0:0:0:
173,62,13895,2,0,L|222:60,1,50,10|2,0:0|1:2,0:0:0:0:
267,82,14219,5,14,0:0:0:0:
358,40,14544,1,10,0:0:0:0:
448,81,14868,2,0,P|445:147|446:198,1,99.9999999999999,10|10,0:0|0:0,0:0:0:0:
478,275,15517,2,0,L|416:272,1,50,10|0,0:0|1:0,0:0:0:0:
388,303,15841,2,0,L|338:305,1,50,10|2,0:0|0:0,0:0:0:0:
301,270,16165,2,0,P|294:243|298:220,1,50,10|0,0:0|1:0,0:0:0:0:
328,181,16490,1,8,0:0:0:0:
259,108,16814,5,14,0:0:0:0:
162,133,17138,1,10,0:0:0:0:
65,161,17463,2,0,L|68:274,1,99.9999999999999,10|10,0:0|0:0,0:0:0:0:
133,336,18111,2,0,L|200:343,1,50,10|2,0:0|0:0,0:0:0:0:
227,318,18436,2,0,L|276:312,1,50,10|2,0:0|0:0,0:0:0:0:
321,334,18760,1,10,0:0:0:0:
401,275,19084,2,0,L|395:213,1,50,10|0,0:0|1:0,0:0:0:0:
420,181,19409,5,14,0:0:0:0:
475,97,19733,1,10,0:0:0:0:
408,22,20057,2,0,L|341:28,1,50,10|2,0:0|1:2,0:0:0:0:
317,56,20382,2,0,L|267:51,1,50,8|2,0:0|1:2,0:0:0:0:
222,73,20706,2,0,B|188:123|201:186|201:186|171:218|108:194,1,200,14|8,0:0|0:0,0:0:0:0:
27,176,21679,2,0,L|32:247,1,50,14|2,0:0|0:0,0:0:0:0:
60,265,22003,6,0,L|54:371,2,99.9999999999999,6|0|0,1:2|1:0|1:0,0:0:0:0:
124,199,22976,2,0,L|127:149,1,50,2|2,1:2|0:0,0:0:0:0:
165,115,23301,2,0,L|160:11,2,99.9999999999999,2|0|0,1:2|1:0|1:0,0:0:0:0:
243,176,24274,2,0,L|293:173,1,50,2|2,1:2|0:0,0:0:0:0:
337,195,24598,5,2,1:2:0:0:
385,282,24922,1,2,1:2:0:0:
437,366,25246,1,2,1:2:0:0:
336,364,25571,2,0,L|268:360,1,50,2|2,1:2|0:0,0:0:0:0:
241,339,25895,2,0,L|133:342,1,99.9999999999999,2|0,1:2|1:0,0:0:0:0:
40,346,26544,1,0,1:0:0:0:
86,257,26868,2,0,L|83:185,1,50,2|2,1:2|0:0,0:0:0:0:
117,170,27192,6,0,P|166:155|216:165,2,99.9999999999999,2|0|0,1:2|1:0|1:0,0:0:0:0:
26,128,28165,2,0,L|23:56,1,50,2|2,1:2|0:0,0:0:0:0:
56,39,28490,2,0,P|105:24|155:34,2,99.9999999999999,2|0|0,1:2|1:0|1:0,0:0:0:0:
26,128,29463,2,0,L|28:177,1,50,2|2,1:2|0:0,0:0:0:0:
62,214,29787,5,2,1:2:0:0:
159,192,30111,1,0,1:0:0:0:
256,169,30436,1,2,1:2:0:0:
279,266,30760,2,0,L|291:333,1,50,2|2,1:2|0:0,0:0:0:0:
327,346,31084,6,0,P|389:331|437:348,1,99.9999999999999,0|0,1:0|1:0,0:0:0:0:
500,276,31733,1,0,1:0:0:0:
415,223,32057,2,0,L|349:229,1,50,2|2,1:2|0:0,0:0:0:0:
325,196,32382,6,0,L|317:96,2,99.9999999999999,6|0|0,1:2|1:0|1:0,0:0:0:0:
279,285,33355,2,0,L|213:291,1,50,2|2,1:2|0:0,0:0:0:0:
184,266,33679,2,0,L|176:166,2,99.9999999999999,2|0|0,1:2|1:0|1:0,0:0:0:0:
124,346,34652,2,0,L|58:352,1,50,2|2,1:2|0:0,0:0:0:0:
33,321,34976,5,2,1:2:0:0:
3,225,35301,1,2,1:2:0:0:
34,130,35625,1,2,1:2:0:0:
70,37,35949,2,0,L|132:32,1,50,2|2,1:2|0:0,0:0:0:0:
161,60,36274,2,0,L|270:70,1,99.9999999999999,2|0,1:2|1:0,0:0:0:0:
354,35,36922,1,0,1:0:0:0:
425,104,37246,2,0,L|431:167,1,50,2|2,1:2|0:0,0:0:0:0:
404,197,37571,6,0,L|398:302,2,99.9999999999999,6|0|0,1:2|1:0|1:0,0:0:0:0:
328,131,38544,2,0,L|278:126,1,50,2|2,1:2|0:0,0:0:0:0:
236,154,38868,2,0,L|136:159,2,99.9999999999999,2|0|0,1:2|1:0|1:0,0:0:0:0:
307,224,39841,2,0,L|302:273,1,50,2|2,1:2|0:0,0:0:0:0:
326,317,40165,5,2,1:2:0:0:
415,362,40490,1,2,1:2:0:0:
505,319,40814,1,2,1:2:0:0:
503,219,41138,2,0,L|501:150,1,50,2|2,1:2|0:0,0:0:0:0:
466,133,41463,2,0,P|410:117|356:137,1,99.9999999999999,14|12,0:0|0:0,0:0:0:0:
297,194,42111,2,0,P|257:198|236:193,1,50,8|8,0:0|3:0,0:0:0:0:
210,162,42436,2,0,P|185:157|160:159,1,50,8|4,3:0|3:0,0:0:0:0:
124,197,42775,6,0,L|130:317,1,99.9999999999999,6|10,1:2|0:0,0:0:0:0:
190,375,43423,2,0,P|240:359|298:373,1,99.9999999999999,10|2,0:0|1:2,0:0:0:0:
360,300,44071,1,6,1:2:0:0:
304,216,44396,2,0,L|302:147,2,50,8|8|8,0:0|0:0|0:0,0:0:0:0:
223,275,45044,2,0,L|159:271,1,50,2|2,0:0|0:0,0:0:0:0:
145,230,45369,6,0,B|139:177|139:177|153:132,1,99.9999999999999,6|10,1:2|0:0,0:0:0:0:
247,100,46017,2,0,L|356:113,1,99.9999999999999,10|2,0:0|1:2,0:0:0:0:
438,72,46666,2,0,P|432:123|427:194,1,99.9999999999999,2|8,1:2|0:0,0:0:0:0:
484,254,47315,1,10,0:0:0:0:
413,324,47639,1,2,0:0:0:0:
331,381,47963,6,0,P|269:365|215:360,1,99.9999999999999,6|8,1:2|0:0,0:0:0:0:
149,306,48612,1,10,0:0:0:0:
88,226,48936,1,2,1:2:0:0:
27,146,49260,1,2,1:2:0:0:
109,90,49585,2,0,L|171:58,2,50,10|8|8,0:0|0:0|0:0,0:0:0:0:
27,146,50233,1,2,0:0:0:0:
88,226,50558,6,0,L|204:220,1,99.9999999999999,6|10,1:2|0:0,0:0:0:0:
228,249,51044,2,0,L|327:254,1,99.9999999999999,2|0,0:0|0:0,0:0:0:0:
366,222,51531,2,0,L|436:217,1,50,2|8,1:2|0:0,0:0:0:0:
462,236,51855,1,0,1:0:0:0:
506,146,52179,2,0,L|501:76,1,50,0|8,0:0|0:0,0:0:0:0:
466,61,52504,1,2,1:2:0:0:
383,118,52828,2,0,L|333:114,1,50,10|8,0:0|0:0,0:0:0:0:
290,88,53152,6,0,L|170:95,1,99.9999999999999,6|8,1:2|0:0,0:0:0:0:
95,59,53801,1,10,0:0:0:0:
21,126,54125,2,0,L|17:188,1,50,2|8,1:2|0:0,0:0:0:0:
43,219,54450,1,6,1:2:0:0:
132,175,54774,2,0,L|200:180,2,50,10|8|8,0:0|0:0|0:0,0:0:0:0:
43,219,55423,1,6,1:2:0:0:
93,305,55747,6,0,P|155:298|207:298,1,99.9999999999999,6|8,1:2|0:0,0:0:0:0:
248,214,56396,2,0,P|210:163|184:118,1,99.9999999999999,2|8,1:2|0:0,0:0:0:0:
91,126,57044,2,0,P|66:183|40:228,1,99.9999999999999,6|0,1:2|1:0,0:0:0:0:
93,305,57693,1,2,1:2:0:0:
290,298,58314,6,0,L|408:290,1,99.9999999999999,14|8,0:0|0:0,0:0:0:0:
463,223,58962,1,10,0:0:0:0:
463,223,59124,2,0,L|512:226,2,50,2|8|2,1:2|0:0|1:2,0:0:0:0:
428,186,59611,2,0,L|328:179,1,99.9999999999999,12|10,0:0|0:0,0:0:0:0:
288,148,60097,1,2,0:0:0:0:
288,148,60259,1,8,0:0:0:0:
246,56,60584,1,10,0:0:0:0:
151,88,60908,6,0,P|98:69|49:88,1,99.9999999999999,14|10,0:0|0:0,0:0:0:0:
7,167,61557,2,0,L|12:277,1,99.9999999999999,10|10,0:0|0:0,0:0:0:0:
57,287,62043,1,2,1:2:0:0:
57,287,62205,2,0,P|147:299|167:298,1,99.9999999999999,14|10,0:0|0:0,0:0:0:0:
188,260,62692,1,2,1:2:0:0:
188,260,62854,2,0,L|193:193,2,50,8|0|8,0:0|1:0|0:0,0:0:0:0:
287,265,63503,6,0,L|293:165,1,99.9999999999999,14|10,0:0|0:0,0:0:0:0:
348,81,64151,2,0,P|402:73|452:97,1,99.9999999999999,10|10,0:0|0:0,0:0:0:0:
479,182,64800,2,0,L|472:281,1,99.9999999999999,14|10,0:0|0:0,0:0:0:0:
500,323,65287,1,2,1:2:0:0:
500,323,65449,1,10,0:0:0:0:
406,356,65773,2,0,L|341:350,1,50,10|2,0:0|1:2,0:0:0:0:
315,321,66097,5,14,0:0:0:0:
246,247,66422,2,0,P|240:204|246:180,1,50,10|2,0:0|1:2,0:0:0:0:
271,158,66746,2,0,P|277:115|271:91,1,50,8|2,0:0|1:2,0:0:0:0:
234,73,67070,2,0,P|191:67|167:73,1,50,10|2,0:0|1:2,0:0:0:0:
139,99,67395,1,12,0:0:0:0:
43,68,67719,1,12,0:0:0:0:
26,166,68043,1,12,3:0:0:0:
10,264,68368,1,8,0:0:0:0:
108,283,68692,6,0,L|220:271,1,99.9999999999999,14|8,0:0|0:0,0:0:0:0:
300,308,69341,1,10,0:0:0:0:
300,308,69503,2,0,L|308:373,2,50,2|8|2,1:2|0:0|1:2,0:0:0:0:
322,263,69989,2,0,P|378:241|434:254,1,99.9999999999999,12|10,0:0|0:0,0:0:0:0:
457,274,70476,1,2,1:2:0:0:
457,274,70638,1,8,0:0:0:0:
503,185,70962,2,0,L|497:114,1,50,10|2,0:0|1:2,0:0:0:0:
460,103,71287,6,0,P|410:99|345:88,1,99.9999999999999,14|10,0:0|0:0,0:0:0:0:
285,157,71935,2,0,P|235:160|185:168,1,99.9999999999999,10|10,0:0|0:0,0:0:0:0:
96,122,72584,2,0,P|89:87|96:56,2,50,14|2|10,0:0|0:0|0:0,0:0:0:0:
75,167,73070,1,2,1:2:0:0:
75,167,73232,2,0,P|82:224|86:285,1,99.9999999999999,8|8,0:0|0:0,0:0:0:0:
145,346,73881,6,0,P|211:331|256:351,1,99.9999999999999,14|10,0:0|0:0,0:0:0:0:
329,294,74530,2,0,L|326:194,1,99.9999999999999,10|10,0:0|0:0,0:0:0:0:
381,110,75178,2,0,L|385:39,1,50,14|2,0:0|0:0,0:0:0:0:
346,26,75503,2,0,L|296:23,1,50,10|2,0:0|1:2,0:0:0:0:
253,49,75827,1,8,0:0:0:0:
171,106,76151,2,0,L|168:156,1,50,10|0,0:0|1:0,0:0:0:0:
191,200,76476,5,14,0:0:0:0:
249,280,76800,2,0,L|252:330,1,50,10|2,0:0|1:2,0:0:0:0:
211,358,77124,2,0,P|181:353|147:362,1,50,10|2,0:0|1:2,0:0:0:0:
114,340,77449,2,0,L|111:290,1,50,10|2,0:0|1:2,0:0:0:0:
107,240,77773,1,14,0:0:0:0:
100,140,78097,1,12,0:0:0:0:
179,79,78422,2,0,L|243:86,1,50,12|0,0:0|0:0,0:0:0:0:
271,57,78746,2,0,L|320:51,1,50,12|8,0:0|0:0,0:0:0:0:
362,78,79070,6,0,P|353:133|351:188,1,99.9999999999999,14|8,0:0|0:0,0:0:0:0:
410,257,79719,2,0,L|408:317,1,50,10|0,0:0|1:0,0:0:0:0:
327,365,80205,2,0,L|267:367,1,50,2|10,1:2|0:0,0:0:0:0:
239,334,80530,1,2,0:2:0:0:
239,334,80692,2,0,L|189:335,1,50,10|2,0:0|1:2,0:0:0:0:
155,373,81016,1,8,0:0:0:0:
84,301,81341,2,0,L|82:252,1,50,8|0,0:0|1:0,0:0:0:0:
61,205,81665,5,14,0:0:0:0:
19,114,81989,1,10,0:0:0:0:
60,24,82314,2,0,P|126:27|177:26,1,99.9999999999999,10|10,0:0|0:0,0:0:0:0:
254,4,82962,2,0,L|251:66,1,50,10|0,0:0|0:0,0:0:0:0:
282,84,83287,2,0,L|284:134,1,50,8|0,0:0|1:0,0:0:0:0:
257,176,83611,2,0,L|255:226,1,50,8|0,0:0|1:0,0:0:0:0:
283,267,83935,1,8,0:0:0:0:
216,341,84260,5,14,0:0:0:0:
121,307,84584,1,10,0:0:0:0:
27,272,84908,2,0,L|30:159,1,99.9999999999999,10|10,0:0|0:0,0:0:0:0:
95,97,85557,2,0,L|162:90,1,50,10|0,0:0|0:0,0:0:0:0:
189,115,85881,2,0,L|238:121,1,50,10|2,0:0|1:2,0:0:0:0:
283,99,86205,1,10,0:0:0:0:
363,158,86530,2,0,L|357:220,1,50,8|0,0:0|1:0,0:0:0:0:
379,253,86854,5,14,0:0:0:0:
431,337,87178,1,8,0:0:0:0:
342,383,87503,2,0,L|292:378,1,50,8|0,0:0|1:0,0:0:0:0:
253,346,87827,2,0,L|203:341,1,50,8|0,0:0|1:0,0:0:0:0:
167,306,88151,2,0,B|26:311|26:311|16:272|33:238,1,200,14|8,0:0|0:0,0:0:0:0:
104,189,89124,2,0,L|155:188,1,50,14|0,0:0|1:0,0:0:0:0:
188,152,89453,6,0,L|300:154,1,99.9999999999999,14|8,0:0|0:0,0:0:0:0:
368,94,90101,2,0,L|370:34,1,50,10|2,0:0|1:2,0:0:0:0:
463,9,90588,2,0,L|461:58,1,50,2|8,1:2|0:0,0:0:0:0:
489,100,90912,1,2,1:2:0:0:
489,100,91074,2,0,L|490:149,1,50,10|2,0:0|1:2,0:0:0:0:
469,195,91399,1,8,0:0:0:0:
393,260,91723,2,0,P|369:256|344:258,1,50,10|2,0:0|1:2,0:0:0:0:
303,287,92047,5,14,0:0:0:0:
217,338,92372,1,10,0:0:0:0:
129,289,92696,2,0,P|128:239|131:189,1,99.9999999999999,10|10,0:0|0:0,0:0:0:0:
192,109,93345,2,0,P|216:106|241:108,1,50,10|2,0:0|1:2,0:0:0:0:
282,136,93669,2,0,P|306:138|331:136,1,50,10|2,0:0|1:2,0:0:0:0:
373,164,93993,2,0,L|375:213,1,50,10|0,0:0|1:0,0:0:0:0:
409,251,94318,1,8,0:0:0:0:
351,332,94642,5,14,0:0:0:0:
262,285,94966,1,10,0:0:0:0:
175,233,95291,2,0,L|172:133,1,99.9999999999999,10|10,0:0|0:0,0:0:0:0:
77,102,95939,2,0,L|78:154,1,50,10|2,0:0|1:2,0:0:0:0:
53,195,96264,2,0,L|52:247,1,50,10|2,0:0|1:2,0:0:0:0:
81,285,96588,1,8,0:0:0:0:
166,336,96912,2,0,L|215:335,1,50,10|2,0:0|1:2,0:0:0:0:
257,306,97236,5,14,0:0:0:0:
346,350,97561,1,10,0:0:0:0:
422,286,97885,2,0,L|417:236,1,50,10|2,0:0|1:2,0:0:0:0:
445,194,98209,2,0,L|449:144,1,50,10|2,0:0|1:2,0:0:0:0:
421,103,98534,2,0,P|379:84|316:90,1,99.9999999999999,12|8,0:0|0:0,0:0:0:0:
245,145,99182,2,0,L|195:140,1,50,8|0,0:0|0:0,0:0:0:0:
151,165,99507,2,0,L|101:169,1,50,8|8,3:0|3:0,0:0:0:0:
56,147,99831,5,6,1:2:0:0:
214,371,101128,5,2,0:0:0:0:
363,150,102426,5,2,0:0:0:0:
197,262,103074,1,2,0:0:0:0:
179,62,103723,1,2,0:0:0:0:
490,312,105020,6,0,P|453:289|383:292,1,99.9999999999999,6|2,1:2|1:2,0:0:0:0:
312,339,105669,2,0,P|268:367|201:359,1,99.9999999999999,2|2,1:2|1:2,0:0:0:0:
149,298,106318,2,0,P|105:272|46:279,1,99.9999999999999,6|2,1:2|1:2,0:0:0:0:
29,316,106804,1,2,0:0:0:0:
29,316,106966,1,0,1:0:0:0:
0,220,107291,2,0,L|4:170,1,50,10|2,0:0|0:0,0:0:0:0:
24,127,107615,6,0,B|72:107|72:107|130:132,1,99.9999999999999,6|10,1:2|0:0,0:0:0:0:
147,164,108101,1,8,3:0:0:0:
147,164,108264,2,0,L|206:159,1,50,10|2,3:0|0:0,0:0:0:0:
237,131,108588,2,0,L|296:136,1,50,14|2,0:0|0:0,0:0:0:0:
330,160,108912,6,0,B|353:207|329:271|323:261|311:303|330:356,1,200,10|8,0:0|0:0,0:0:0:0:
