osu file format v14

[General]
AudioFilename: audio.mp3
AudioLeadIn: 0
PreviewTime: 56425
Countdown: 0
SampleSet: Soft
StackLeniency: 0.7
Mode: 0
LetterboxInBreaks: 0
WidescreenStoryboard: 1

[Editor]
DistanceSpacing: 1
BeatDivisor: 4
GridSize: 8
TimelineZoom: 1.5

[Metadata]
Title:ROKI
TitleUnicode:ロキ
Artist:mafumafu feat. soraru
ArtistUnicode:まふまふ feat. そらる
Creator:AirinCat
Version:Normal.
Source:
Tags:japanese pop jpop cover utaite mikitop みきとP daisan wave vocaloid rin kagamine 鏡音リン
BeatmapID:3242403
BeatmapSetID:1587613

[Difficulty]
HPDrainRate:3
CircleSize:3.6
OverallDifficulty:4
ApproachRate:5
SliderMultiplier:1.1
SliderTickRate:1

[Events]
//Background and Video events
0,0,"lookey.jpg",0,0
//Break Periods
2,47430,48430
2,50230,51630
2,85830,86830
//Storyboard Layer 0 (Background)
//Storyboard Layer 1 (Fail)
//Storyboard Layer 2 (Pass)
//Storyboard Layer 3 (Foreground)
//Storyboard Layer 4 (Overlay)
//Storyboard Sound Samples

[TimingPoints]
2430,400,4,2,1,50,1,0
2430,-111.111111111111,4,2,1,50,0,0
2830,-111.111111111111,4,2,1,60,0,0
3230,-111.111111111111,4,2,1,60,0,0
4030,-111.111111111111,4,2,1,60,0,0
4430,-111.111111111111,4,2,1,60,0,0
5630,-111.111111111111,4,2,1,70,0,0
16830,-111.111111111111,4,2,1,50,0,0
18430,-111.111111111111,4,2,1,45,0,0
31530,-111.111111111111,4,2,1,40,0,0
33830,-111.111111111111,4,2,1,70,0,0
34430,-100,4,2,1,70,0,0
40830,-105.263157894737,4,2,1,70,0,0
47230,-111.111111111111,4,2,1,70,0,0
58430,-111.111111111111,4,2,1,60,0,0
59230,-111.111111111111,4,2,1,75,0,0
60030,-95.2380952380951,4,2,1,75,0,1
65230,-95.2380952380951,4,2,1,75,0,0
65630,-95.2380952380951,4,2,1,75,0,1
72830,-111.111111111111,4,2,1,50,0,0
88030,-105.263157894737,4,2,1,50,0,0
101630,-105.263157894737,4,2,1,60,0,0
111030,-111.111111111111,4,2,1,70,0,0
113230,-100,4,2,1,70,0,0
113630,-99.9999999999998,4,2,1,75,0,0
114430,-95.2380952380951,4,2,1,75,0,1
119630,-95.2380952380951,4,2,1,75,0,0
120030,-95.2380952380951,4,2,1,75,0,1
127630,400,4,2,1,70,1,0
138830,-111.111111111111,4,2,1,60,0,0
139230,-100,4,2,1,60,0,0
139630,-90.9090909090909,4,2,1,70,0,0
140430,-100,4,2,1,50,0,0
140830,-90.909090909091,4,2,1,60,0,0
141230,400,4,2,1,50,1,0
141230,-111.111111111111,4,2,1,50,0,0
147630,-100,4,2,1,50,0,0
152430,-99.9999999999999,4,2,1,70,0,0
154030,-100,4,2,1,70,0,0
163630,-100,4,2,1,70,0,0
167630,400,4,2,1,60,1,0
167630,-111.111111111111,4,2,1,60,0,0
170830,-111.111111111111,4,2,1,66,0,0
174830,-111.111111111111,4,2,1,68,0,0
175630,-111.111111111111,4,2,1,70,0,0
178830,-125,4,2,1,60,0,0
179630,-125,4,2,1,60,0,0
181230,400,4,2,1,75,1,0
181230,-95.2380952380951,4,2,1,75,0,1
186430,-95.2380952380951,4,2,1,75,0,0
186830,-95.2380952380951,4,2,1,75,0,1
194030,-100,4,2,1,75,0,0
200030,-100,4,2,1,75,0,0
200430,-100,4,2,1,70,0,0
208430,-125,4,2,1,60,0,0
209230,-125,4,2,1,60,0,0
210030,-100,4,2,1,75,0,0
210830,400,4,2,1,70,1,0
210830,-100,4,2,1,70,0,0
222030,-100,4,2,1,60,0,0
223730,-100,4,2,1,20,0,0

[Colours]
Combo1 : 208,111,206
Combo2 : 148,78,205
Combo3 : 118,120,209

[HitObjects]
70,367,2030,5,4,0:2:0:0:
13,285,2430,1,0,1:2:0:0:
59,197,2830,1,0,1:2:0:0:
157,208,3230,1,0,1:2:0:0:
185,302,3630,1,0,1:2:0:0:
273,345,4030,2,0,P|320:335|385:319,1,98.9999969787599,2|2,0:2|0:2,0:2:0:0:
450,266,4830,2,0,B|468:219|468:219|429:187,1,98.9999969787599,8|8,0:2|0:2,0:0:0:0:
378,103,5630,6,0,P|336:114|261:128,1,98.9999969787599,6|10,1:2|0:2,0:2:0:0:
236,123,6230,1,2,0:2:0:0:
236,123,6430,2,0,P|241:146|247:180,1,49.4999984893799,2|0,1:2|0:2,0:2:0:0:
275,211,6830,1,10,0:2:0:0:
233,300,7230,2,0,P|190:329|145:315,1,98.9999969787599,2|8,1:2|0:2,0:2:0:0:
110,293,7830,1,2,0:2:0:0:
110,293,8030,1,2,1:2:0:0:
21,248,8430,2,0,P|25:218|30:189,1,49.4999984893799,10|0,0:2|0:2,0:2:0:0:
9,153,8830,6,0,P|63:160|119:176,1,98.9999969787599,2|10,1:2|0:2,0:2:0:0:
149,145,9430,1,2,0:2:0:0:
149,145,9630,2,0,P|153:116|159:86,1,49.4999984893799,2|0,1:2|0:2,0:2:0:0:
142,48,10030,1,10,0:2:0:0:
236,18,10430,2,0,B|293:21|282:36|335:38,1,98.9999969787599,2|10,1:2|0:2,0:2:0:0:
402,108,11230,2,0,P|396:136|395:167,1,49.4999984893799,2|2,1:3|0:3,0:0:0:0:
353,184,11630,2,0,P|357:207|360:242,1,49.4999984893799,10|10,0:2|0:2,0:0:0:0:
388,273,12030,6,0,P|339:268|304:310,1,98.9999969787599,6|10,1:2|0:2,0:2:0:0:
293,351,12630,1,2,0:2:0:0:
293,351,12830,2,0,L|239:335,1,49.4999984893799,2|0,1:2|0:2,0:2:0:0:
202,361,13230,1,10,0:2:0:0:
144,280,13630,2,0,P|154:228|170:176,1,98.9999969787599,2|8,1:2|0:2,0:2:0:0:
189,141,14230,1,2,0:2:0:0:
189,141,14430,1,2,1:2:0:0:
275,188,14830,2,0,P|302:193|326:199,1,49.4999984893799,10|8,0:2|0:2,0:0:0:0:
372,198,15230,5,10,0:2:0:0:
444,131,15630,1,10,0:2:0:0:
500,212,16030,2,0,P|496:233|494:271,1,49.4999984893799,10|0,0:2|1:2,0:0:0:0:
455,291,16430,2,0,P|459:315|463:345,1,49.4999984893799,10|0,0:2|1:2,0:0:0:0:
425,372,16830,2,0,B|345:375|375:333|285:332,1,148.49999546814,4|0,1:2|0:0,0:2:0:0:
240,352,17630,1,8,0:2:0:0:
162,290,18030,2,0,P|166:265|173:237,1,49.4999984893799,8|4,0:2|0:3,0:2:0:0:
144,200,18430,6,0,L|77:189,1,49.4999984893799,6|0,1:2|0:2,0:2:0:0:
62,154,18830,1,10,0:2:0:0:
100,62,19230,2,0,L|162:70,1,49.4999984893799,2|2,1:2|0:2,0:2:0:0:
195,49,19630,2,0,P|188:76|187:117,1,49.4999984893799,10|0,0:2|0:2,0:2:0:0:
218,134,20030,2,0,P|261:153|305:133,1,98.9999969787599,2|10,1:2|0:2,0:2:0:0:
380,67,20830,2,0,P|372:39|367:13,2,49.4999984893799,2|2|8,1:2|0:2|0:2,0:0:0:0:
468,110,21630,6,0,P|462:133|461:166,1,49.4999984893799,2|0,1:2|0:2,0:2:0:0:
432,199,22030,1,10,0:2:0:0:
430,297,22430,2,0,B|378:292|389:265|337:265,1,98.9999969787599,2|10,1:2|0:2,0:0:0:0:
250,219,23230,2,0,P|215:252|219:300,1,98.9999969787599,2|10,1:2|0:2,0:2:0:0:
141,362,24030,1,2,1:2:0:0:
141,362,24230,2,0,P|117:358|85:356,1,49.4999984893799,2|8,0:2|0:2,0:0:0:0:
58,327,24630,1,8,0:2:0:0:
58,327,24830,6,0,P|71:273|78:226,1,98.9999969787599,4|8,1:2|0:2,0:2:0:0:
56,133,25630,2,0,P|31:127|7:122,2,49.4999984893799,2|2|8,1:2|0:2|0:2,0:0:0:0:
102,111,26230,1,2,0:2:0:0:
102,111,26430,2,0,P|150:120|192:92,1,98.9999969787599,2|10,1:2|0:2,0:2:0:0:
223,58,27030,1,2,3:2:0:0:
223,58,27230,2,0,P|248:63|278:70,1,49.4999984893799,2|2,1:2|0:3,0:0:0:0:
339,139,27830,6,0,P|327:185|317:254,1,98.9999969787599,2|2,0:2|0:2,0:2:0:0:
274,258,28430,2,0,P|280:281|285:312,1,49.4999984893799,10|0,0:2|0:2,0:2:0:0:
319,341,28830,2,0,P|346:332|376:330,1,49.4999984893799,2|2,1:2|0:2,0:0:0:0:
413,346,29230,1,10,0:2:0:0:
485,278,29630,2,0,P|477:250|472:216,1,49.4999984893799,2|2,1:2|0:2,0:0:0:0:
476,188,30030,1,10,0:2:0:0:
476,188,30230,1,2,0:2:0:0:
476,188,30430,2,0,P|419:203|374:210,1,98.9999969787599,2|8,1:2|0:2,0:2:0:0:
319,288,31230,5,0,1:2:0:0:
24,312,33830,2,0,B|-3:271|-3:271|30:234,1,98.9999969787599,14|10,0:2|0:2,0:2:0:0:
67,193,34430,6,0,P|58:157|54:102,2,82.5,6|2|2,1:2|0:2|0:2,0:2:0:0:
119,209,35230,2,0,P|155:199|217:197,2,82.5,2|2|2,1:2|0:2|0:2,0:2:0:0:
106,262,36030,2,0,P|114:303|120:358,1,82.5,2|2,1:2|0:2,0:2:0:0:
199,378,36630,1,2,0:2:0:0:
199,378,36830,2,0,P|242:379|273:355,1,82.5,2|2,1:2|0:2,0:2:0:0:
335,302,37430,1,2,0:2:0:0:
335,302,37630,6,0,L|398:315,1,55,2|2,1:2|0:2,0:0:0:0:
429,275,38030,2,0,P|433:244|437:211,1,55,10|2,0:2|0:2,0:0:0:0:
434,165,38430,2,0,P|392:158|337:148,2,82.5,2|2|2,1:2|0:2|0:2,0:2:0:0:
475,128,39230,2,0,P|491:91|479:52,1,82.5,2|2,1:2|0:2,0:2:0:0:
413,12,39830,1,2,0:2:0:0:
413,12,40030,2,0,L|351:25,1,55,2|2,1:3|0:3,0:0:0:0:
313,54,40430,2,0,L|256:44,1,55,10|10,0:2|0:2,0:0:0:0:
207,34,40830,6,0,P|172:70|180:120,1,104.499997209549,6|8,1:2|0:2,0:2:0:0:
250,197,41630,2,0,P|279:188|308:184,1,52.2499986047745,2|2,1:2|0:2,0:0:0:0:
335,145,42030,1,10,0:2:0:0:
413,213,42430,2,0,P|408:239|402:270,1,52.2499986047745,2|0,1:2|0:2,0:2:0:0:
382,312,42830,2,0,P|353:304|316:302,1,52.2499986047745,10|0,0:2|3:0,0:0:0:0:
292,336,43230,1,2,1:2:0:0:
292,336,43430,2,0,P|261:342|229:348,1,52.2499986047745,2|8,0:3|0:0,0:0:0:0:
190,362,43830,6,0,P|156:323|168:270,1,104.499997209549,2|0,0:2|3:2,0:2:0:0:
191,229,44430,1,10,0:2:0:0:
119,154,44830,2,0,P|89:157|59:165,1,52.2499986047745,2|2,1:2|0:2,0:0:0:0:
21,136,45230,2,0,P|15:106|12:77,1,52.2499986047745,10|2,0:2|0:2,0:0:0:0:
28,34,45630,2,0,P|73:11|122:26,1,104.499997209549,2|10,1:2|0:2,0:2:0:0:
168,61,46230,1,2,0:2:0:0:
168,61,46430,1,2,1:2:0:0:
262,16,46830,1,10,0:2:0:0:
296,108,47230,5,6,1:2:0:0:
168,61,49630,5,2,0:2:0:0:
262,16,50030,1,2,0:2:0:0:
168,61,52830,5,2,0:2:0:0:
262,16,53230,1,2,0:2:0:0:
256,192,53630,12,8,58430,1:2:0:0:
36,179,59230,6,0,B|14:135|14:135|49:100,1,98.9999969787599,12|8,1:2|0:2,0:2:0:0:
93,74,59830,5,8,0:2:0:0:
93,74,60030,2,0,L|159:90,1,57.7499982376099,6|2,1:2|0:2,0:0:0:0:
186,131,60430,2,0,L|249:116,1,57.7499982376099,10|2,0:2|3:2,0:2:0:0:
285,79,60830,1,2,1:2:0:0:
366,160,61230,2,0,L|353:224,1,57.7499982376099,10|2,0:2|0:2,0:0:0:0:
303,243,61630,2,0,L|318:305,1,57.7499982376099,2|2,1:2|0:2,0:0:0:0:
361,335,62030,2,0,B|420:328|405:301|466:292,1,115.49999647522,10|2,0:2|1:2,0:2:0:0:
504,249,62630,1,2,0:2:0:0:
504,249,62830,2,0,P|494:212|490:184,1,57.7499982376099,10|2,0:2|0:2,0:0:0:0:
446,156,63230,6,0,P|408:113|424:57,1,115.49999647522,6|10,1:2|0:2,0:2:0:0:
460,18,63830,1,2,0:2:0:0:
460,18,64030,1,2,1:2:0:0:
344,14,64430,1,10,0:2:0:0:
283,112,64830,6,0,P|288:137|295:174,1,57.7499982376099,6|0,1:2|0:0,0:2:0:0:
339,205,65230,1,10,0:2:0:0:
273,300,65630,2,0,P|247:305|211:312,1,57.7499982376099,6|0,1:2|0:0,0:2:0:0:
180,356,66030,1,10,0:2:0:0:
73,311,66430,6,0,P|38:267|56:213,1,115.49999647522,6|10,1:2|0:2,0:2:0:0:
96,174,67030,1,2,0:2:0:0:
96,174,67230,2,0,P|88:139|83:117,1,57.7499982376099,2|2,1:2|0:2,0:0:0:0:
104,66,67630,1,10,0:2:0:0:
104,66,67830,2,0,B|142:29|142:29|171:26|198:60,1,115.49999647522,2|2,0:2|0:2,0:2:0:0:
243,87,68430,2,0,P|272:78|312:72,1,57.7499982376099,10|2,0:2|0:2,0:2:0:0:
335,28,68830,1,2,1:2:0:0:
434,87,69230,1,10,0:2:0:0:
363,178,69630,6,0,P|366:200|374:245,1,57.7499982376099,6|2,1:2|0:2,0:0:0:0:
423,262,70030,2,0,P|419:284|412:329,1,57.7499982376099,10|2,0:2|3:2,0:2:0:0:
377,364,70430,1,2,1:2:0:0:
277,305,70830,2,0,P|247:298|212:292,1,57.7499982376099,10|2,0:2|0:2,0:0:0:0:
178,333,71230,2,0,P|148:339|113:346,1,57.7499982376099,2|2,1:2|0:2,0:0:0:0:
66,327,71630,2,0,P|28:280|44:224,2,115.49999647522,10|8|8,1:2|1:2|1:2,0:2:0:0:
135,256,72830,1,2,0:2:0:0:
123,157,73230,6,0,L|135:97,1,49.4999984893799,10|0,0:2|0:2,0:2:0:0:
169,75,73630,2,0,L|226:85,1,49.4999984893799,2|2,1:2|0:2,0:0:0:0:
259,56,74030,1,10,0:2:0:0:
330,124,74430,2,0,P|317:174|312:231,1,98.9999969787599,2|10,1:2|0:2,0:2:0:0:
352,311,75230,2,0,P|402:326|443:292,1,98.9999969787599,2|2,1:2|1:2,0:2:0:0:
490,297,75830,1,8,0:2:0:0:
490,297,76030,6,0,P|475:244|472:196,1,98.9999969787599,2|10,1:2|0:2,0:0:0:0:
471,101,76830,2,0,P|445:106|411:109,1,49.4999984893799,2|2,1:2|0:2,0:2:0:0:
392,148,77230,2,0,P|366:142|332:140,1,49.4999984893799,10|2,0:2|0:2,0:2:0:0:
319,96,77630,1,2,1:2:0:0:
220,108,78030,2,0,B|201:128|201:128|215:159,1,49.4999984893799,8|2,0:2|0:3,0:2:0:0:
237,189,78430,2,0,B|248:211|248:211|234:236,1,49.4999984893799,2|0,1:3|0:2,0:2:0:0:
202,269,78830,1,10,0:2:0:0:
165,361,79230,6,0,P|128:354|106:351,1,49.4999984893799,2|0,1:2|0:2,0:2:0:0:
66,352,79630,2,0,P|43:310|60:263,1,98.9999969787599,10|2,0:2|1:2,0:2:0:0:
123,188,80430,1,10,0:2:0:0:
31,151,80830,2,0,P|28:128|21:97,1,49.4999984893799,2|2,1:2|0:2,0:2:0:0:
12,53,81230,2,0,P|53:28|103:44,1,98.9999969787599,10|0,0:0|1:0,0:0:0:0:
140,70,81830,1,2,0:0:0:0:
236,46,82230,6,0,B|277:23|277:23|321:47,1,98.9999969787599,10|2,0:2|0:2,0:2:0:0:
344,93,82830,2,0,P|339:120|335:152,1,49.4999984893799,10|0,0:2|0:2,0:2:0:0:
299,175,83230,1,2,1:2:0:0:
308,273,83630,1,10,0:2:0:0:
400,308,84030,2,0,P|423:309|453:316,1,49.4999984893799,2|2,1:2|0:2,0:2:0:0:
497,294,84430,1,10,0:2:0:0:
497,294,84630,1,2,0:2:0:0:
497,294,84830,2,0,P|502:241|515:188,1,98.9999969787599,2|8,1:2|0:2,0:2:0:0:
459,112,85630,5,4,1:2:0:0:
18,345,88030,6,0,B|-6:313|-6:313|14:278,1,78.3749979071618,8|8,0:2|0:2,0:2:0:0:
52,213,88630,1,8,0:2:0:0:
52,213,88830,2,0,P|96:224|168:237,1,104.499997209549,2|0,1:2|0:2,0:2:0:0:
150,339,89630,2,0,P|194:328|266:315,1,104.499997209549,0|0,1:2|0:2,0:2:0:0:
268,213,90430,2,0,P|312:224|384:237,1,104.499997209549,0|0,1:2|0:2,0:2:0:0:
365,339,91230,2,0,P|409:328|481:315,1,104.499997209549,0|0,1:2|0:2,0:2:0:0:
510,221,92030,5,0,1:2:0:0:
458,130,92430,1,0,1:2:0:0:
354,146,92830,1,0,1:2:0:0:
337,249,93230,1,0,1:2:0:0:
411,321,93630,2,0,B|451:311|451:311|491:349,2,78.3749979071618,2|2|2,1:2|1:2|1:2,0:0:0:0:
374,358,94430,2,0,L|311:349,1,52.2499986047745,10|10,0:2|0:2,0:2:0:0:
284,332,94830,1,10,0:2:0:0:
284,332,95030,1,10,0:2:0:0:
284,332,95230,6,0,P|237:341|174:358,1,104.499997209549,6|10,1:2|0:2,0:2:0:0:
83,322,96030,2,0,L|73:267,1,52.2499986047745,2|2,1:2|0:2,0:0:0:0:
91,221,96430,1,10,0:2:0:0:
189,186,96830,2,0,P|192:153|199:122,1,52.2499986047745,2|0,1:2|0:2,0:2:0:0:
172,87,97230,2,0,P|142:82|111:76,1,52.2499986047745,10|0,0:2|3:2,0:0:0:0:
88,43,97630,1,2,1:2:0:0:
88,43,97830,1,2,0:3:0:0:
26,127,98230,6,0,P|11:175|1:234,1,104.499997209549,2|2,0:2|0:2,0:2:0:0:
14,279,98830,1,10,0:2:0:0:
87,353,99230,2,0,P|114:355|145:362,1,52.2499986047745,2|2,1:2|0:2,0:0:0:0:
185,335,99630,2,0,P|189:302|197:278,1,52.2499986047745,10|2,0:2|0:2,0:0:0:0:
233,248,100030,6,0,P|258:251|294:262,1,52.2499986047745,2|2,1:2|0:2,0:2:0:0:
323,293,100430,2,0,P|353:286|382:279,1,52.2499986047745,10|2,0:0|0:0,0:0:0:0:
425,271,100830,1,2,1:2:0:0:
434,166,101230,1,10,0:2:0:0:
338,123,101630,5,14,1:2:0:0:
410,48,102030,1,8,1:2:0:0:
338,123,103230,5,8,1:2:0:0:
410,48,103630,1,8,1:2:0:0:
482,122,104030,2,0,P|471:174|463:230,1,104.499997209549,2|2,0:2|0:2,0:2:0:0:
375,276,104830,5,8,1:2:0:0:
292,211,105230,1,8,1:2:0:0:
375,276,106430,5,8,1:2:0:0:
292,211,106830,1,8,1:2:0:0:
228,294,107230,2,0,P|176:303|121:315,1,104.499997209549,2|2,0:2|0:2,0:2:0:0:
28,274,108030,5,8,0:2:0:0:
0,173,108430,1,8,0:2:0:0:
79,104,108830,1,8,0:2:0:0:
173,148,109230,1,8,0:2:0:0:
149,249,109630,2,0,P|156:271|165:307,1,52.2499986047745,10|0,0:2|1:2,0:0:0:0:
208,326,110030,2,0,P|238:314|276:305,1,52.2499986047745,10|0,0:2|1:2,0:0:0:0:
289,267,110430,2,0,P|311:272|359:284,1,52.2499986047745,10|0,0:2|1:2,0:0:0:0:
390,306,110830,1,10,0:2:0:0:
390,306,111030,6,0,P|416:295|499:281,1,98.9999969787599,2|0,1:2|1:2,0:0:0:0:
503,235,111630,1,10,0:2:0:0:
431,166,112030,1,10,0:2:0:0:
491,87,112430,1,10,0:2:0:0:
416,22,112830,2,0,P|394:25|358:35,1,49.4999984893799,2|2,0:2|0:2,0:0:0:0:
315,14,113230,1,0,1:2:0:0:
255,106,113630,2,2,B|242:148|268:191|285:170|316:208|297:255,1,165,2|0,0:2|0:0,0:1:0:0:
266,303,114430,6,0,P|235:297|202:292,1,57.7499982376099,6|2,1:2|0:2,0:0:0:0:
166,254,114830,2,0,P|135:259|102:265,1,57.7499982376099,10|2,0:2|3:2,0:2:0:0:
71,307,115230,1,2,1:2:0:0:
4,212,115630,2,0,L|22:152,1,57.7499982376099,10|2,0:2|0:2,0:0:0:0:
76,141,116030,2,0,L|62:73,1,57.7499982376099,2|2,1:2|0:2,0:0:0:0:
91,33,116430,2,0,P|146:11|200:37,1,115.49999647522,10|0,0:2|1:2,0:2:0:0:
255,46,117030,1,2,0:2:0:0:
255,46,117230,2,0,P|246:79|243:105,1,57.7499982376099,10|2,0:2|0:2,0:0:0:0:
197,137,117630,6,0,P|212:189|221:264,1,115.49999647522,6|10,1:2|0:2,0:2:0:0:
201,306,118230,1,2,0:2:0:0:
201,306,118430,1,2,1:2:0:0:
294,374,118830,1,10,0:2:0:0:
396,320,119230,6,0,P|403:290|412:253,1,57.7499982376099,6|0,1:2|0:0,0:2:0:0:
372,219,119630,1,10,0:2:0:0:
256,208,120030,2,0,P|248:178|240:141,1,57.7499982376099,6|0,1:2|0:0,0:2:0:0:
280,107,120430,1,10,0:2:0:0:
371,36,120830,6,0,B|427:39|423:63|479:73,1,115.49999647522,6|10,1:2|0:2,0:2:0:0:
512,125,121430,1,2,0:2:0:0:
512,125,121630,2,0,P|507:156|505:191,1,57.7499982376099,2|2,1:2|0:2,0:0:0:0:
509,243,122030,1,10,0:2:0:0:
509,243,122230,2,0,P|458:219|404:248,1,115.49999647522,2|2,0:2|0:2,0:2:0:0:
379,293,122830,1,10,0:2:0:0:
271,251,123230,1,2,1:2:0:0:
211,349,123630,1,10,0:2:0:0:
107,298,124030,6,0,P|99:268|94:232,1,57.7499982376099,6|2,1:2|0:2,0:0:0:0:
51,203,124430,2,0,P|55:174|62:146,1,57.7499982376099,10|2,0:2|3:2,0:2:0:0:
107,109,124830,2,0,B|164:107|147:136|218:135,1,115.49999647522,2|8,1:2|0:2,0:2:0:0:
259,95,125430,1,8,0:2:0:0:
259,95,125630,1,10,1:2:0:0:
355,158,126030,1,10,1:2:0:0:
293,256,126430,2,0,B|296:315|331:306|336:361,2,115.49999647522,10|8|8,1:2|0:2|0:2,0:2:0:0:
403,254,127630,6,0,P|460:262|496:211,1,110,6|8,1:2|0:2,0:2:0:0:
507,121,128430,1,2,1:2:0:0:
507,121,128630,2,0,P|501:91|492:53,1,55,2|8,0:2|0:2,0:2:0:0:
447,39,129030,2,0,P|420:45|384:53,1,55,2|0,0:2|1:2,0:2:0:0:
347,82,129430,2,0,B|285:76|302:49|247:40,1,110,2|0,0:2|0:0,0:0:0:0:
143,68,130230,1,2,0:2:0:0:
143,68,130430,2,0,P|137:93|131:124,1,55,10|8,0:2|0:2,0:0:0:0:
98,166,130830,6,0,P|160:176|213:186,1,110,6|8,1:2|0:2,0:2:0:0:
294,259,131630,1,2,1:2:0:0:
294,259,131830,2,0,P|289:284|286:322,1,55,2|8,0:2|0:2,0:2:0:0:
247,352,132230,2,0,P|218:344|182:343,1,55,2|0,0:2|1:2,0:2:0:0:
147,311,132630,2,0,B|92:318|106:345|46:362,1,110,2|0,0:2|0:0,0:0:0:0:
26,257,133430,1,2,0:2:0:0:
26,257,133630,2,0,P|21:226|17:187,1,55,10|8,0:2|0:2,0:0:0:0:
36,150,134030,6,0,P|84:122|134:142,1,110,6|8,1:2|0:2,0:2:0:0:
204,222,134830,2,0,P|234:215|274:208,1,55,2|2,1:2|0:2,0:0:0:0:
316,223,135230,1,10,0:2:0:0:
316,223,135430,2,0,P|301:163|296:106,1,110,2|2,0:2|0:2,0:2:0:0:
302,60,136030,1,8,0:2:0:0:
395,2,136430,1,2,1:2:0:0:
481,69,136830,1,8,0:2:0:0:
433,168,137230,6,0,P|407:164|376:160,1,55,6|0,1:2|0:2,0:2:0:0:
330,145,137630,1,10,0:2:0:0:
330,145,137830,2,0,B|292:184|292:184|320:238,1,110,2|10,0:2|0:2,0:2:0:0:
361,267,138430,2,0,P|356:292|353:329,1,55,8|8,0:2|0:2,0:0:0:0:
332,366,138830,5,8,1:2:0:0:
229,325,139230,1,8,1:2:0:0:
115,283,139630,1,8,1:2:0:0:
1,240,140030,1,8,1:2:0:0:
70,154,140430,2,0,P|82:95|96:37,1,110,2|2,0:2|0:3,0:2:0:0:
185,9,141230,6,0,L|240:22,1,49.4999984893799,4|2,1:2|0:2,0:0:0:0:
263,59,141630,1,2,1:2:0:0:
361,71,142030,2,0,P|379:26|366:-8,2,74.2499977340699,2|2|2,1:2|0:2|0:2,0:2:0:0:
395,106,142830,2,0,P|439:122|496:137,1,98.9999969787599,0|2,1:2|1:2,0:2:0:0:
490,234,143630,2,0,P|478:273|471:311,2,74.2499977340699,2|2|2,1:2|0:2|0:2,0:2:0:0:
444,213,144430,6,0,P|400:195|341:186,1,98.9999969787599,2|2,1:2|1:2,0:2:0:0:
250,197,145230,2,0,P|241:161|258:129,2,74.2499977340699,2|2|2,1:2|0:2|0:2,0:2:0:0:
271,241,146030,2,0,P|260:290|250:345,1,98.9999969787599,2|0,1:2|1:2,0:2:0:0:
216,373,146630,1,2,0:2:0:0:
216,373,146830,1,2,1:2:0:0:
117,361,147230,1,2,1:2:0:0:
50,273,147630,6,0,P|58:236|74:191,1,82.5,6|2,1:2|0:2,0:2:0:0:
150,160,148230,1,2,0:2:0:0:
150,160,148430,2,0,P|185:170|231:177,1,82.5,2|2,1:2|0:2,0:2:0:0:
303,135,149030,1,2,0:2:0:0:
303,135,149230,2,0,P|313:99|320:54,1,82.5,2|2,1:2|0:2,0:2:0:0:
261,4,149830,1,2,0:2:0:0:
261,4,150030,1,2,1:2:0:0:
193,51,150330,2,0,P|156:41|104:32,1,82.5,2|0,0:2|0:2,0:0:0:0:
59,47,150830,6,0,P|50:71|45:102,1,55,2|2,1:2|0:2,0:0:0:0:
8,141,151230,1,2,1:2:0:0:
79,224,151630,2,0,B|134:227|119:253|181:262,1,110,2|0,1:2|1:2,0:2:0:0:
278,212,152430,6,0,L|295:150,2,55,8|8|8,0:2|0:2|0:2,0:0:0:0:
317,258,153030,1,8,0:2:0:0:
317,258,153230,2,0,L|376:278,1,55,10|8,0:2|0:2,0:0:0:0:
431,277,153630,1,10,0:2:0:0:
431,277,153830,1,10,0:2:0:0:
431,277,154030,6,0,P|438:230|453:186,1,82.5,6|0,1:2|1:2,0:2:0:0:
507,138,154630,2,0,P|495:96|487:40,1,82.5,2|8,0:2|0:2,0:0:0:0:
424,5,155230,1,10,0:2:0:0:
390,109,155630,2,0,P|347:116|297:134,1,82.5,2|0,1:2|1:2,0:2:0:0:
236,165,156230,2,0,P|213:131|219:91,1,82.5,2|8,0:2|0:2,0:0:0:0:
276,31,156830,1,10,0:2:0:0:
168,9,157230,6,0,P|126:18|80:25,1,82.5,6|0,1:2|1:2,0:2:0:0:
27,81,157830,2,0,P|36:123|41:167,1,82.5,2|8,0:2|0:2,0:0:0:0:
115,197,158430,1,10,0:2:0:0:
90,304,158830,2,0,P|128:320|165:303,1,82.5,2|0,1:2|1:2,0:2:0:0:
238,268,159430,2,0,P|278:273|335:290,1,82.5,2|8,0:2|0:2,0:0:0:0:
392,246,160030,2,0,P|396:220|405:191,1,55,10|8,0:2|0:3,0:0:0:0:
430,144,160430,6,2,P|375:139|322:124,1,110,6|8,1:2|0:2,0:1:0:0:
296,75,161030,2,0,B|247:50|247:50|204:84,1,110,2|0,0:1|1:2,0:0:0:0:
160,117,161630,1,10,0:2:0:0:
219,207,162030,2,2,P|209:247|205:288,1,82.5,2|0,1:2|1:2,0:1:0:0:
143,344,162630,2,2,B|88:340|98:306|44:301,1,110,10|8,0:2|0:0,0:1:0:0:
21,221,163330,1,8,0:3:0:0:
91,178,163630,6,0,P|94:136|104:96,1,82.5,6|0,1:2|1:0,0:0:0:0:
152,29,164230,2,0,B|120:1|120:1|81:13,2,82.5,2|2|10,0:2|1:2|0:2,0:0:0:0:
236,100,165230,2,0,L|308:88,2,55,6|2|8,1:2|0:2|0:2,0:0:0:0:
201,143,165830,1,10,0:2:0:0:
201,143,166030,2,0,L|218:239,1,82.5,10|10,1:2|1:2,0:0:0:0:
271,292,166630,1,10,1:2:0:0:
271,292,166830,2,0,P|310:280|351:272,1,82.5,10|10,1:2|1:2,0:0:0:0:
429,241,167430,1,10,1:2:0:0:
429,241,167630,6,0,P|415:194|405:145,1,98.9999969787599,6|0,1:2|1:2,0:2:0:0:
404,47,168430,2,2,B|359:28|359:28|318:72,1,98.9999969787599,2|2,0:2|0:2,0:1:0:0:
239,115,169230,2,0,P|199:101|135:91,1,98.9999969787599,2|0,1:2|1:2,0:2:0:0:
57,42,170030,2,2,B|17:71|17:71|11:93|27:119,1,98.9999969787599,2|0,0:2|0:2,0:1:0:0:
90,194,170830,5,6,1:2:0:0:
16,260,171230,1,0,1:2:0:0:
87,328,171630,2,2,B|136:332|129:354|180:357,1,98.9999969787599,2|0,0:2|0:2,0:1:0:0:
272,320,172430,1,2,1:2:0:0:
225,232,172830,1,0,1:2:0:0:
310,182,173230,2,2,B|337:146|337:146|338:102|297:90,1,98.9999969787599,2|0,0:2|0:2,0:1:0:0:
238,36,174030,6,0,P|209:40|168:49,1,49.4999984893799,6|2,1:2|0:2,0:2:0:0:
146,19,174430,1,8,0:2:0:0:
73,86,174830,2,0,P|77:114|86:156,1,49.4999984893799,2|2,1:2|0:2,0:2:0:0:
56,177,175230,1,8,0:2:0:0:
150,206,175630,2,0,P|146:230|141:254,1,49.4999984893799,6|2,1:2|0:2,0:2:0:0:
167,296,176030,1,8,0:2:0:0:
265,286,176430,2,0,P|289:289|313:294,1,49.4999984893799,2|2,1:2|1:2,0:2:0:0:
349,328,176830,1,8,0:2:0:0:
439,287,177230,6,0,L|452:219,1,49.4999984893799,10|0,1:2|1:2,0:0:0:0:
492,212,177630,1,10,1:2:0:0:
492,212,177830,1,0,1:2:0:0:
492,212,178030,1,10,1:2:0:0:
439,127,178430,1,10,1:2:0:0:
355,155,178830,6,0,P|335:150|304:143,1,44,2|0,0:2|0:2,0:2:0:0:
275,120,179230,2,0,P|282:94|289:73,1,44,2|0,0:2|0:2,0:2:0:0:
256,46,179630,2,2,B|207:27|207:27|152:37|159:87,1,132,2|0,0:2|0:0,0:1:0:0:
168,122,180430,2,2,B|102:130|130:170|54:192,1,132,8|8,0:2|0:2,0:1:0:0:
1,187,181230,6,0,L|11:243,1,57.7499982376099,6|2,1:2|0:2,0:0:0:0:
63,269,181630,2,0,L|52:325,1,57.7499982376099,10|2,0:2|3:2,0:2:0:0:
84,374,182030,1,2,1:2:0:0:
190,328,182430,2,0,L|249:337,1,57.7499982376099,10|2,0:2|0:2,0:0:0:0:
291,374,182830,2,0,L|350:365,1,57.7499982376099,2|2,1:2|0:2,0:0:0:0:
391,326,183230,2,0,B|394:269|353:278|356:219,1,115.49999647522,10|2,0:2|1:2,0:2:0:0:
395,177,183830,1,2,0:2:0:0:
395,177,184030,2,0,P|400:143|410:108,1,57.7499982376099,10|2,0:2|0:2,0:0:0:0:
450,82,184430,6,0,P|392:77|337:55,1,115.49999647522,6|10,1:2|0:0,0:2:0:0:
300,19,185030,1,2,0:0:0:0:
300,19,185230,1,2,1:2:0:0:
194,65,185630,1,10,0:2:0:0:
231,174,186030,6,0,P|223:203|220:243,1,57.7499982376099,6|0,1:2|0:0,0:2:0:0:
249,280,186430,1,10,0:2:0:0:
364,269,186830,2,0,P|371:239|375:200,1,57.7499982376099,6|0,1:2|0:0,0:2:0:0:
346,163,187230,1,10,0:2:0:0:
269,76,187630,6,0,B|207:76|227:101|160:109,1,115.49999647522,6|10,1:2|0:2,0:2:0:0:
117,148,188230,1,2,0:2:0:0:
117,148,188430,2,0,P|123:177|130:210,1,57.7499982376099,2|2,1:2|0:2,0:0:0:0:
101,256,188830,1,10,0:2:0:0:
101,256,189030,2,0,B|62:299|62:299|97:346,1,115.49999647522,2|2,0:2|0:2,0:2:0:0:
150,367,189630,2,0,P|186:357|224:353,1,57.7499982376099,10|2,0:2|0:2,0:2:0:0:
245,311,190030,1,2,1:2:0:0:
339,377,190430,1,10,0:2:0:0:
428,303,190830,6,0,P|433:272|441:241,1,57.7499982376099,6|2,1:2|0:2,0:0:0:0:
484,210,191230,2,0,P|478:179|471:148,1,57.7499982376099,10|2,0:2|3:2,0:2:0:0:
482,96,191630,1,2,1:2:0:0:
377,46,192030,2,0,P|349:51|313:60,1,57.7499982376099,10|8,0:2|0:2,0:0:0:0:
296,110,192430,2,0,P|268:104|232:96,1,57.7499982376099,10|8,0:2|0:2,0:0:0:0:
197,58,192830,2,0,B|132:79|160:104|110:129,1,115.49999647522,2|2,1:2|1:2,0:0:0:0:
0,158,193630,1,8,0:2:0:0:
60,249,194030,6,0,P|65:270|74:310,1,55,6|2,1:2|0:2,0:2:0:0:
121,328,194430,2,0,P|147:322|174:315,1,55,10|2,0:2|0:2,0:0:0:0:
213,276,194830,2,0,B|268:283|253:316|313:318,1,110,2|10,1:2|0:2,0:2:0:0:
404,258,195630,2,0,P|409:229|416:198,1,55,2|2,1:2|0:2,0:0:0:0:
449,161,196030,2,0,P|474:164|513:175,2,55,10|2|0,0:2|0:2|1:2,0:0:0:0:
429,114,196630,1,2,0:2:0:0:
429,114,196830,2,0,P|396:107|365:99,1,55,10|2,0:2|0:2,0:0:0:0:
347,54,197230,5,6,1:2:0:0:
237,47,197630,1,10,0:2:0:0:
254,155,198030,2,0,P|249:176|246:213,1,55,2|2,1:2|0:2,0:0:0:0:
274,256,198430,2,0,P|271:283|265:310,1,55,10|2,0:2|0:2,0:0:0:0:
220,341,198830,2,0,P|193:332|166:328,1,55,2|2,1:2|0:2,0:0:0:0:
118,300,199230,2,0,P|126:273|130:246,1,55,10|2,0:2|0:2,0:0:0:0:
108,195,199630,2,0,P|75:189|45:191,1,55,2|2,1:2|0:2,0:0:0:0:
6,161,200030,1,10,0:2:0:0:
65,68,200430,6,0,P|113:77|185:78,1,110,6|8,1:2|0:2,0:2:0:0:
226,56,201030,1,2,0:2:0:0:
226,56,201230,1,2,1:2:0:0:
315,120,201630,1,10,0:2:0:0:
230,190,202030,2,0,P|197:231|209:283,1,110,2|8,1:2|0:2,0:2:0:0:
251,319,202630,2,0,B|306:315|294:348|354:348,1,110,2|2,0:2|0:2,0:2:0:0:
409,353,203230,2,0,P|413:322|422:295,1,55,8|2,0:2|0:2,0:0:0:0:
463,265,203630,5,6,1:2:0:0:
396,177,204030,2,0,P|372:183|338:186,1,55,10|2,0:2|0:2,0:2:0:0:
286,186,204430,2,0,P|254:143|267:91,1,110,2|10,1:2|0:2,0:2:0:0:
242,48,205030,1,8,0:2:0:0:
242,48,205230,2,0,P|190:61|132:72,1,110,6|10,1:2|0:2,0:2:0:0:
28,68,206030,1,2,1:2:0:0:
28,68,206230,2,0,P|37:97|42:132,1,55,2|8,0:2|0:2,0:2:0:0:
86,161,206630,1,2,0:2:0:0:
86,161,206830,6,0,P|76:212|70:277,1,110,6|10,1:2|0:2,0:2:0:0:
46,321,207430,1,2,0:2:0:0:
46,321,207630,1,2,1:2:0:0:
139,379,208030,1,10,0:2:0:0:
224,314,208430,6,0,P|267:315|326:325,1,88,6|2,1:2|0:2,0:2:0:0:
384,273,209230,2,0,B|407:214|352:203|376:145,1,132,2|0,0:2|0:0,0:2:0:0:
391,92,210030,2,0,B|358:70|313:90|313:90|294:139|252:139,1,165,8|8,0:2|0:2,0:0:0:0:
201,119,210830,6,0,P|151:99|103:124,1,110,6|10,1:2|0:2,0:2:0:0:
66,164,211430,1,2,0:2:0:0:
66,164,211630,2,0,P|74:186|84:223,1,55,2|0,1:2|0:2,0:2:0:0:
134,235,212030,1,10,0:2:0:0:
120,344,212430,2,0,P|170:317|239:307,1,110,2|8,1:2|0:2,0:2:0:0:
280,304,213030,1,2,0:2:0:0:
280,304,213230,1,2,1:2:0:0:
364,374,213630,1,10,0:2:0:0:
459,318,214030,6,0,P|461:267|478:198,1,110,0|10,1:2|0:2,0:2:0:0:
435,177,214630,1,2,0:2:0:0:
435,177,214830,2,0,P|407:175|372:168,1,55,2|0,1:2|0:2,0:2:0:0:
331,196,215230,1,10,0:2:0:0:
232,147,215630,2,0,P|208:99|232:51,1,110,2|10,1:2|0:2,0:2:0:0:
333,6,216430,2,0,P|360:10|394:14,1,55,2|2,1:3|0:3,0:0:0:0:
420,57,216830,2,0,P|447:51|481:48,1,55,10|10,0:2|0:2,0:0:0:0:
507,92,217230,6,0,P|494:138|486:207,1,110,6|10,1:2|0:2,0:2:0:0:
441,229,217830,1,2,0:2:0:0:
441,229,218030,2,0,P|412:223|380:215,1,55,2|0,1:2|0:2,0:2:0:0:
347,178,218430,1,10,0:2:0:0:
252,234,218830,2,0,B|191:243|224:274|160:289,1,110,2|8,1:2|0:2,0:2:0:0:
111,280,219430,1,2,0:2:0:0:
111,280,219630,1,2,1:2:0:0:
36,199,220030,1,10,0:2:0:0:
97,107,220430,5,8,1:2:0:0:
203,79,220830,1,8,1:2:0:0:
271,164,221230,2,0,P|262:215|255:281,1,110,8|0,1:2|1:2,0:2:0:0:
293,320,221830,1,8,1:2:0:0:
293,320,222030,6,0,B|334:334|376:299|345:288|387:251|436:266,1,165,6|0,1:2|0:0,0:2:0:0:
483,237,222830,2,0,P|487:207|491:181,1,55,8|8,0:2|0:2,0:0:0:0:
451,143,223230,2,0,L|457:84,1,55,8|8,0:2|0:2,0:0:0:0:
495,49,223630,5,4,1:2:0:0:
256,192,223830,12,0,225230,0:2:0:0:
