osu file format v14

[General]
AudioFilename: audio.mp3
AudioLeadIn: 0
PreviewTime: 56425
Countdown: 0
SampleSet: Soft
StackLeniency: 0.7
Mode: 0
LetterboxInBreaks: 0
WidescreenStoryboard: 1

[Editor]
Bookmarks: 225230
DistanceSpacing: 1.1
BeatDivisor: 4
GridSize: 8
TimelineZoom: 2.2

[Metadata]
Title:ROKI
TitleUnicode:ロキ
Artist:mafumafu feat. soraru
ArtistUnicode:まふまふ feat. そらる
Creator:AirinCat
Version:Hard.
Source:
Tags:japanese pop jpop cover utaite mikitop みきとP daisan wave vocaloid rin kagamine 鏡音リン
BeatmapID:3242401
BeatmapSetID:1587613

[Difficulty]
HPDrainRate:4
CircleSize:3.8
OverallDifficulty:6
ApproachRate:7.8
SliderMultiplier:1.6
SliderTickRate:1

[Events]
//Background and Video events
0,0,"lookey.jpg",0,0
//Break Periods
2,47430,48851
2,50429,52051
2,85830,87251
//Storyboard Layer 0 (Background)
//Storyboard Layer 1 (Fail)
//Storyboard Layer 2 (Pass)
//Storyboard Layer 3 (Foreground)
//Storyboard Layer 4 (Overlay)
//Storyboard Sound Samples

[TimingPoints]
2430,400,4,2,1,50,1,0
2430,-111.111111111111,4,2,1,50,0,0
2830,-111.111111111111,4,2,1,60,0,0
3230,-90.9090909090909,4,2,1,60,0,0
4030,-166.666666666667,4,2,1,60,0,0
4430,-111.111111111111,4,2,1,60,0,0
5630,-100,4,2,1,70,0,0
16830,-166.666666666667,4,2,1,50,0,0
18430,-111.111111111111,4,2,1,45,0,0
31530,-142.857142857143,4,2,1,40,0,0
33830,-100,4,2,1,70,0,0
47230,-142.857142857143,4,2,1,70,0,0
58430,-142.857142857143,4,2,1,60,0,0
59230,-111.111111111111,4,2,1,80,0,0
60030,-90.9090909090909,4,2,1,80,0,1
65230,-111.111111111111,4,2,1,80,0,0
65630,-90.9090909090909,4,2,1,80,0,1
72830,-111.111111111111,4,2,1,50,0,0
101630,-142.857142857143,4,2,1,60,0,0
111030,-125,4,2,1,70,0,0
113230,-166.666666666666,4,2,1,70,0,0
113630,-99.9999999999998,4,2,1,75,0,0
114430,-90.9090909090909,4,2,1,75,0,1
119630,-111.111111111111,4,2,1,75,0,0
120030,-90.9090909090909,4,2,1,75,0,1
127630,400,4,2,1,70,1,0
138830,-111.111111111111,4,2,1,60,0,0
139230,-100,4,2,1,60,0,0
139630,-90.9090909090909,4,2,1,70,0,0
140430,-166.666666666667,4,2,1,50,0,0
140830,-90.909090909091,4,2,1,60,0,0
141230,400,4,2,1,50,1,0
141230,-111.111111111111,4,2,1,50,0,0
152430,-99.9999999999999,4,2,1,70,0,0
154030,-90.9090909090908,4,2,1,70,0,0
163630,-90.9090909090909,4,2,1,70,0,0
167630,400,4,2,1,60,1,0
167630,-125,4,2,1,60,0,0
170830,-111.111111111111,4,2,1,66,0,0
174830,-111.111111111111,4,2,1,68,0,0
175630,-99.9999999999999,4,2,1,70,0,0
178830,-125,4,2,1,60,0,0
179630,-142.857142857143,4,2,1,60,0,0
181230,400,4,2,1,75,1,0
181230,-90.9090909090908,4,2,1,75,0,1
186430,-111.111111111111,4,2,1,75,0,0
186830,-90.9090909090908,4,2,1,75,0,1
194030,-100,4,2,1,75,0,0
200030,-83.3333333333333,4,2,1,75,0,0
200430,-100,4,2,1,70,0,0
208430,-125,4,2,1,60,0,0
209230,-166.666666666667,4,2,1,60,0,0
210030,-100,4,2,1,75,0,0
210830,400,4,2,1,70,1,0
210830,-100,4,2,1,70,0,0
222030,-142.857142857143,4,2,1,60,0,0
223730,-142.857142857143,4,2,1,20,0,0

[Colours]
Combo1 : 208,111,206
Combo2 : 148,78,205
Combo3 : 118,120,209

[HitObjects]
5,226,2030,5,4,0:2:0:0:
5,226,2430,2,0,B|46:192|46:192|94:217,1,107.999996704102,0|0,1:2|0:2,0:2:0:0:
94,217,2830,2,0,B|148:214|137:186|192:176,1,107.999996704102,0|0,1:2|0:2,0:2:0:0:
192,177,3230,2,0,B|255:193|231:232|297:250,1,132.00000402832,0|0,1:2|0:2,0:2:0:0:
297,250,3630,2,0,P|360:215|339:153,1,132.00000402832,0|0,1:2|0:2,0:2:0:0:
351,164,4030,6,0,P|400:173|453:181,1,95.9999970703126,2|2,0:2|0:2,0:2:0:0:
398,355,4830,2,0,L|358:345,5,35.9999989013672,8|8|8|8|8|8,0:2|0:2|0:2|0:2|0:2|0:3,0:0:0:0:
229,261,5630,6,0,B|161:266|186:301|120:311,1,120,6|0,1:2|3:2,0:2:0:0:
123,310,6030,2,0,P|117:284|110:255,2,40,10|0|2,0:2|3:2|0:2,0:2:0:0:
23,340,6430,2,0,P|16:299|5:262,1,80,2|0,1:2|0:2,0:2:0:0:
58,189,6830,2,0,P|65:146|80:103,1,80,10|0,0:2|0:2,0:2:0:0:
52,11,7230,6,0,P|107:33|166:45,1,120,2|0,1:2|3:2,0:2:0:0:
166,45,7630,1,8,0:2:0:0:
256,9,7830,1,2,0:2:0:0:
285,95,8030,2,0,P|277:131|273:178,1,80,2|0,1:2|0:2,0:2:0:0:
181,206,8430,2,0,P|189:242|193:289,1,80,10|0,0:2|0:2,0:2:0:0:
300,351,8830,6,0,P|337:339|387:335,1,80,2|0,1:2|0:2,0:2:0:0:
378,335,9130,1,0,3:2:0:0:
378,335,9230,2,0,L|373:286,2,40,10|0|2,0:2|3:2|0:2,0:2:0:0:
490,333,9630,2,0,P|481:289|477:248,1,80,2|0,1:2|0:2,0:2:0:0:
388,181,10030,2,0,P|399:143|404:91,1,80,10|0,0:2|0:2,0:2:0:0:
317,27,10430,6,0,P|260:13|216:51,1,120,2|0,1:2|3:2,0:2:0:0:
216,51,10830,2,0,P|223:84|228:145,1,80,10|2,0:2|0:2,0:2:0:0:
304,188,11230,1,2,1:3:0:0:
310,278,11430,1,2,0:3:0:0:
234,321,11630,1,10,0:2:0:0:
152,275,11830,5,10,0:2:0:0:
152,275,11930,1,8,0:2:0:0:
152,275,12030,2,0,P|90:286|24:310,1,120,6|0,1:2|3:2,0:2:0:0:
36,304,12430,2,0,L|48:358,2,40,10|0|2,0:2|3:2|0:2,0:2:0:0:
72,204,12830,2,0,P|60:161|54:123,1,80,2|0,1:2|0:2,0:2:0:0:
154,95,13230,2,0,P|165:137|172:176,1,80,10|0,0:2|0:2,0:2:0:0:
248,279,13630,6,0,B|310:268|296:242|356:228,1,120,2|0,1:2|3:2,0:2:0:0:
355,228,14030,1,8,0:2:0:0:
425,296,14230,1,2,0:2:0:0:
490,229,14430,2,0,P|494:185|501:145,1,80,2|0,1:2|0:2,0:2:0:0:
436,79,14830,1,10,0:2:0:0:
436,79,14930,1,8,0:2:0:0:
436,79,15030,1,8,0:2:0:0:
328,104,15230,6,0,P|292:97|244:89,1,80,10|0,0:2|1:2,0:0:0:0:
155,116,15630,1,10,0:2:0:0:
155,116,15830,1,0,1:0:0:0:
129,206,16030,1,10,0:2:0:0:
129,206,16230,1,0,1:2:0:0:
211,268,16430,2,0,P|257:256|291:252,1,80,10|0,0:2|1:0,0:0:0:0:
353,343,16830,6,0,P|411:380|474:350,1,143.999995605469,4|0,1:2|0:0,0:2:0:0:
512,279,17630,2,0,L|499:235,3,23.9999992675781,8|8|8|8,0:2|0:2|0:2|0:2,0:0:0:0:
463,222,18030,2,0,L|450:178,3,23.9999992675781,8|8|4|4,0:2|0:3|0:3|0:3,0:2:0:0:
415,166,18430,6,0,P|386:172|335:183,1,71.9999978027344,6|0,1:2|0:2,0:2:0:0:
276,253,18830,2,0,P|246:245|200:238,1,71.9999978027344,10|0,0:2|0:2,0:2:0:0:
140,166,19230,2,0,L|149:122,2,35.9999989013672,2|2|2,1:2|0:2|0:2,0:2:0:0:
46,201,19630,2,0,P|15:242|32:291,1,107.999996704102,10|2,0:2|0:2,0:2:0:0:
32,291,20030,6,0,P|67:283|109:271,1,71.9999978027344,2|0,1:2|0:2,0:2:0:0:
166,341,20430,2,0,P|204:345|245:353,1,71.9999978027344,10|2,0:2|3:2,0:0:0:0:
327,384,20830,1,2,1:2:0:0:
316,293,21030,2,0,P|322:258|333:218,1,71.9999978027344,2|8,0:2|0:2,0:2:0:0:
441,169,21430,5,2,0:2:0:0:
441,169,21530,1,2,0:2:0:0:
441,169,21630,2,0,P|476:174|511:182,1,71.9999978027344,2|0,1:2|0:2,0:2:0:0:
436,64,22030,2,0,P|379:68|352:130,1,107.999996704102,10|0,0:2|0:2,0:2:0:0:
352,106,22430,2,0,L|303:96,3,35.9999989013672,2|2|2|2,1:2|0:2|0:2|0:2,0:0:0:0:
278,125,22830,2,0,B|270:175|307:171|305:227,1,107.999996704102,10|2,0:2|0:2,0:2:0:0:
305,226,23230,5,2,1:2:0:0:
376,297,23430,2,0,L|418:293,2,35.9999989013672,2|2|10,0:2|0:2|0:2,0:0:0:0:
305,378,23830,1,2,0:2:0:0:
305,378,23930,1,2,0:2:0:0:
305,378,24030,1,2,1:2:0:0:
232,313,24230,2,0,P|197:314|151:324,1,71.9999978027344,2|8,0:2|0:2,0:0:0:0:
55,373,24630,5,8,0:2:0:0:
55,373,24730,1,8,0:2:0:0:
55,373,24830,2,0,L|43:294,1,71.9999978027344,4|2,1:2|3:2,0:2:0:0:
45,301,25130,1,2,3:2:0:0:
45,301,25230,1,8,0:2:0:0:
103,209,25430,2,0,L|147:203,2,35.9999989013672,2|2|2,0:2|0:2|1:2,0:0:0:0:
19,157,25830,2,0,P|13:115|10:76,1,71.9999978027344,2|8,0:2|0:2,0:2:0:0:
69,13,26230,1,2,0:2:0:0:
169,48,26430,6,0,P|175:90|178:129,1,71.9999978027344,2|2,1:2|3:2,0:2:0:0:
177,119,26730,1,2,3:2:0:0:
177,119,26830,2,0,P|214:114|256:108,1,71.9999978027344,10|2,0:2|3:2,0:2:0:0:
307,45,27230,1,2,1:2:0:0:
368,109,27430,2,0,P|362:147|361:189,1,71.9999978027344,2|8,0:3|0:2,0:2:0:0:
303,268,27830,6,0,P|342:271|374:277,1,71.9999978027344,2|0,0:2|1:2,0:2:0:0:
463,341,28230,1,2,0:2:0:0:
463,341,28330,1,0,3:2:0:0:
463,341,28430,2,0,P|470:302|472:256,1,71.9999978027344,10|0,0:2|0:2,0:2:0:0:
512,186,28830,2,0,P|502:147|496:103,1,71.9999978027344,2|2,1:2|0:2,0:0:0:0:
448,24,29230,1,10,0:2:0:0:
361,88,29430,5,2,0:2:0:0:
361,88,29530,1,2,0:2:0:0:
361,88,29630,2,0,P|322:96|280:110,1,71.9999978027344,2|2,1:2|0:2,0:0:0:0:
207,44,30030,1,10,0:2:0:0:
207,44,30230,1,2,0:2:0:0:
150,125,30430,2,0,B|145:168|183:192|183:192|200:222|188:256,1,143.999995605469,2|8,1:2|0:2,0:2:0:0:
134,338,31030,1,8,0:2:0:0:
134,338,31130,1,8,0:2:0:0:
134,338,31230,1,0,1:2:0:0:
276,349,31530,6,0,L|309:353,3,27.9999991455078,2|0|0|2,3:2|0:2|3:2|0:2,0:2:0:0:
378,292,32030,2,0,L|385:214,1,55.9999982910157,0|0,0:2|0:2,0:0:0:0:
312,178,32430,2,0,L|298:88,1,83.9999974365235,2|0,0:2|0:2,0:2:0:0:
299,94,32830,2,0,B|319:74|319:74|353:89,1,55.9999982910157,2|0,0:2|0:2,0:2:0:0:
422,55,33230,2,0,B|448:44|448:44|473:72,1,55.9999982910157,2|0,0:2|0:2,0:2:0:0:
504,140,33630,1,2,0:2:0:0:
418,207,33830,6,0,B|396:176|349:183|349:183|316:218|274:205,1,160,14|10,0:2|0:2,0:2:0:0:
196,133,34430,6,0,P|139:131|116:183,1,120,6|2,1:2|0:2,0:2:0:0:
116,183,34830,2,0,P|126:209|141:260,1,80,8|2,0:2|0:2,0:2:0:0:
45,304,35230,2,0,P|23:248|6:185,1,120,2|2,1:2|0:2,0:2:0:0:
7,190,35630,2,0,P|18:148|34:108,1,80,8|2,0:2|0:2,0:2:0:0:
26,18,36030,6,0,P|83:43|157:54,1,120,2|2,1:2|0:2,0:2:0:0:
139,53,36430,2,0,P|178:39|222:31,1,80,8|2,0:2|0:2,0:0:0:0:
317,57,36830,2,0,P|357:106|332:163,1,120,2|2,1:2|0:2,0:2:0:0:
341,154,37230,2,0,P|298:161|259:177,1,80,8|2,0:2|0:2,0:2:0:0:
180,232,37630,5,2,1:2:0:0:
246,290,37830,1,2,0:2:0:0:
179,345,38030,1,10,0:2:0:0:
179,345,38230,1,2,0:2:0:0:
289,384,38430,2,0,P|331:374|375:355,1,80,2|2,1:2|0:2,0:2:0:0:
365,361,38730,1,2,0:2:0:0:
365,361,38830,2,0,P|346:316|339:272,1,80,8|2,0:2|0:2,0:0:0:0:
405,197,39230,6,0,P|462:193|492:254,1,120,2|2,1:2|0:2,0:2:0:0:
493,240,39630,2,0,P|496:196|508:150,1,80,8|2,0:2|0:2,0:0:0:0:
470,60,40030,1,2,1:3:0:0:
389,25,40230,1,2,0:3:0:0:
321,79,40430,1,10,0:2:0:0:
327,193,40630,5,10,0:2:0:0:
327,193,40730,1,10,0:2:0:0:
327,193,40830,2,0,P|365:201|409:205,1,80,6|0,1:2|0:2,0:2:0:0:
389,307,41230,2,0,P|346:299|310:296,1,80,8|0,0:2|0:2,0:2:0:0:
226,232,41630,1,2,1:2:0:0:
144,277,41830,1,2,0:2:0:0:
144,277,42030,2,0,P|136:316|134:359,1,80,10|0,0:2|0:2,0:2:0:0:
33,341,42430,6,0,P|41:302|43:259,1,80,2|0,1:2|0:2,0:2:0:0:
103,191,42830,2,0,P|105:149|114:106,1,80,10|0,0:2|3:0,0:0:0:0:
112,111,43130,1,0,3:2:0:0:
112,111,43230,1,2,1:2:0:0:
162,39,43430,2,0,B|129:13|129:13|94:30,1,80,2|8,0:3|0:2,0:2:0:0:
217,128,43830,6,0,P|254:119|300:113,1,80,2|0,0:2|1:2,0:2:0:0:
396,44,44230,1,0,3:2:0:0:
396,44,44330,1,0,3:2:0:0:
396,44,44430,2,0,P|403:83|410:131,1,80,10|0,0:2|0:2,0:2:0:0:
512,149,44830,2,0,P|504:188|498:236,1,80,2|2,1:2|0:2,0:0:0:0:
435,311,45230,1,10,0:2:0:0:
435,311,45430,1,2,0:2:0:0:
363,246,45630,6,0,P|326:237|273:235,1,80,2|0,1:2|0:2,0:2:0:0:
207,277,46030,1,10,0:2:0:0:
207,277,46230,1,2,0:2:0:0:
127,209,46430,2,0,P|136:169|142:130,1,80,2|0,1:2|0:2,0:2:0:0:
234,105,46830,2,0,P|240:65|249:26,1,80,10|8,0:2|0:2,0:2:0:0:
249,26,47130,1,8,0:2:0:0:
249,26,47230,5,6,1:2:0:0:
140,202,49630,6,0,L|151:144,1,55.9999982910157,2|0,0:2|0:2,0:2:0:0:
225,94,50030,2,0,L|236:36,1,55.9999982910157,2|0,0:2|0:2,0:2:0:0:
140,202,52830,6,0,L|151:144,1,55.9999982910157,2|0,0:2|0:2,0:2:0:0:
225,94,53230,2,0,L|236:36,1,55.9999982910157,2|0,0:2|0:2,0:2:0:0:
256,192,53630,12,0,58030,0:0:0:0:
252,167,58430,5,8,1:2:0:0:
205,345,58830,1,8,1:2:0:0:
130,212,59230,2,0,B|204:205|181:266|259:261,1,143.999995605469,12|8,1:2|0:2,0:2:0:0:
352,226,59830,5,8,0:2:0:0:
352,226,59930,1,8,0:2:0:0:
352,226,60030,2,0,P|358:179|367:137,1,88.000002685547,6|2,1:2|0:2,0:0:0:0:
333,42,60430,1,10,0:2:0:0:
243,88,60630,1,2,3:2:0:0:
154,22,60830,2,0,P|79:21|46:76,1,132.00000402832,2|0,1:2|0:2,0:2:0:0:
48,64,61230,2,0,P|61:100|69:153,1,88.000002685547,10|2,0:2|0:2,0:0:0:0:
140,233,61630,5,2,1:2:0:0:
69,294,61830,1,2,0:2:0:0:
156,362,62030,2,0,B|224:354|201:303|264:296,1,132.00000402832,10|2,0:2|0:2,0:2:0:0:
264,296,62430,2,0,P|266:249|276:200,1,88.000002685547,2|2,1:2|0:2,0:0:0:0:
334,144,62830,1,10,0:2:0:0:
401,202,63030,1,2,0:2:0:0:
486,130,63230,6,0,P|499:47|442:8,1,132.00000402832,6|2,1:2|0:2,0:2:0:0:
470,17,63630,2,0,P|491:12|512:7,2,44.0000013427735,10|0|2,0:2|3:2|0:2,0:2:0:0:
400,84,64030,2,0,P|354:77|309:64,1,88.000002685547,2|2,1:2|0:2,0:0:0:0:
213,30,64430,1,10,0:2:0:0:
213,30,64630,1,2,0:2:0:0:
248,143,64830,6,0,B|251:206|294:195|299:262,1,132.00000402832,6|0,1:2|0:2,0:2:0:0:
298,261,65230,6,0,B|341:232|341:232|382:269,1,107.999996704102,10|0,0:2|0:2,0:2:0:0:
382,269,65630,6,0,P|368:330|308:350,1,132.00000402832,6|0,1:2|0:2,0:2:0:0:
307,349,66030,1,10,0:2:0:0:
203,307,66230,5,10,0:2:0:0:
203,307,66330,1,8,0:2:0:0:
203,307,66430,2,0,P|158:316|107:325,1,88.000002685547,6|2,1:2|0:2,0:2:0:0:
116,323,66730,1,2,0:2:0:0:
116,323,66830,2,0,P|109:278|101:230,1,88.000002685547,10|0,0:2|0:2,0:2:0:0:
43,149,67230,2,0,P|89:137|139:134,1,88.000002685547,2|2,1:2|0:2,0:0:0:0:
203,181,67630,1,10,0:2:0:0:
265,104,67830,6,0,B|294:65|347:72|347:72|373:119|413:115,1,176.000005371094,2|2,0:2|0:2,0:2:0:0:
412,115,68330,1,2,0:2:0:0:
412,115,68430,2,0,L|391:202,1,88.000002685547,10|2,0:2|0:2,0:2:0:0:
488,238,68830,2,0,L|470:325,1,88.000002685547,2|2,1:2|0:2,0:0:0:0:
386,380,69230,1,10,0:2:0:0:
335,311,69430,1,2,0:2:0:0:
225,286,69630,6,0,P|179:291|135:304,1,88.000002685547,6|2,1:2|0:2,0:0:0:0:
65,240,70030,1,10,0:2:0:0:
122,170,70230,1,2,3:2:0:0:
40,121,70430,2,0,P|32:58|84:22,1,132.00000402832,2|0,1:2|0:2,0:2:0:0:
84,22,70830,2,0,P|125:29|172:35,1,88.000002685547,10|2,0:2|0:2,0:0:0:0:
273,124,71230,6,0,P|330:104|414:87,1,132.00000402832,2|0,1:2|0:0,0:0:0:0:
400,89,71630,2,0,B|451:131|451:131|420:190,1,132.00000402832,10|0,1:2|0:2,0:2:0:0:
421,189,72030,2,0,P|364:222|376:287,1,132.00000402832,8|0,1:2|0:2,0:2:0:0:
370,280,72430,2,0,B|437:276|417:319|491:323,1,132.00000402832,8|0,1:2|0:2,0:2:0:0:
490,323,72830,1,2,0:2:0:0:
490,323,73230,6,0,P|459:325|406:340,1,71.9999978027344,10|0,0:2|0:2,0:2:0:0:
346,381,73630,1,2,1:2:0:0:
346,381,73830,1,2,0:2:0:0:
253,337,74030,2,0,P|246:304|238:259,1,71.9999978027344,10|0,0:2|0:2,0:2:0:0:
156,221,74430,2,0,L|114:231,3,35.9999989013672,2|2|2|2,1:2|0:2|0:2|0:2,0:2:0:0:
77,231,74830,2,0,L|62:160,1,71.9999978027344,10|0,0:2|0:2,0:2:0:0:
105,69,75230,2,0,L|148:60,3,35.9999989013672,2|2|2|2,1:2|0:2|0:2|0:2,0:2:0:0:
184,82,75630,2,0,L|195:128,2,35.9999989013672,2|2|8,1:2|0:2|0:2,0:2:0:0:
282,53,76030,6,0,L|291:87,3,35.9999989013672,2|2|2|2,1:2|0:2|0:2|0:2,0:0:0:0:
333,110,76430,2,0,L|415:85,1,71.9999978027344,10|0,0:2|0:2,0:2:0:0:
401,89,76730,1,0,0:0:0:0:
401,89,76830,1,2,1:2:0:0:
484,162,77030,2,0,L|495:201,2,35.9999989013672,2|2|10,0:2|0:2|0:2,0:0:0:0:
393,196,77430,2,0,L|404:235,2,35.9999989013672,2|2|2,0:2|0:2|1:2,0:0:0:0:
316,292,77830,5,2,0:3:0:0:
306,299,77930,1,2,0:3:0:0:
294,305,78030,2,0,B|273:308|273:308|268:310|268:310|246:316,3,35.9999989013672,8|2|2|2,0:2|0:3|0:3|0:3,0:2:0:0:
232,353,78430,2,0,B|211:356|211:356|206:358|206:358|184:364,2,35.9999989013672,2|2|0,1:3|0:3|0:2,0:2:0:0:
158,247,78830,5,10,0:2:0:0:
90,313,79030,1,8,0:2:0:0:
90,313,79130,1,8,0:2:0:0:
90,313,79230,2,0,L|68:230,1,71.9999978027344,2|0,1:2|0:2,0:2:0:0:
113,161,79630,2,0,L|147:151,2,35.9999989013672,10|2|2,0:2|0:2|0:2,0:2:0:0:
29,122,80030,2,0,P|17:84|8:52,1,71.9999978027344,2|2,1:2|0:2,0:0:0:0:
85,0,80430,5,10,0:2:0:0:
164,52,80630,1,2,0:2:0:0:
164,52,80730,1,2,0:2:0:0:
164,52,80830,2,0,L|205:38,2,35.9999989013672,2|2|2,1:2|0:2|0:2,0:2:0:0:
203,142,81230,2,0,P|249:118|318:99,1,107.999996704102,10|2,0:2|0:2,0:2:0:0:
302,102,81630,2,0,P|316:136|328:173,2,71.9999978027344,0|2|0,1:2|3:3|1:2,0:0:0:0:
418,61,82230,6,0,P|426:96|439:131,1,71.9999978027344,10|0,0:2|1:2,0:2:0:0:
512,211,82630,1,2,0:2:0:0:
512,211,82730,1,0,3:2:0:0:
512,211,82830,2,0,P|475:221|439:240,1,71.9999978027344,10|0,0:2|0:2,0:2:0:0:
391,324,83230,2,0,P|355:311|314:304,1,71.9999978027344,2|2,1:2|0:2,0:0:0:0:
216,329,83630,2,0,P|220:294|229:256,1,71.9999978027344,10|2,0:2|0:2,0:0:0:0:
308,185,84030,6,0,P|303:150|295:112,1,71.9999978027344,2|2,1:2|0:2,0:2:0:0:
215,54,84430,1,10,0:2:0:0:
215,54,84630,1,2,0:2:0:0:
151,130,84830,2,0,B|117:116|81:140|81:140|73:178|37:197,1,143.999995605469,2|8,1:2|0:2,0:2:0:0:
0,123,85430,1,8,0:2:0:0:
0,123,85530,1,8,0:2:0:0:
0,123,85630,1,4,1:2:0:0:
36,240,88030,6,0,P|45:271|59:334,1,71.9999978027344,8|0,0:2|0:2,0:2:0:0:
97,329,88330,2,0,B|121:301|121:301|157:311,1,71.9999978027344,8|0,0:2|0:2,0:2:0:0:
199,348,88630,5,8,0:2:0:0:
199,348,88730,1,8,0:2:0:0:
199,348,88830,2,0,P|261:328|356:313,1,143.999995605469,2|0,1:2|0:2,0:2:0:0:
510,244,89630,2,0,P|441:239|408:179,1,143.999995605469,0|0,1:2|0:2,0:2:0:0:
259,68,90430,2,0,P|307:116|287:181,1,143.999995605469,0|0,1:2|0:2,0:2:0:0:
108,234,91230,2,0,P|59:185|79:120,1,143.999995605469,0|0,1:2|0:2,0:2:0:0:
246,263,92030,6,0,L|237:344,1,71.9999978027344,0|0,1:2|0:2,0:2:0:0:
334,348,92430,2,0,L|343:267,1,71.9999978027344,0|0,1:2|0:2,0:2:0:0:
311,189,92830,2,0,L|320:108,1,71.9999978027344,0|0,1:2|0:2,0:2:0:0:
415,128,93230,2,0,L|406:209,1,71.9999978027344,0|0,1:2|0:2,0:2:0:0:
466,267,93630,5,2,1:2:0:0:
383,362,93930,1,2,1:2:0:0:
275,288,94230,1,2,1:2:0:0:
232,366,94430,5,10,0:2:0:0:
232,366,94630,1,10,0:2:0:0:
154,316,94830,1,10,0:2:0:0:
154,316,95030,1,10,0:2:0:0:
202,240,95230,6,0,P|195:200|187:155,1,71.9999978027344,6|0,1:2|0:2,0:2:0:0:
120,101,95630,2,0,P|80:108|35:116,1,71.9999978027344,10|0,0:2|0:2,0:2:0:0:
0,196,96030,1,2,1:2:0:0:
75,252,96230,1,2,0:2:0:0:
75,252,96430,2,0,P|81:284|90:325,1,71.9999978027344,10|0,0:2|0:2,0:2:0:0:
194,368,96830,6,0,P|228:356|284:347,1,71.9999978027344,2|0,1:2|0:2,0:2:0:0:
328,277,97230,2,0,P|362:288|418:298,1,71.9999978027344,10|0,0:2|3:2,0:0:0:0:
397,295,97530,1,0,3:2:0:0:
397,295,97630,1,2,1:2:0:0:
486,264,97830,2,0,B|510:238|510:238|497:200,1,71.9999978027344,2|8,0:3|0:2,0:2:0:0:
395,136,98230,6,0,P|364:142|320:150,1,71.9999978027344,2|0,0:2|1:2,0:2:0:0:
247,98,98630,1,2,0:2:0:0:
247,98,98730,1,0,3:2:0:0:
247,98,98830,2,0,P|240:60|232:11,1,71.9999978027344,10|0,0:2|0:2,0:2:0:0:
140,44,99230,2,0,P|146:81|155:131,1,71.9999978027344,2|2,1:2|0:2,0:0:0:0:
89,174,99630,1,10,0:2:0:0:
89,174,99830,1,2,0:2:0:0:
179,221,100030,6,0,P|216:211|250:202,1,71.9999978027344,2|2,1:2|0:2,0:2:0:0:
323,139,100430,1,10,0:2:0:0:
323,139,100630,1,2,0:2:0:0:
393,199,100830,2,0,L|376:277,1,71.9999978027344,2|0,1:2|0:2,0:2:0:0:
469,292,101230,2,0,L|486:214,1,71.9999978027344,10|8,0:2|0:2,0:2:0:0:
458,142,101630,5,14,1:2:0:0:
288,317,102030,1,8,1:2:0:0:
458,142,103230,5,8,1:2:0:0:
288,317,103630,1,8,1:2:0:0:
469,292,104030,2,0,L|480:237,1,55.9999982910157,2|0,0:2|0:2,0:2:0:0:
391,208,104430,2,0,L|379:262,1,55.9999982910157,2|0,0:2|0:2,0:2:0:0:
458,142,104830,5,8,1:2:0:0:
288,317,105230,1,8,1:2:0:0:
458,142,106430,5,8,1:2:0:0:
288,317,106830,1,8,1:2:0:0:
469,292,107230,2,0,L|480:237,1,55.9999982910157,2|0,0:2|0:2,0:2:0:0:
391,208,107630,2,0,L|379:262,1,55.9999982910157,2|0,0:2|1:2,0:2:0:0:
365,372,108030,5,8,0:2:0:0:
365,372,108230,1,0,1:2:0:0:
288,317,108430,2,0,L|222:335,1,55.9999982910157,8|0,0:2|1:2,0:0:0:0:
149,299,108830,1,8,0:2:0:0:
149,299,109030,1,0,1:2:0:0:
195,221,109230,2,0,L|180:159,1,55.9999982910157,8|0,0:2|1:2,0:0:0:0:
254,96,109630,5,10,0:2:0:0:
254,96,109830,1,0,1:2:0:0:
178,42,110030,2,0,L|115:57,1,55.9999982910157,10|0,0:2|1:2,0:0:0:0:
25,45,110430,2,0,L|40:107,1,55.9999982910157,10|0,0:2|1:2,0:0:0:0:
109,146,110830,1,10,0:2:0:0:
61,231,111030,6,0,L|0:249,1,64,2|8,1:2|0:0,0:0:0:0:
32,337,111430,1,0,1:2:0:0:
32,337,111630,2,0,L|93:319,1,64,10|2,0:2|1:2,0:0:0:0:
159,242,112030,2,0,L|223:254,1,64,10|0,0:2|1:2,0:2:0:0:
294,328,112430,2,0,L|357:313,1,64,10|0,0:2|1:2,0:2:0:0:
448,254,112830,5,2,0:2:0:0:
448,254,113030,1,2,0:2:0:0:
366,210,113230,2,0,L|354:164,1,47.9999985351563,0|0,1:2|0:2,0:2:0:0:
421,91,113630,6,2,B|355:112|255:26|295:-41|339:-31|382:7|340:65|314:82|298:80,1,280,2|0,0:2|0:2,0:1:0:0:
288,91,114430,6,0,P|246:79|199:75,1,88.000002685547,6|2,1:2|0:2,0:0:0:0:
107,127,114830,1,10,0:2:0:0:
166,205,115030,1,2,3:2:0:0:
75,241,115230,2,0,P|29:284|51:342,1,132.00000402832,2|0,1:2|0:2,0:2:0:0:
50,341,115630,2,0,P|89:332|139:321,1,88.000002685547,10|2,0:2|0:2,0:0:0:0:
228,274,116030,5,2,1:2:0:0:
295,332,116230,1,2,0:2:0:0:
362,275,116430,2,0,P|387:213|352:159,1,132.00000402832,10|0,0:2|0:2,0:2:0:0:
356,161,116830,2,0,P|308:174|271:181,1,88.000002685547,0|2,1:2|0:2,0:0:0:0:
205,133,117230,1,10,0:2:0:0:
241,51,117430,1,2,0:2:0:0:
348,47,117630,6,0,B|415:41|394:86|474:84,1,132.00000402832,6|2,1:2|0:2,0:2:0:0:
470,84,118030,2,0,L|479:41,2,44.0000013427735,10|0|2,0:2|3:2|0:2,0:2:0:0:
393,152,118430,2,0,P|385:191|379:252,1,88.000002685547,2|2,1:2|0:2,0:0:0:0:
425,326,118830,1,10,0:2:0:0:
425,326,119030,1,2,0:2:0:0:
386,246,119230,6,0,P|335:205|270:232,1,132.00000402832,6|0,1:2|0:2,0:2:0:0:
276,224,119630,6,0,B|234:188|234:188|257:139,1,107.999996704102,10|0,0:2|0:2,0:2:0:0:
257,141,120030,6,0,P|176:158|116:169,1,132.00000402832,6|0,1:2|0:2,0:2:0:0:
127,166,120430,1,10,0:2:0:0:
50,232,120630,5,8,0:2:0:0:
50,232,120730,1,8,0:2:0:0:
50,232,120830,2,0,P|40:181|31:135,1,88.000002685547,6|2,1:2|0:2,0:2:0:0:
33,145,121130,1,2,0:2:0:0:
33,145,121230,2,0,P|40:94|50:56,1,88.000002685547,10|0,0:2|0:2,0:2:0:0:
120,6,121630,2,0,P|167:12|215:25,1,88.000002685547,2|2,1:2|0:2,0:0:0:0:
262,98,122030,1,10,0:2:0:0:
348,40,122230,6,0,P|426:13|478:77,1,176.000005371094,2|2,0:2|0:2,0:2:0:0:
478,77,122730,1,2,0:2:0:0:
478,77,122830,2,0,P|466:121|460:172,1,88.000002685547,10|2,0:2|0:2,0:2:0:0:
359,196,123230,2,0,L|377:291,1,88.000002685547,2|2,1:2|0:2,0:0:0:0:
441,362,123630,1,10,0:2:0:0:
490,276,123830,1,2,0:2:0:0:
375,282,124030,6,0,P|332:286|285:297,1,88.000002685547,6|2,1:2|0:2,0:0:0:0:
210,364,124430,1,10,0:2:0:0:
104,357,124630,1,2,3:2:0:0:
36,295,124830,2,0,B|23:227|82:228|74:172,1,132.00000402832,2|0,1:2|0:2,0:2:0:0:
74,173,125230,2,0,L|22:164,2,44.0000013427735,8|8|8,0:2|0:2|0:2,0:0:0:0:
176,171,125630,6,0,B|170:103|124:120|117:56,1,132.00000402832,10|0,1:2|0:2,0:2:0:0:
117,56,126030,2,0,B|176:18|176:18|232:64,1,132.00000402832,10|0,1:2|0:2,0:2:0:0:
223,57,126430,2,0,B|293:62|273:23|347:24,1,132.00000402832,10|0,1:2|0:2,0:2:0:0:
347,24,126830,2,0,L|353:73,4,44.0000013427735,8|8|8|8|8,0:2|0:2|0:2|0:2|0:2,0:0:0:0:
453,97,127430,5,8,0:3:0:0:
453,97,127530,1,8,0:3:0:0:
453,97,127630,2,0,P|377:101|353:173,1,160,6|8,1:2|0:2,0:2:0:0:
490,345,128430,1,2,1:2:0:0:
512,254,128630,2,0,P|477:263|430:275,1,80,2|8,0:2|0:2,0:2:0:0:
362,342,129030,6,0,L|283:325,1,80,2|0,0:2|1:2,0:2:0:0:
198,354,129430,1,2,0:2:0:0:
131,293,129630,2,0,P|118:219|180:175,1,160,8|0,0:2|1:2,0:2:0:0:
272,158,130230,1,2,0:2:0:0:
336,229,130430,1,10,0:2:0:0:
435,171,130630,5,8,0:2:0:0:
435,171,130730,1,8,0:2:0:0:
435,171,130830,2,0,P|463:110|393:45,1,160,6|8,1:2|0:2,0:2:0:0:
174,129,131630,1,2,1:2:0:0:
252,186,131830,2,0,P|261:142|271:106,1,80,2|8,0:2|0:2,0:2:0:0:
235,28,132230,6,0,P|197:18|149:3,1,80,2|0,0:2|1:2,0:2:0:0:
66,17,132630,1,2,0:2:0:0:
89,103,132830,2,0,P|60:174|35:265,1,160,8|0,0:2|1:2,0:2:0:0:
81,346,133430,1,2,0:2:0:0:
156,288,133630,1,10,0:2:0:0:
234,366,133830,5,8,0:2:0:0:
234,366,133930,1,8,0:2:0:0:
234,366,134030,2,0,B|326:358|279:307|371:294,1,160,6|8,1:2|0:2,0:2:0:0:
510,156,134830,2,0,P|503:119|496:75,1,80,2|2,1:2|0:2,0:0:0:0:
422,22,135230,1,10,0:2:0:0:
364,99,135430,6,0,P|373:134|383:196,1,80,2|0,0:2|1:2,0:2:0:0:
451,236,135830,1,2,0:2:0:0:
384,300,136030,2,0,P|346:305|302:318,1,80,8|2,0:2|0:2,0:0:0:0:
218,372,136430,2,0,P|212:329|202:284,1,80,2|2,1:2|0:2,0:0:0:0:
133,254,136830,2,0,P|95:243|61:262,1,80,8|8,0:2|0:2,0:0:0:0:
61,262,137130,1,8,0:2:0:0:
61,262,137230,6,0,P|53:210|45:171,1,80,6|0,1:2|0:2,0:2:0:0:
91,103,137630,1,10,0:2:0:0:
170,140,137830,2,0,P|208:131|253:129,1,80,2|0,0:2|1:2,0:2:0:0:
309,54,138230,1,10,0:2:0:0:
363,122,138430,2,0,L|355:166,2,40,8|8|8,0:2|0:2|0:2,0:0:0:0:
472,86,138830,6,0,P|462:147|455:214,1,107.999996704102,8|0,1:2|0:2,0:2:0:0:
456,192,139230,2,0,B|500:230|500:230|470:283,1,120,8|0,1:2|0:2,0:2:0:0:
470,283,139630,2,0,B|393:279|421:323|345:317,1,132.00000402832,8|0,1:2|0:2,0:2:0:0:
346,317,140030,2,0,B|265:314|300:271|229:262,1,132.00000402832,8|0,1:2|0:2,0:2:0:0:
230,262,140430,6,0,P|220:312|210:363,1,95.9999970703126,2|2,0:2|0:3,0:2:0:0:
23,306,141230,6,0,P|28:268|36:229,1,71.9999978027344,4|2,1:2|0:2,0:0:0:0:
82,168,141630,2,0,P|120:174|163:183,1,71.9999978027344,2|0,1:2|0:2,0:2:0:0:
240,154,142030,2,0,P|266:108|237:55,1,107.999996704102,2|2,1:2|0:2,0:2:0:0:
245,60,142430,2,0,P|282:56|324:45,1,71.9999978027344,0|2,1:2|0:2,0:2:0:0:
395,109,142830,6,0,P|444:110|510:122,1,107.999996704102,0|0,1:2|0:0,0:2:0:0:
502,120,143230,2,0,P|492:157|489:201,1,71.9999978027344,2|2,1:2|0:2,0:0:0:0:
399,220,143630,2,0,P|408:254|413:290,1,71.9999978027344,2|2,1:2|0:2,0:2:0:0:
413,290,143930,1,2,0:2:0:0:
413,290,144030,1,0,1:2:0:0:
504,343,144230,5,2,0:2:0:0:
504,343,144330,1,2,0:2:0:0:
504,343,144430,2,0,P|435:332|384:380,1,143.999995605469,2|2,1:2|1:2,0:2:0:0:
321,312,145030,1,2,0:2:0:0:
237,358,145230,2,0,L|165:347,1,71.9999978027344,2|2,1:2|0:2,0:2:0:0:
173,355,145530,1,2,0:2:0:0:
173,355,145630,2,0,L|184:276,1,71.9999978027344,0|2,1:2|0:2,0:0:0:0:
132,210,146030,6,0,P|81:193|31:219,1,107.999996704102,2|2,1:2|0:2,0:2:0:0:
34,215,146430,2,0,P|24:172|11:138,1,71.9999978027344,0|2,1:2|0:2,0:2:0:0:
28,60,146830,2,0,P|74:50|109:40,1,71.9999978027344,2|2,1:2|0:2,0:2:0:0:
180,78,147230,1,2,1:2:0:0:
180,78,147430,1,2,0:2:0:0:
153,176,147630,6,0,P|163:233|173:298,1,107.999996704102,6|2,1:2|0:2,0:2:0:0:
171,282,148030,1,0,1:2:0:0:
121,351,148230,1,2,0:2:0:0:
208,373,148430,2,0,B|262:361|248:333|302:324,1,107.999996704102,2|2,1:2|0:2,0:2:0:0:
302,324,148830,1,0,1:2:0:0:
398,351,149030,1,2,0:2:0:0:
397,258,149230,6,0,P|401:201|424:134,1,107.999996704102,2|2,1:2|0:2,0:2:0:0:
415,152,149630,1,0,1:2:0:0:
506,129,149830,1,2,0:2:0:0:
461,49,150030,2,0,P|414:28|363:52,1,107.999996704102,2|2,1:2|0:2,0:2:0:0:
365,49,150430,2,0,P|331:41|275:34,1,71.9999978027344,0|0,1:2|0:2,0:2:0:0:
206,105,150830,6,0,P|210:132|214:177,1,71.9999978027344,2|2,1:2|0:2,0:0:0:0:
295,215,151230,1,2,1:2:0:0:
295,215,151430,1,2,0:2:0:0:
221,276,151630,2,0,P|171:277|109:303,1,107.999996704102,2|2,1:2|0:2,0:2:0:0:
117,298,152030,2,0,P|124:331|132:375,1,71.9999978027344,0|0,1:2|0:2,0:2:0:0:
6,370,152430,6,0,P|1:347|-3:316,3,40,8|8|8|8,0:2|0:2|0:2|0:2,0:0:0:0:
31,288,152830,2,0,L|23:241,3,40,8|8|8|8,0:2|0:2|0:2|0:2,0:0:0:0:
50,195,153230,2,0,L|97:184,3,40,10|8|8|8,0:2|0:2|0:2|0:2,0:0:0:0:
149,211,153630,1,10,0:2:0:0:
149,211,153730,1,8,0:2:0:0:
149,211,153830,1,10,0:2:0:0:
149,211,153930,1,8,0:2:0:0:
149,211,154030,6,0,P|212:206|244:152,1,132.00000402832,6|0,1:2|1:2,0:2:0:0:
244,152,154430,1,8,0:2:0:0:
309,70,154630,1,2,0:2:0:0:
309,70,154730,2,0,P|349:71|407:81,1,88.000002685547,8|8,0:2|0:2,0:2:0:0:
396,78,155030,1,0,1:2:0:0:
484,41,155230,2,0,B|510:78|510:78|486:113,1,88.000002685547,10|8,0:2|0:3,0:2:0:0:
414,174,155630,6,0,P|425:224|438:309,1,132.00000402832,2|0,1:2|1:2,0:2:0:0:
437,303,156030,2,0,P|389:306|347:317,1,88.000002685547,8|2,0:2|0:2,0:0:0:0:
350,315,156330,2,0,B|315:289|315:289|267:316,1,88.000002685547,8|8,0:2|0:2,0:2:0:0:
276,310,156630,1,0,1:2:0:0:
180,361,156830,2,0,L|137:355,3,44.0000013427735,10|8|8|8,0:2|0:3|0:3|0:3,0:2:0:0:
92,363,157230,6,0,P|60:308|90:252,1,132.00000402832,6|0,1:2|1:2,0:2:0:0:
90,252,157630,1,8,0:2:0:0:
33,166,157830,1,2,0:2:0:0:
33,166,157930,2,0,P|39:118|46:76,1,88.000002685547,8|8,0:2|0:2,0:2:0:0:
45,78,158230,1,0,1:2:0:0:
16,1,158430,2,0,B|56:-17|56:-17|92:7,1,88.000002685547,10|8,0:2|0:3,0:2:0:0:
176,85,158830,6,0,P|165:145|160:233,1,132.00000402832,2|0,1:2|1:2,0:2:0:0:
160,215,159230,2,0,B|121:238|121:238|131:289,1,88.000002685547,8|2,0:2|0:2,0:0:0:0:
129,280,159530,2,0,P|177:288|232:304,1,88.000002685547,8|8,0:2|0:2,0:2:0:0:
214,298,159830,1,0,1:2:0:0:
314,340,160030,2,0,L|327:294,3,44.0000013427735,10|8|8|8,0:2|0:3|0:3|0:3,0:0:0:0:
348,269,160430,6,2,P|411:264|448:315,1,132.00000402832,6|0,1:2|1:2,0:1:0:0:
448,315,160830,1,8,0:2:0:0:
512,258,161030,2,0,B|483:194|531:189|497:130,1,132.00000402832,2|8,0:1|0:2,0:0:0:0:
497,130,161430,1,0,1:2:0:0:
434,78,161630,2,2,P|384:89|342:97,1,88.000002685547,10|8,0:2|0:3,0:1:0:0:
347,96,161930,1,8,0:3:0:0:
347,96,162030,6,2,P|278:104|241:50,1,132.00000402832,2|0,1:2|1:2,0:1:0:0:
242,59,162430,1,10,0:2:0:0:
164,107,162630,2,2,L|176:166,3,44.0000013427735,10|8|8|8,0:2|0:2|0:0|0:0,0:1:0:0:
213,182,163030,2,0,L|203:235,3,44.0000013427735,8|8|8|8,0:0|0:0|0:3|0:3,0:0:0:0:
242,272,163430,5,8,0:3:0:0:
242,272,163530,1,8,0:3:0:0:
242,272,163630,2,0,P|180:251|127:297,1,132.00000402832,6|0,1:2|1:0,0:0:0:0:
130,289,164030,1,8,0:0:0:0:
33,260,164230,2,0,B|2:230|2:230|18:188,1,88.000002685547,2|8,0:2|0:2,0:0:0:0:
18,188,164530,2,0,P|60:177|105:170,1,88.000002685547,2|0,1:2|0:2,0:2:0:0:
104,170,164830,2,0,B|128:132|128:132|104:95,1,88.000002685547,10|8,0:2|0:2,0:2:0:0:
104,95,165130,1,8,0:2:0:0:
104,95,165230,1,6,1:2:0:0:
184,36,165430,6,0,B|249:34|241:65|312:62,1,132.00000402832,2|8,0:2|0:2,0:2:0:0:
312,62,165830,2,0,P|314:36|318:11,2,44.0000013427735,10|10|10,0:2|0:2|1:2,0:0:0:0:
419,157,166330,1,10,1:2:0:0:
327,253,166630,1,10,1:2:0:0:
327,253,166830,5,10,1:2:0:0:
416,354,167130,1,10,1:2:0:0:
512,269,167430,1,10,1:2:0:0:
441,211,167630,6,0,P|441:154|453:77,1,128,6|0,1:2|1:2,0:2:0:0:
384,29,168230,1,0,3:2:0:0:
384,29,168430,2,2,B|308:26|339:69|266:70,1,128,2|2,0:2|0:2,0:1:0:0:
187,38,169030,5,0,3:2:0:0:
187,38,169130,1,0,3:2:0:0:
187,38,169230,2,0,P|227:84|213:144,1,128,2|0,1:2|1:2,0:2:0:0:
144,201,169830,1,0,3:2:0:0:
144,201,170030,2,2,B|104:187|76:209|76:209|71:245|40:266,1,128,2|0,0:2|0:2,0:1:0:0:
0,336,170630,5,0,3:2:0:0:
0,336,170730,1,0,3:2:0:0:
0,336,170830,2,0,P|51:341|117:359,1,107.999996704102,6|0,1:2|0:2,0:2:0:0:
105,355,171230,2,0,P|142:344|183:337,1,71.9999978027344,0|0,1:2|3:2,0:2:0:0:
268,354,171630,2,2,P|295:288|256:228,1,143.999995605469,2|0,0:2|0:2,0:1:0:0:
209,153,172230,5,0,3:2:0:0:
209,153,172330,1,0,3:2:0:0:
209,153,172430,2,0,P|269:138|316:123,1,107.999996704102,2|0,1:2|0:2,0:2:0:0:
312,124,172830,2,0,P|349:132|398:146,1,71.9999978027344,0|0,1:2|3:2,0:2:0:0:
454,82,173230,2,2,P|500:133|480:199,1,143.999995605469,2|0,0:2|0:2,0:1:0:0:
413,273,173830,5,0,3:2:0:0:
413,273,173930,1,0,3:2:0:0:
413,273,174030,2,0,P|377:262|286:255,1,107.999996704102,6|2,1:2|0:2,0:2:0:0:
307,254,174430,2,0,P|303:270|301:302,2,35.9999989013672,8|2|2,0:2|0:2|0:2,0:0:0:0:
223,181,174830,2,0,P|235:124|235:72,1,107.999996704102,2|2,1:2|0:2,0:2:0:0:
235,74,175230,2,0,L|283:77,2,35.9999989013672,8|2|2,0:2|0:2|0:2,0:0:0:0:
136,22,175630,6,0,P|75:37|62:96,1,120,6|2,1:2|0:2,0:2:0:0:
59,86,176030,2,0,L|16:78,2,40,8|2|2,0:2|0:2|0:2,0:0:0:0:
127,159,176430,2,0,P|117:196|111:237,1,80,2|2,1:2|1:2,0:2:0:0:
21,255,176830,2,0,P|27:293|38:336,1,80,8|2,0:2|1:2,0:2:0:0:
135,381,177230,6,0,P|175:367|222:358,1,80,10|0,1:2|1:2,0:0:0:0:
285,287,177630,1,10,1:2:0:0:
347,348,177830,1,0,1:2:0:0:
429,299,178030,2,0,P|436:258|448:213,1,80,10|0,1:2|1:2,0:0:0:0:
367,182,178430,2,0,P|361:139|353:100,1,80,10|0,1:2|0:2,0:2:0:0:
421,31,178830,6,0,P|457:23|491:18,1,64,2|0,0:2|0:2,0:2:0:0:
510,107,179230,2,0,P|473:114|440:120,1,64,2|0,0:2|0:2,0:2:0:0:
353,103,179630,2,2,B|305:71|241:64|204:137|252:175|281:151,1,195.999994018555,2|0,0:2|0:2,0:1:0:0:
290,158,180430,2,0,L|283:203,3,27.9999991455078,8|8|8|8,0:2|0:2|0:2|0:2,0:0:0:0:
319,231,180830,2,0,L|312:276,3,27.9999991455078,8|8|8|8,0:2|0:2|0:2|0:2,0:0:0:0:
277,290,181230,6,0,P|238:281|179:275,1,88.000002685547,6|2,1:2|0:2,0:0:0:0:
81,314,181630,1,10,0:2:0:0:
17,244,181830,1,2,3:2:0:0:
100,201,182030,2,0,B|129:140|86:129|113:72,1,132.00000402832,2|0,1:2|0:2,0:2:0:0:
112,72,182430,2,0,P|155:78|200:89,1,88.000002685547,10|2,0:2|0:2,0:0:0:0:
276,152,182830,5,2,1:2:0:0:
346,93,183030,1,2,0:2:0:0:
393,174,183230,2,0,P|383:212|379:267,1,88.000002685547,10|0,0:2|0:2,0:2:0:0:
379,260,183530,1,2,0:2:0:0:
379,260,183630,2,0,P|421:260|477:275,1,88.000002685547,2|2,1:2|0:2,0:0:0:0:
495,353,184030,1,10,0:2:0:0:
417,384,184230,1,2,0:2:0:0:
331,345,184430,6,0,P|269:330|223:374,1,132.00000402832,6|2,1:2|0:2,0:2:0:0:
223,374,184830,2,0,P|211:328|201:286,1,88.000002685547,10|2,0:0|0:0,0:0:0:0:
121,238,185230,2,0,P|84:243|29:262,1,88.000002685547,2|2,1:2|0:2,0:0:0:0:
8,357,185630,1,10,0:2:0:0:
8,357,185830,1,2,0:2:0:0:
44,266,186030,6,0,P|41:200|17:139,1,132.00000402832,6|0,1:2|0:2,0:2:0:0:
17,138,186430,6,0,B|50:93|50:93|96:116,1,107.999996704102,10|0,0:2|0:2,0:2:0:0:
96,116,186830,6,0,P|164:118|198:64,1,132.00000402832,6|0,1:2|0:2,0:2:0:0:
197,69,187230,1,10,0:2:0:0:
285,156,187430,5,8,0:2:0:0:
285,156,187530,1,8,0:2:0:0:
285,156,187630,2,0,P|275:204|270:249,1,88.000002685547,6|2,1:2|0:2,0:2:0:0:
270,242,187930,1,2,3:2:0:0:
270,242,188030,2,0,P|225:235|176:233,1,88.000002685547,10|0,0:2|0:2,0:2:0:0:
171,346,188430,2,0,P|216:353|265:355,1,88.000002685547,2|2,1:2|0:2,0:0:0:0:
336,300,188830,1,10,0:2:0:0:
418,361,189030,6,0,B|462:375|462:375|530:334|485:265,1,176.000005371094,2|2,0:2|0:2,0:2:0:0:
485,265,189530,1,2,0:2:0:0:
485,265,189630,2,0,P|491:221|504:176,1,88.000002685547,10|2,0:2|0:2,0:2:0:0:
476,81,190030,2,0,P|434:70|386:55,1,88.000002685547,2|2,1:2|0:2,0:0:0:0:
286,72,190430,1,10,0:2:0:0:
327,152,190630,1,2,0:2:0:0:
220,198,190830,6,0,P|211:233|204:300,1,88.000002685547,6|2,1:2|0:2,0:0:0:0:
259,369,191230,1,10,0:2:0:0:
305,291,191430,1,2,3:2:0:0:
208,289,191630,2,0,B|129:296|157:336|87:337,1,132.00000402832,2|0,1:2|0:2,0:2:0:0:
88,336,192030,2,0,L|96:381,2,44.0000013427735,10|8|8,0:2|0:2|0:2,0:0:0:0:
5,280,192430,2,0,L|14:230,2,44.0000013427735,10|8|8,0:2|0:2|0:2,0:0:0:0:
97,213,192830,6,0,P|36:197|25:135,1,132.00000402832,2|8,1:2|0:2,0:0:0:0:
25,135,193230,1,2,1:2:0:0:
96,70,193430,1,8,0:3:0:0:
96,70,193530,1,8,0:3:0:0:
96,70,193630,2,0,L|145:76,3,44.0000013427735,8|8|8|8,0:2|0:2|0:2|0:2,0:0:0:0:
180,107,194030,6,0,P|220:100|276:94,1,80,6|2,1:2|0:2,0:2:0:0:
319,159,194430,2,0,P|356:166|404:179,1,80,10|2,0:2|0:2,0:0:0:0:
486,267,194830,2,0,P|492:227|501:188,1,80,2|0,1:2|0:2,0:2:0:0:
453,105,195230,2,0,P|459:65|468:26,1,80,10|0,0:2|0:2,0:2:0:0:
357,65,195630,6,0,P|361:44|364:25,2,40,2|2|2,1:2|0:2|0:2,0:0:0:0:
396,177,196030,2,0,B|393:196|393:196|389:202|389:202|386:225,4,40,10|2|2|2|0,0:2|0:2|0:2|0:2|1:2,0:0:0:0:
434,295,196630,1,2,0:2:0:0:
369,349,196830,1,10,0:2:0:0:
306,286,197030,1,2,0:2:0:0:
229,328,197230,6,0,P|188:333|134:353,1,80,6|2,1:2|0:2,0:2:0:0:
60,293,197630,2,0,P|49:252|45:210,1,80,10|2,0:2|0:2,0:0:0:0:
108,140,198030,2,0,P|152:126|194:122,1,80,2|2,1:2|0:2,0:0:0:0:
279,163,198430,2,0,P|288:201|295:241,1,80,10|2,0:2|0:2,0:0:0:0:
265,366,198830,5,2,1:2:0:0:
265,366,199030,1,2,0:2:0:0:
215,287,199230,1,10,0:2:0:0:
215,287,199430,1,2,0:2:0:0:
295,241,199630,1,2,1:2:0:0:
351,321,199830,1,2,0:2:0:0:
425,251,200030,2,2,B|421:176|364:197|362:126,1,143.999995605469,10|8,0:2|0:2,0:1:0:0:
362,127,200430,6,0,P|402:123|458:109,1,80,6|0,1:2|0:2,0:2:0:0:
419,18,200830,2,0,P|378:21|323:36,1,80,8|2,0:2|0:2,0:0:0:0:
253,82,201230,2,0,P|213:71|163:68,1,80,2|0,1:2|0:2,0:2:0:0:
157,168,201630,2,0,P|196:178|247:182,1,80,10|0,0:2|0:2,0:2:0:0:
344,212,202030,6,0,P|301:246|313:315,1,120,2|0,1:2|3:2,0:2:0:0:
306,306,202430,1,8,0:2:0:0:
242,367,202630,2,0,P|207:358|157:357,1,80,2|0,0:2|1:2,0:2:0:0:
82,369,203030,1,2,0:2:0:0:
22,302,203230,2,0,P|26:262|37:223,1,80,8|2,0:2|0:2,0:0:0:0:
35,134,203630,6,0,B|99:135|84:172|146:169,1,120,6|0,1:2|0:2,0:2:0:0:
146,169,204030,2,0,L|154:126,2,40,10|0|2,0:2|3:2|0:2,0:2:0:0:
255,189,204430,2,0,P|259:149|266:109,1,80,2|0,1:2|0:2,0:2:0:0:
333,55,204830,1,10,0:2:0:0:
333,55,204930,1,8,0:2:0:0:
333,55,205030,1,8,0:2:0:0:
423,115,205230,6,0,P|421:170|411:242,1,120,6|0,1:2|0:2,0:2:0:0:
412,234,205630,2,0,L|455:241,2,40,10|0|2,0:2|3:2|0:2,0:2:0:0:
341,300,206030,1,2,1:2:0:0:
281,237,206230,2,0,P|230:236|184:232,1,80,2|8,0:2|0:2,0:2:0:0:
110,304,206630,5,2,0:2:0:0:
110,304,206730,1,2,0:2:0:0:
110,304,206830,2,0,P|74:258|90:202,1,120,6|0,1:2|0:2,0:2:0:0:
90,202,207230,2,0,L|42:187,2,40,10|0|2,0:2|3:2|0:2,0:2:0:0:
164,145,207630,2,0,P|172:108|188:61,1,80,2|2,1:2|0:2,0:0:0:0:
116,8,208030,1,10,0:2:0:0:
116,8,208130,1,8,0:2:0:0:
116,8,208230,1,8,0:2:0:0:
244,2,208430,6,0,P|276:8|317:21,1,64,6|0,1:2|0:2,0:2:0:0:
322,99,208830,2,0,P|354:105|395:118,1,64,2|0,0:2|0:2,0:2:0:0:
451,71,209230,2,0,B|447:138|394:124|393:198,1,143.999995605469,2|0,0:2|0:0,0:2:0:0:
325,264,210030,2,0,L|275:258,3,40,8|8|8|8,0:2|0:2|0:2|0:2,0:0:0:0:
249,228,210430,1,8,0:0:0:0:
239,227,210530,1,8,0:0:0:0:
230,226,210630,1,8,0:0:0:0:
221,225,210730,1,8,0:0:0:0:
216,228,210830,6,0,P|223:155|234:100,1,120,6|0,1:2|3:2,0:2:0:0:
232,109,211230,2,0,L|276:115,2,40,10|0|2,0:2|3:2|0:2,0:2:0:0:
158,42,211630,2,0,P|118:46|78:54,1,80,2|0,1:2|0:2,0:2:0:0:
19,125,212030,2,0,P|24:155|29:205,1,80,10|0,0:2|0:2,0:2:0:0:
54,303,212430,6,0,P|108:269|171:298,1,120,2|0,1:2|3:2,0:2:0:0:
158,284,212830,1,8,0:2:0:0:
227,356,213030,1,2,0:2:0:0:
283,283,213230,2,0,P|290:243|301:205,1,80,2|0,1:2|0:2,0:2:0:0:
224,151,213630,2,0,P|216:111|205:73,1,80,10|0,0:2|0:2,0:2:0:0:
289,16,214030,6,0,B|351:26|335:58|396:66,1,120,0|0,1:2|3:2,0:2:0:0:
395,66,214430,2,0,L|405:19,2,40,10|0|2,0:2|3:2|0:2,0:2:0:0:
485,101,214830,2,0,P|475:139|468:187,1,80,2|0,1:2|0:2,0:2:0:0:
372,187,215230,2,0,P|381:225|389:273,1,80,10|0,0:2|0:2,0:2:0:0:
480,341,215630,6,0,P|416:349|345:382,1,120,2|0,1:2|3:2,0:2:0:0:
364,370,216030,2,0,P|328:364|278:351,1,80,10|2,0:2|0:2,0:2:0:0:
207,375,216430,1,2,1:3:0:0:
151,316,216630,1,2,0:3:0:0:
190,237,216830,1,10,0:2:0:0:
281,259,217030,5,10,0:2:0:0:
281,259,217130,1,8,0:2:0:0:
281,259,217230,2,0,P|289:197|312:121,1,120,6|0,1:2|3:2,0:2:0:0:
304,141,217630,2,0,L|354:149,2,40,10|0|2,0:2|3:2|0:2,0:2:0:0:
251,52,218030,2,0,P|211:48|165:40,1,80,2|0,1:2|0:2,0:2:0:0:
105,109,218430,2,0,P|65:102|25:98,1,80,10|0,0:2|0:2,0:2:0:0:
65,211,218830,6,0,P|116:238|169:215,1,120,2|0,1:2|3:2,0:2:0:0:
169,215,219230,1,8,0:2:0:0:
242,158,219430,1,2,0:2:0:0:
297,235,219630,2,0,P|287:271|282:332,1,80,2|0,1:2|0:2,0:2:0:0:
352,383,220030,1,10,0:2:0:0:
352,383,220130,1,8,0:2:0:0:
352,383,220230,1,8,0:2:0:0:
417,306,220430,5,8,1:2:0:0:
199,373,220830,1,8,1:2:0:0:
212,164,221230,2,0,B|270:160|254:206|322:202,1,120,8|8,1:2|0:2,0:2:0:0:
321,202,221630,1,0,1:2:0:0:
389,144,221830,1,8,1:2:0:0:
299,112,222030,6,0,B|245:101|214:166|248:170|223:230|162:220,1,195.999994018555,6|0,1:2|0:2,0:2:0:0:
129,238,222830,2,0,L|80:227,3,27.9999991455078,8|8|8|8,0:2|0:2|0:2|0:2,0:0:0:0:
73,252,223230,2,0,L|24:241,3,27.9999991455078,8|8|8|8,0:2|0:2|0:2|0:2,0:0:0:0:
16,265,223630,5,4,1:2:0:0:
256,192,223730,12,0,225230,0:2:0:0:
