osu file format v14

[General]
AudioFilename: audio.mp3
AudioLeadIn: 0
PreviewTime: 353
Countdown: 0
SampleSet: Soft
StackLeniency: 0.7
Mode: 2
LetterboxInBreaks: 0
WidescreenStoryboard: 1

[Editor]
Bookmarks: 29443
DistanceSpacing: 1.9
BeatDivisor: 1
GridSize: 32
TimelineZoom: 1

[Metadata]
Title:happy birthday to me
TitleUnicode:happy birthday to me
Artist:mafumafu
ArtistUnicode:mafumafu
Creator:AlexDemon-
Version:platter
Source:
Tags:hbd male vocal pop jpop j-pop japanese tanjoubi たんじょうび
BeatmapID:4458228
BeatmapSetID:2121675

[Difficulty]
HPDrainRate:4
CircleSize:3.5
OverallDifficulty:7
ApproachRate:7
SliderMultiplier:1.94
SliderTickRate:1

[Events]
//Background and Video events
0,0,"bg.jpg",0,0
//Break Periods
//Storyboard Layer 0 (Background)
//Storyboard Layer 1 (Fail)
//Storyboard Layer 2 (Pass)
//Storyboard Layer 3 (Foreground)
//Storyboard Layer 4 (Overlay)
//Storyboard Sound Samples

[TimingPoints]
353,454.545454545455,4,2,1,45,1,0
29443,-100,4,1,1,35,0,0
42171,-100,4,2,1,25,0,0

[Colours]
Combo1 : 57,95,242
Combo2 : 245,236,56
Combo3 : 248,173,205
Combo4 : 251,74,79

[HitObjects]
332,240,353,6,0,P|377:147|328:141,1,194,4|8,0:0|0:0,0:0:0:0:
235,136,1034,1,8,0:0:0:0:
137,133,1262,2,0,B|40:133|40:133|42:238,1,194,10|8,0:0|0:0,0:0:0:0:
138,226,1943,1,8,0:0:0:0:
430,234,2171,6,0,P|464:147|383:130,1,194,12|10,0:0|0:0,0:0:0:0:
291,128,2853,1,8,0:0:0:0:
88,128,3080,2,0,L|293:127,1,194,12|8,0:0|0:0,0:0:0:0:
379,130,3762,1,8,0:0:0:0:
88,232,3989,6,0,P|71:179|102:167,1,97,6|8,0:0|0:0,0:0:0:0:
195,164,4443,1,8,0:0:0:0:
402,164,4671,1,8,0:0:0:0:
305,158,4898,1,10,0:0:0:0:
234,200,5125,1,8,0:0:0:0:
300,248,5352,1,8,0:0:0:0:
398,244,5580,1,8,0:0:0:0:
106,254,5807,6,0,P|39:210|121:170,1,194,12|8,0:0|0:0,0:0:0:0:
205,160,6489,1,8,0:0:0:0:
413,157,6716,1,12,0:0:0:0:
316,156,6943,1,8,0:0:0:0:
219,156,7170,1,4,0:0:0:0:
121,159,7398,1,4,0:0:0:0:
412,161,7625,6,0,P|474:211|395:232,1,194,6|8,0:0|0:0,0:0:0:0:
302,252,8307,1,8,0:0:0:0:
99,250,8534,1,10,0:0:0:0:
196,246,8762,2,0,L|196:142,1,97,8|8,0:0|0:0,0:0:0:0:
99,250,9216,1,8,0:0:0:0:
390,248,9443,6,0,P|460:212|373:178,1,194,12|10,0:0|0:0,0:0:0:0:
189,189,10125,1,8,0:0:0:0:
286,189,10353,1,10,0:0:0:0:
382,187,10580,2,0,L|486:186,2,97,8|10|8,0:0|0:0|0:0,0:0:0:0:
89,166,11262,6,0,P|35:201|125:269,1,194,14|8,0:0|0:0,0:0:0:0:
196,279,11943,1,8,0:0:0:0:
401,280,12171,2,0,P|421:226|392:206,1,97,14|8,0:0|0:0,0:0:0:0:
192,193,12625,2,0,L|85:190,1,97,4|4,1:0|1:0,0:0:0:0:
398,195,13080,6,0,L|399:83,1,97,12|0,0:0|0:0,0:0:0:0:
206,72,13762,2,0,P|140:119|216:173,1,194,2|4,0:0|1:0,0:0:0:0:
413,174,14443,2,0,P|437:123|406:108,1,97,4|4,1:0|1:0,0:0:0:0:
120,103,14898,6,0,P|52:143|141:179,1,194,4|8,0:0|0:0,0:0:0:0:
217,193,15580,1,8,0:0:0:0:
421,200,15807,2,0,L|226:202,1,194,14|4,0:0|1:0,0:0:0:0:
129,196,16489,1,4,1:0:0:0:
423,187,16716,6,0,P|477:149|390:121,1,194,4|8,0:0|0:0,0:0:0:0:
298,111,17398,1,8,0:0:0:0:
91,113,17625,2,0,L|303:113,1,194,12|4,0:0|1:0,0:0:0:0:
382,116,18307,1,4,1:0:0:0:
91,120,18534,6,0,P|34:80|121:60,1,194,6|8,0:0|0:0,0:0:0:0:
211,53,19216,1,8,0:0:0:0:
394,63,19443,2,0,P|417:112|376:138,1,97,12|8,0:0|0:0,0:0:0:0:
208,124,19898,2,0,L|101:122,1,97,8|8,0:0|0:0,0:0:0:0:
404,130,20353,6,0,P|473:175|395:214,1,194,12|8,0:0|0:0,0:0:0:0:
308,215,21034,1,8,0:0:0:0:
104,217,21262,2,0,L|201:217,1,97,12|8,0:0|0:0,0:0:0:0:
201,217,21716,2,0,L|90:217,1,97,4|4,1:0|1:0,0:0:0:0:
397,215,22171,6,0,P|454:169|367:130,1,194,6|8,0:0|0:0,0:0:0:0:
279,120,22853,1,8,0:0:0:0:
375,121,23080,1,10,0:0:0:0:
279,120,23307,1,8,0:0:0:0:
375,119,23534,1,8,0:0:0:0:
472,119,23761,1,8,0:0:0:0:
176,107,23989,6,0,P|111:142|197:192,1,194,14|10,0:0|0:0,0:0:0:0:
383,232,24671,2,0,L|486:232,2,97,8|10|8,0:0|0:0|0:0,0:0:0:0:
285,230,25353,2,0,L|391:230,1,97,10|8,0:0|0:0,0:0:0:0:
91,231,25807,6,0,B|91:125|91:125|199:127,1,194,14|8,0:0|0:0,0:0:0:0:
276,122,26489,1,8,0:0:0:0:
372,120,26716,2,0,B|475:121|475:121|472:223,1,194,8|8,0:0|0:0,0:0:0:0:
164,209,27398,6,0,P|96:169|172:146,1,194,4|4,0:0|1:0,0:0:0:0:
352,128,28080,1,4,1:0:0:0:
167,126,28307,1,4,1:0:0:0:
352,128,28534,2,0,L|147:129,1,194,4|4,1:0|1:0,0:0:0:0:
61,118,29216,1,4,1:0:0:0:
356,116,29443,6,0,P|420:153|339:206,1,194,0|8,0:0|0:0,0:0:0:0:
255,204,30125,1,0,0:0:0:0:
50,206,30353,2,0,B|48:101|48:101|151:103,1,194,4|8,0:0|0:0,0:0:0:0:
340,202,31034,6,0,P|411:166|333:133,1,194,0|0,0:0|0:0,0:0:0:0:
245,121,31716,2,0,L|131:121,1,97,8|0,0:0|0:0,0:0:0:0:
441,124,32171,2,0,B|440:221|440:221|326:220,1,194,4|8,0:0|0:0,0:0:0:0:
149,210,33080,6,0,P|96:153|161:170,1,194,4|8,0:0|0:0,0:0:0:0:
255,154,33762,1,0,0:0:0:0:
52,154,33989,2,0,B|54:254|54:254|156:257,1,194,4|8,0:0|0:0,0:0:0:0:
354,274,34671,6,0,P|421:222|348:204,1,194,0|0,0:0|0:0,0:0:0:0:
257,181,35353,1,8,0:0:0:0:
353,181,35580,1,0,0:0:0:0:
450,181,35807,1,0,0:0:0:0:
142,180,36034,2,0,L|142:280,1,97,4|4,2:0|2:0,0:0:0:0:
336,279,36716,6,0,L|132:280,1,194,4|8,2:0|0:0,0:0:0:0:
239,281,37398,1,0,0:0:0:0:
445,287,37625,2,0,B|445:187|445:187|336:187,1,194,4|8,0:0|0:0,0:0:0:0:
166,180,38307,6,0,B|167:82|167:82|279:85,1,194,0|0,0:0|0:0,0:0:0:0:
365,118,38989,2,0,L|469:117,1,97,8|0,0:0|0:0,0:0:0:0:
168,111,39443,2,0,P|101:132|172:194,1,194,4|8,0:0|0:0,0:0:0:0:
355,193,40353,6,0,P|420:141|334:126,1,194,0|8,0:0|0:0,0:0:0:0:
251,109,41034,1,0,0:0:0:0:
456,102,41262,2,0,L|353:101,1,97,4|8,0:0|0:0,0:0:0:0:
359,101,41716,2,0,L|466:101,1,97,8|8,0:0|0:0,0:0:0:0:
251,99,42171,5,2,0:0:0:0:
406,97,42625,1,2,0:0:0:0:
