osu file format v14

[General]
AudioFilename: audio.mp3
AudioLeadIn: 0
PreviewTime: 353
Countdown: 0
SampleSet: Soft
StackLeniency: 0.7
Mode: 2
LetterboxInBreaks: 0
WidescreenStoryboard: 0

[Editor]
Bookmarks: 29443
DistanceSpacing: 1.1
BeatDivisor: 1
GridSize: 32
TimelineZoom: 1

[Metadata]
Title:happy birthday to me
TitleUnicode:happy birthday to me
Artist:mafumafu
ArtistUnicode:mafumafu
Creator:AlexDemon-
Version:cup
Source:
Tags:hbd male vocal pop jpop j-pop japanese tanjoubi たんじょうび
BeatmapID:4458225
BeatmapSetID:2121675

[Difficulty]
HPDrainRate:2
CircleSize:2.5
OverallDifficulty:5
ApproachRate:5
SliderMultiplier:1.64
SliderTickRate:1

[Events]
//Background and Video events
0,0,"bg.jpg",0,0
//Break Periods
//Storyboard Layer 0 (Background)
//Storyboard Layer 1 (Fail)
//Storyboard Layer 2 (Pass)
//Storyboard Layer 3 (Foreground)
//Storyboard Layer 4 (Overlay)
//Storyboard Sound Samples

[TimingPoints]
353,454.545454545455,4,2,1,45,1,0
29443,-100,4,1,1,35,0,0
42171,-100,4,2,1,25,0,0

[Colours]
Combo1 : 57,95,242
Combo2 : 245,236,56
Combo3 : 248,173,205
Combo4 : 251,74,79

[HitObjects]
325,252,353,6,0,P|373:179|301:149,1,164,4|8,0:0|0:0,0:0:0:0:
161,150,1262,2,0,P|121:245|181:262,1,164,10|8,0:0|0:0,0:0:0:0:
233,262,1943,1,8,0:0:0:0:
126,259,2171,6,0,P|86:182|153:148,1,164,12|10,0:0|0:0,0:0:0:0:
300,131,3080,1,12,0:0:0:0:
136,131,3534,2,0,L|32:133,1,82,8|8,0:0|0:0,0:0:0:0:
160,132,3989,6,0,P|224:200|189:239,1,164,6|8,0:0|0:0,0:0:0:0:
83,240,4671,1,8,0:0:0:0:
246,234,5125,2,0,L|339:233,2,82,8|8|8,0:0|0:0|0:0,0:0:0:0:
139,232,5807,6,0,P|106:147|161:113,1,164,12|8,0:0|0:0,0:0:0:0:
317,92,6716,2,0,L|153:95,1,164,12|4,0:0|0:0,0:0:0:0:
235,93,7398,1,4,0:0:0:0:
341,93,7625,6,0,P|370:177|311:197,1,164,6|8,0:0|0:0,0:0:0:0:
236,197,8307,1,8,0:0:0:0:
400,197,8762,2,0,L|486:196,2,82,8|8|8,0:0|0:0|0:0,0:0:0:0:
293,195,9443,6,0,P|246:118|297:99,1,164,12|10,0:0|0:0,0:0:0:0:
370,89,10125,1,8,0:0:0:0:
206,75,10580,2,0,L|100:74,2,82,8|10|8,0:0|0:0|0:0,0:0:0:0:
314,73,11262,6,0,P|366:147|312:187,1,164,14|8,0:0|0:0,0:0:0:0:
217,185,11943,1,8,0:0:0:0:
52,186,12398,1,8,0:0:0:0:
133,185,12625,1,4,1:0:0:0:
215,184,12852,1,4,1:0:0:0:
323,187,13080,6,0,L|323:90,1,82,12|0,0:0|0:0,0:0:0:0:
159,87,13762,2,0,P|41:148|162:199,1,328,2|4,0:0|1:0,0:0:0:0:
266,198,14898,6,0,P|317:129|264:92,1,164,4|8,0:0|0:0,0:0:0:0:
105,84,15807,2,0,P|72:170|143:206,1,164,14|4,0:0|1:0,0:0:0:0:
200,201,16489,1,4,1:0:0:0:
306,199,16716,6,0,P|346:119|285:86,1,164,4|8,0:0|0:0,0:0:0:0:
133,80,17625,2,0,L|325:82,1,164,12|4,0:0|1:0,0:0:0:0:
214,77,18307,1,4,1:0:0:0:
107,79,18534,6,0,P|60:158|123:190,1,164,6|8,0:0|0:0,0:0:0:0:
210,184,19216,1,8,0:0:0:0:
374,178,19671,1,8,0:0:0:0:
292,178,19898,1,8,0:0:0:0:
210,179,20125,1,8,0:0:0:0:
103,183,20353,6,0,P|72:104|138:79,1,164,12|8,0:0|0:0,0:0:0:0:
292,77,21262,2,0,P|338:164|291:199,1,164,12|4,0:0|1:0,0:0:0:0:
219,191,21943,1,4,1:0:0:0:
326,192,22171,6,0,B|413:190|413:190|417:95,1,164,6|8,0:0|0:0,0:0:0:0:
334,116,22853,1,8,0:0:0:0:
170,127,23307,2,0,L|61:129,2,82,8|8|8,0:0|0:0|0:0,0:0:0:0:
276,124,23989,6,0,P|324:197|270:228,1,164,14|10,0:0|0:0,0:0:0:0:
168,207,24671,1,8,0:0:0:0:
331,205,25125,2,0,L|420:204,2,82,8|10|8,0:0|0:0|0:0,0:0:0:0:
221,203,25807,6,0,P|138:152|227:74,1,246,14|8,0:0|0:0,0:0:0:0:
302,64,26716,2,0,P|355:134|306:171,1,164,8|8,0:0|0:0,0:0:0:0:
201,164,27398,1,4,0:0:0:0:
365,161,27853,6,0,L|449:160,1,82,4|4,1:0|1:0,0:0:0:0:
446,160,28307,2,0,L|351:160,1,82,4|4,1:0|1:0,0:0:0:0:
200,162,28989,2,0,L|195:76,1,82,4|4,1:0|1:0,0:0:0:0:
302,78,29443,6,0,P|353:150|301:170,1,164,0|8,0:0|0:0,0:0:0:0:
227,166,30125,1,0,0:0:0:0:
145,155,30353,2,0,P|97:79|163:66,1,164,4|8,0:0|0:0,0:0:0:0:
221,57,31034,1,0,0:0:0:0:
385,54,31489,5,0,0:0:0:0:
466,56,31716,1,8,0:0:0:0:
385,54,31943,1,0,0:0:0:0:
278,52,32171,2,0,P|226:111|300:153,1,164,4|8,0:0|0:0,0:0:0:0:
441,160,33080,6,0,L|270:159,1,164,4|8,0:0|0:0,0:0:0:0:
359,161,33762,1,0,0:0:0:0:
440,161,33989,2,0,L|245:162,1,164,4|8,0:0|0:0,0:0:0:0:
169,156,34671,1,0,0:0:0:0:
332,161,35125,5,0,0:0:0:0:
413,162,35352,1,8,0:0:0:0:
332,161,35580,1,0,0:0:0:0:
249,160,35807,1,0,0:0:0:0:
143,160,36034,2,0,L|144:53,1,82,4|4,2:0|2:0,0:0:0:0:
306,53,36716,6,0,P|360:117|311:146,1,164,4|8,2:0|0:0,0:0:0:0:
228,138,37398,1,0,0:0:0:0:
146,140,37625,2,0,P|100:216|153:251,1,164,4|8,0:0|0:0,0:0:0:0:
228,246,38307,1,0,0:0:0:0:
63,244,38762,5,0,0:0:0:0:
144,242,38989,1,8,0:0:0:0:
226,240,39216,1,0,0:0:0:0:
333,235,39443,2,0,P|387:166|320:148,1,164,4|8,0:0|0:0,0:0:0:0:
178,152,40353,6,0,L|351:150,1,164,0|8,0:0|0:0,0:0:0:0:
260,148,41034,1,0,0:0:0:0:
178,156,41262,2,0,P|125:230|181:242,1,164,4|8,0:0|0:0,0:0:0:0:
241,242,41943,1,8,0:0:0:0:
323,241,42171,5,2,0:0:0:0:
142,239,42625,1,2,0:0:0:0:
