osu file format v14

[General]
AudioFilename: audio.mp3
AudioLeadIn: 0
PreviewTime: 65819
Countdown: 0
SampleSet: Soft
StackLeniency: 0.7
Mode: 0
LetterboxInBreaks: 0
WidescreenStoryboard: 1

[Editor]
Bookmarks: 17558,110276
DistanceSpacing: 0.6
BeatDivisor: 12
GridSize: 8
TimelineZoom: 1.8

[Metadata]
Title:Yuurei
TitleUnicode:ユウレイ
Artist:mafumafu
ArtistUnicode:まふまふ
Creator:William K
Version:Insane
Source:アプリで恋する20の条件
Tags:apuri de koi suru 20 no jouken ghost after the rain twenty nijuu William_K yurei japanese poprock jpop jrock j-pop j-rock pop-rock pop rock app tv drama
BeatmapID:3015036
BeatmapSetID:1345784

[Difficulty]
HPDrainRate:5.5
CircleSize:4
OverallDifficulty:7.5
ApproachRate:8.4
SliderMultiplier:2.42
SliderTickRate:1

[Events]
//Background and Video events
Video,-36,"YUUREI MP4.mp4"
0,0,"Untitled.jpg",0,0
//Break Periods
2,92179,109261
2,199135,200854
//Storyboard Layer 0 (Background)
//Storyboard Layer 1 (Fail)
//Storyboard Layer 2 (Pass)
//Storyboard Layer 3 (Foreground)
//Storyboard Layer 4 (Overlay)
//Storyboard Sound Samples

[TimingPoints]
675,652.173913043478,4,2,1,30,1,0
1979,-250,4,2,1,30,0,0
3174,-250,4,2,1,5,0,0
3283,-250,4,2,1,30,0,0
4479,-250,4,2,1,5,0,0
4588,-250,4,2,1,30,0,0
5783,-250,4,2,1,5,0,0
5892,-250,4,2,1,30,0,0
8392,-250,4,2,1,5,0,0
8501,-250,4,2,1,30,0,0
10946,-125,4,2,1,30,0,0
11109,-250,4,2,1,30,0,0
17522,-250,4,2,1,5,0,0
17631,-250,4,2,1,30,0,0
20783,-250,4,2,1,5,0,0
20892,-250,4,2,1,30,0,0
21435,-250,4,2,1,5,0,0
21544,-76.9230769230769,4,2,1,40,0,0
22196,-125,4,2,1,40,0,0
22522,-90.9090909090909,4,2,1,40,0,0
22848,-125,4,2,1,40,0,0
23501,-76.9230769230769,4,2,1,40,0,0
24153,-58.8235294117647,4,2,1,40,0,0
24479,-125,4,2,1,40,0,0
26109,-76.9230769230769,4,2,1,40,0,0
27414,-125,4,2,1,40,0,0
27740,-90.9090909090909,4,2,1,40,0,0
28066,-125,4,2,1,40,0,0
28718,-76.9230769230769,4,2,1,40,0,0
29370,-58.8235294117647,4,2,1,40,0,0
30022,-125,4,2,1,40,0,0
31327,-76.9230769230769,4,2,1,40,0,0
31870,-76.9230769230769,4,2,1,5,0,0
31979,-76.9230769230769,4,2,1,40,0,0
32305,-100,4,2,1,35,0,0
32631,-142.857142857143,4,2,1,30,0,0
32957,-250,4,2,1,25,0,0
33283,-1000,4,2,1,20,0,0
33609,-62.5,4,2,1,40,0,0
33935,-76.9230769230769,4,2,1,40,0,0
34261,-100,4,2,1,40,0,0
34588,-76.9230769230769,4,2,1,40,0,0
35240,-125,4,2,1,40,0,0
36544,-76.9230769230769,4,2,1,40,0,0
37196,-58.8235294117647,4,2,1,40,0,0
37848,-125,4,2,1,40,0,0
39153,-76.9230769230769,4,2,1,40,0,0
39805,-125,4,2,1,40,0,0
40185,-125,4,2,1,5,0,0
40457,-125,4,2,1,40,0,0
40783,-99.9999999999999,4,2,1,40,0,0
41109,-90.9090909090909,4,2,1,40,0,0
41435,-71.4285714285714,4,2,1,40,0,0
41544,-71.4285714285714,4,2,1,5,0,0
41653,-58.8235294117647,4,2,1,40,0,0
41761,-58.8235294117647,4,2,1,5,0,0
42414,-111.111111111111,4,2,1,50,0,0
43718,-90.9090909090909,4,2,1,50,0,0
44044,-66.6666666666667,4,2,1,50,0,0
44370,-111.111111111111,4,2,1,50,0,0
48935,-90.9090909090909,4,2,1,50,0,0
49261,-66.6666666666667,4,2,1,50,0,0
49588,-111.111111111111,4,2,1,50,0,0
51218,-66.6666666666667,4,2,1,50,0,0
51870,-90.9090909090909,4,2,1,50,0,0
52196,-111.111111111111,4,2,1,50,0,0
52848,-90.9090909090909,4,2,1,55,0,0
53501,-90.9090909090909,4,2,1,55,0,0
54044,-71.4285714285714,4,2,1,55,0,0
54479,-58.8235294117647,4,2,1,55,0,0
54805,-90.9090909090909,4,2,1,55,0,0
56001,-90.9090909090909,4,2,1,5,0,0
56109,-71.4285714285714,4,2,1,55,0,0
56761,-58.8235294117647,4,2,1,55,0,0
57414,-66.6666666666667,4,2,1,55,0,0
57740,-76.9230769230769,4,2,1,55,0,0
58066,-76.9230769230769,4,2,1,55,0,0
60348,-83.3333333333333,4,2,1,55,0,0
60674,-66.6666666666667,4,2,1,55,0,0
61327,-58.8235294117647,4,2,1,50,0,0
61979,-100,4,2,1,55,0,0
62305,-76.9230769230769,4,2,1,55,0,0
62631,-62.5,4,2,1,55,0,0
62957,-250,4,2,1,55,0,0
65131,-250,4,2,1,5,0,0
65240,-41.6666666666667,4,2,1,50,0,0
65892,-58.8235294117647,4,2,1,70,0,1
67196,-76.9230769230769,4,2,1,70,0,1
68501,-58.8235294117647,4,2,1,70,0,1
69805,-76.9230769230769,4,2,1,70,0,1
70457,-58.8235294117647,4,2,1,70,0,1
71001,-52.6315789473684,4,2,1,5,0,1
71109,-58.8235294117647,4,2,1,70,0,1
72088,-76.9230769230769,4,2,1,70,0,1
72414,-76.9230769230769,4,2,1,70,0,1
74044,-52.6315789473684,4,2,1,70,0,1
74696,-66.6666666666667,4,2,1,70,0,1
75022,-52.6315789473684,4,2,1,70,0,1
76327,-58.8235294117647,4,2,1,70,0,1
77305,-100,4,2,1,70,0,1
77631,-76.9230769230769,4,2,1,70,0,1
78609,-100,4,2,1,70,0,1
78935,-76.9230769230769,4,2,1,70,0,1
79914,-100,4,2,1,70,0,1
80240,-76.9230769230769,4,2,1,70,0,1
80566,-100,4,2,1,70,0,1
81544,-76.9230769230769,4,2,1,70,0,1
82196,-100,4,2,1,70,0,1
82848,-76.9230769230769,4,2,1,70,0,1
83501,-100,4,2,1,70,0,1
84153,-76.9230769230769,4,2,1,70,0,1
85783,-52.6315789473684,4,2,1,70,0,1
86435,-100,4,2,1,70,0,1
88066,-76.9230769230769,4,2,1,70,0,1
89044,-250,4,2,1,70,0,1
89370,-250,4,2,1,50,0,0
110240,-76.9230769230769,4,2,1,50,0,0
111218,-100,4,2,1,50,0,0
128501,-142.857142857143,4,2,1,50,0,0
131109,-142.857142857143,4,2,1,55,0,0
131761,-100,4,2,1,55,0,0
132414,-90.9090909090909,4,2,1,55,0,0
132740,-66.6666666666667,4,2,1,55,0,0
133066,-100,4,2,1,55,0,0
137631,-83.3333333333334,4,2,1,55,0,0
137957,-66.6666666666667,4,2,1,55,0,0
138283,-100,4,2,1,55,0,0
138935,-83.3333333333334,4,2,1,55,0,0
139261,-100,4,2,1,55,0,0
139914,-62.5,4,2,1,55,0,0
140566,-90.9090909090909,4,2,1,55,0,0
140892,-111.111111111111,4,2,1,60,0,0
142196,-90.9090909090909,4,2,1,60,0,0
142848,-71.4285714285714,4,2,1,60,0,0
143174,-58.8235294117647,4,2,1,60,0,0
143501,-90.9090909090909,4,2,1,60,0,0
144696,-90.9090909090909,4,2,1,5,0,0
144805,-71.4285714285714,4,2,1,60,0,0
145457,-58.8235294117647,4,2,1,60,0,0
146109,-66.6666666666667,4,2,1,60,0,0
146435,-76.9230769230769,4,2,1,60,0,0
146761,-95.2380952380951,4,2,1,60,0,0
147740,-76.9230769230769,4,2,1,60,0,0
149044,-83.3333333333333,4,2,1,60,0,0
149370,-66.6666666666667,4,2,1,60,0,0
150022,-58.8235294117647,4,2,1,60,0,0
150674,-100,4,2,1,60,0,0
151327,-62.5,4,2,1,60,0,0
151653,-250,4,2,1,60,0,0
153283,-62.5,4,2,1,60,0,0
154588,-58.8235294117647,4,2,1,70,0,1
155892,-76.9230769230769,4,2,1,70,0,1
157196,-58.8235294117647,4,2,1,70,0,1
158501,-76.9230769230769,4,2,1,70,0,1
159153,-58.8235294117647,4,2,1,70,0,1
159805,-58.8235294117647,4,2,1,70,0,1
160783,-76.9230769230769,4,2,1,70,0,1
161109,-76.9230769230769,4,2,1,70,0,1
162740,-52.6315789473684,4,2,1,70,0,1
163392,-66.6666666666667,4,2,1,70,0,1
163718,-52.6315789473684,4,2,1,70,0,1
165022,-58.8235294117647,4,2,1,70,0,1
166001,-100,4,2,1,70,0,1
166327,-76.9230769230769,4,2,1,70,0,1
167305,-100,4,2,1,70,0,1
167631,-76.9230769230769,4,2,1,70,0,1
168609,-100,4,2,1,70,0,1
168935,-76.9230769230769,4,2,1,70,0,1
169261,-100,4,2,1,70,0,1
170240,-76.9230769230769,4,2,1,70,0,1
170892,-100,4,2,1,70,0,1
171544,-76.9230769230769,4,2,1,70,0,1
172196,-100,4,2,1,70,0,1
172848,-76.9230769230769,4,2,1,70,0,1
174479,-52.6315789473684,4,2,1,70,0,1
175131,-100,4,2,1,70,0,1
176761,-76.9230769230769,4,2,1,70,0,1
177740,-250,4,2,1,70,0,1
178066,-66.6666666666667,4,2,1,70,0,0
178392,-83.3333333333333,4,2,1,70,0,0
182957,-111.111111111111,4,2,1,70,0,0
183283,-83.3333333333333,4,2,1,70,0,0
183609,-76.9230769230769,4,2,1,70,0,0
183935,-71.4285714285714,4,2,1,70,0,0
184261,-66.6666666666667,4,2,1,70,0,0
184588,-62.5,4,2,1,70,0,0
185240,-83.3333333333333,4,2,1,70,0,0
185892,-71.4285714285714,4,2,1,70,0,0
187196,-58.8235294117647,4,2,1,70,0,0
187414,-52.6315789473684,4,2,1,70,0,0
187848,-55.5555555555556,4,2,1,70,0,0
188174,-58.8235294117647,4,2,1,70,0,0
188501,-66.6666666666667,4,2,1,70,0,0
189153,-83.3333333333333,4,2,1,70,0,0
190783,-111.111111111111,4,2,1,70,0,0
191761,-90.9090909090908,4,2,1,70,0,0
192414,-76.9230769230769,4,2,1,70,0,0
193392,-111.111111111111,4,2,1,70,0,0
195022,-148.148148148148,4,2,1,70,0,0
198935,-148.148148148148,4,2,1,50,0,0
201544,-166.666666666667,4,2,1,50,0,0
212631,-250.000000000001,4,2,1,50,0,0
222414,-58.8235294117647,4,2,1,70,0,1
223718,-76.9230769230769,4,2,1,70,0,1
225022,-58.8235294117647,4,2,1,70,0,1
226327,-76.9230769230769,4,2,1,70,0,1
226979,-58.8235294117647,4,2,1,70,0,1
227631,-76.9230769230769,4,2,1,70,0,1
228935,-76.9230769230769,4,2,1,70,0,1
230566,-52.6315789473684,4,2,1,70,0,1
231218,-66.6666666666667,4,2,1,70,0,1
231544,-52.6315789473684,4,2,1,70,0,1
232848,-58.8235294117647,4,2,1,70,0,1
233827,-100,4,2,1,70,0,1
234153,-76.9230769230769,4,2,1,70,0,1
235131,-100,4,2,1,70,0,1
235457,-76.9230769230769,4,2,1,70,0,1
236435,-100,4,2,1,70,0,1
236761,-76.9230769230769,4,2,1,70,0,1
237088,-100,4,2,1,70,0,1
238066,-76.9230769230769,4,2,1,70,0,1
238718,-100,4,2,1,70,0,1
239370,-76.9230769230769,4,2,1,70,0,1
240022,-100,4,2,1,70,0,1
240674,-76.9230769230769,4,2,1,70,0,1
242305,-52.6315789473684,4,2,1,70,0,1
242957,-100,4,2,1,70,0,1
244587,-76.9230769230769,4,2,1,70,0,1
245566,-250,4,2,1,70,0,1
245892,-66.6666666666667,4,2,1,70,0,0
246218,-83.3333333333333,4,2,1,70,0,0
249805,-71.4285714285714,4,2,1,70,0,0
250783,-83.3333333333333,4,2,1,70,0,0
251109,-66.6666666666667,4,2,1,70,0,0
251435,-83.3333333333333,4,2,1,70,0,0
254370,-71.4285714285714,4,2,1,70,0,0
255022,-58.8235294117647,4,2,1,70,0,0
255240,-52.6315789473684,4,2,1,70,0,0
255674,-50,4,2,1,70,0,0
256001,-58.8235294117647,4,2,1,70,0,0
256327,-66.6666666666667,4,2,1,70,0,0
256653,-83.3333333333333,4,2,1,70,0,0
261544,-66.6666666666667,4,2,1,70,0,0
261870,-83.3333333333333,4,2,1,70,0,0
264479,-76.9230769230769,4,2,1,70,0,0
264805,-71.4285714285714,4,2,1,70,0,0
265131,-66.6666666666667,4,2,1,70,0,0
265457,-62.5,4,2,1,70,0,0
265783,-58.8235294117647,4,2,1,70,0,0
266109,-55.5555555555556,4,2,1,70,0,0
266435,-52.6315789473684,4,2,1,70,0,0
266761,-166.666666666667,4,2,1,40,0,0
270674,722.89156626506,4,2,1,40,1,0
270674,-166.666666666667,4,2,1,40,0,0
271638,652.173913043478,4,2,1,40,1,0
271638,-166.666666666667,4,2,1,40,0,0
273283,689.655172413793,4,2,1,40,1,0
273283,-166.666666666667,4,2,1,40,0,0
273972,652.173913043478,4,2,1,40,1,0
273972,-166.666666666667,4,2,1,40,0,0

[Colours]
Combo1 : 89,89,255
Combo2 : 255,183,111
Combo3 : 255,128,128
Combo4 : 255,128,64
Combo5 : 255,45,45
Combo6 : 128,128,128
Combo7 : 128,0,255
Combo8 : 164,164,255

[HitObjects]
448,55,675,6,0,P|445:33|443:25,2,20.1666666666667,2|0|0,0:0|0:0|0:0,0:0:0:0:
448,55,1979,6,0,P|384:58|287:118,1,177.466666666667,2|0,0:0|0:0,0:0:0:0:
217,147,3283,2,0,P|251:200|352:254,1,177.466666666667,2|0,0:0|0:0,0:0:0:0:
412,301,4588,2,0,P|441:244|437:130,1,177.466666666667,2|0,0:0|0:0,0:0:0:0:
375,88,5892,102,0,P|353:89|275:79,1,96.8,2|0,0:0|0:0,0:0:0:0:
210,24,6761,1,2,0:0:0:0:
210,24,7848,2,0,P|188:23|128:32,1,80.6666666666667,2|0,0:0|0:0,0:0:0:0:
65,70,8501,6,0,L|70:104,1,32.2666666666667,2|0,0:0|0:0,0:0:0:0:
131,141,8827,2,0,L|126:175,1,32.2666666666667,2|0,0:0|0:0,0:0:0:0:
126,172,9805,102,0,L|163:178,1,32.2666666666667,2|0,0:0|0:0,0:0:0:0:
231,177,10131,2,0,L|225:214,1,32.2666666666667
226,282,10457,2,0,L|189:276,1,32.2666666666667,2|0,0:0|0:0,0:0:0:0:
120,310,10783,1,0,0:0:0:0:
124,303,10946,2,0,L|121:286,2,16.1333333333333
76,364,11109,6,0,P|116:336|241:331,1,177.466666666667,2|0,0:0|0:0,0:0:0:0:
305,373,12414,1,2,0:0:0:0:
305,373,13066,2,0,P|350:363|388:355,1,80.6666666666667,2|0,0:0|0:0,0:0:0:0:
459,375,13718,102,0,P|478:358|495:325,1,48.4,2|0,0:0|0:0,0:0:0:0:
468,266,14207,1,2,0:0:0:0:
468,266,15022,6,0,P|441:263|422:260,1,32.2666666666667,2|0,0:0|0:0,0:0:0:0:
361,272,15348,2,0,P|364:245|367:226,1,32.2666666666667
355,165,15674,2,0,P|382:168|401:171,1,32.2666666666667,2|0,0:0|0:0,0:0:0:0:
462,159,16001,2,0,P|459:186|456:205,1,32.2666666666667
435,262,16327,102,0,P|384:258|273:328,1,177.466666666667,2|0,0:0|0:0,0:0:0:0:
220,374,17631,2,0,P|187:361|154:308,1,96.8,2|0,0:0|0:0,0:0:0:0:
154,311,18935,6,0,P|161:272|172:212,1,96.8,2|0,0:0|0:0,0:0:0:0:
154,311,20240,2,0,P|159:279|168:231,1,80.6666666666667,2|0,0:0|0:0,0:0:0:0:
100,199,20892,2,0,P|105:167|114:119,1,80.6666666666667,2|0,0:0|0:0,0:0:0:0:
33,45,21544,6,0,B|54:68|65:85|65:85|121:101|166:40,1,157.299992799378,2|2,0:1|0:0,0:0:0:0:
158,49,22088,1,4,0:3:0:0:
235,104,22196,2,0,P|278:94|327:84,1,64.5333333333333,8|0,0:1|0:0,0:0:0:0:
235,134,22522,2,0,P|210:127|190:123,2,44.3666680206299,2|0|4,0:0|0:0|0:3,0:0:0:0:
322,174,22848,6,0,P|308:215|302:248,1,64.5333333333333,2|4,0:0|0:3,0:0:0:0:
304,258,23174,1,2,0:0:0:0:
438,376,23392,1,4,0:3:0:0:
492,315,23501,2,0,B|470:291|444:283|413:291|413:291|386:321|315:335,1,157.299992799378,8|2,0:1|0:0,0:0:0:0:
190,306,23990,2,0,P|176:319|194:312,1,52.4333309331259
205,302,24153,102,0,B|147:306|147:306|88:371|88:371|9:377,1,205.700003923416,2|2,0:1|0:0,0:0:0:0:
28,375,24696,1,4,0:3:0:0:
14,297,24805,2,0,P|21:261|36:189,1,96.8,8|2,0:1|0:0,0:0:0:0:
100,25,25457,6,0,P|104:58|109:101,1,64.5333333333333,2|4,0:0|0:3,0:0:0:0:
98,111,25783,1,2,0:0:0:0:
211,204,26001,1,4,0:3:0:0:
126,193,26109,2,0,B|171:190|171:190|220:135|220:135|268:128,1,157.299992799378,8|2,0:1|0:0,0:0:0:0:
491,61,26761,102,0,B|485:32|458:27|458:27|417:45|405:87|433:126,1,157.299992799378,2|2,0:1|0:0,0:0:0:0:
426,115,27305,1,4,0:3:0:0:
359,169,27414,2,0,P|368:198|379:240,1,64.5333333333333,8|0,0:1|0:0,0:0:0:0:
335,164,27740,2,0,P|341:128|342:109,2,44.3666680206299,2|0|4,0:0|0:0|0:3,0:0:0:0:
284,236,28066,6,0,P|256:227|216:218,1,64.5333333333333,2|4,0:0|0:3,0:0:0:0:
201,227,28392,1,2,0:0:0:0:
35,250,28609,1,4,0:3:0:0:
90,182,28718,2,0,B|126:206|117:243|117:243|94:343,1,157.299992799378,8|2,0:1|0:0,0:0:0:0:
275,352,29207,2,0,P|289:365|271:358,1,52.4333309331259
260,355,29370,102,0,B|329:344|329:344|365:279|365:279|438:264,1,205.700003923416,2|2,0:1|0:0,0:0:0:0:
425,266,29914,1,4,0:3:0:0:
490,209,30022,2,0,P|501:169|519:107,1,96.8,8|2,0:1|0:0,0:0:0:0:
485,40,30566,6,0,P|454:68|376:71,1,96.8,6|4,0:3|0:3,0:0:0:0:
381,66,31001,1,2,0:0:0:0:
218,10,31218,1,4,0:3:0:0:
311,4,31327,2,0,B|315:43|298:71|267:89|267:89|217:52|131:47|92:109,1,262.16665466563,8|0,0:1|0:0,0:0:0:0:
63,28,31979,102,0,P|26:77|-6:118,1,104.866661866252,8|0,0:1|0:0,0:0:0:0:
122,160,32305,6,0,P|94:214|69:261,1,80.6666666666667,8|0,0:1|0:0,0:0:0:0:
209,225,32631,70,0,P|196:264|185:297,1,56.4666649434408,8|0,0:1|0:0,0:0:0:0:
286,264,32957,6,0,P|282:284|280:301,1,32.2666666666667,8|0,0:1|0:0,0:0:0:0:
360,274,33283,22,0,P|360:278|360:282,1,8.06666666666667,8|0,0:1|0:0,0:0:0:0:
430,330,33609,102,0,P|442:251|456:172,1,129.066666666667,2|0,0:0|0:0,0:0:0:0:
506,93,33935,6,0,P|478:117|428:124,1,52.4333309331259,8|0,0:1|0:0,0:0:0:0:
409,61,34153,1,2,0:0:0:0:
409,61,34261,2,0,P|439:31|495:19,1,80.6666666666667,2|2,0:0|0:0,0:0:0:0:
390,139,34588,102,0,B|328:131|328:131|301:144|301:144|219:136,1,157.299992799378,2|2,0:1|0:0,0:0:0:0:
236,137,35131,1,4,0:3:0:0:
170,92,35240,2,0,P|156:143|141:193,1,96.8,8|2,0:1|0:0,0:0:0:0:
44,310,35783,1,4,0:3:0:0:
44,310,35892,6,0,P|66:292|111:283,1,64.5333333333333,2|4,0:0|0:3,0:0:0:0:
135,356,36218,2,0,P|113:374|68:383,1,64.5333333333333,2|4,0:0|0:3,0:0:0:0:
157,360,36544,2,0,B|204:357|204:357|246:311|246:311|314:305,1,157.299992799378,8|2,0:1|0:0,0:0:0:0:
500,179,37196,102,0,B|486:208|475:234|475:234|394:269|349:198,1,205.700003923416,2|2,0:1|0:0,0:0:0:0:
349,198,37740,1,4,0:3:0:0:
401,132,37848,2,0,P|414:88|431:38,1,96.8,8|2,0:1|0:0,0:0:0:0:
273,182,38392,1,4,0:3:0:0:
273,182,38501,6,0,P|231:167|183:160,1,64.5333333333333,2|4,0:0|0:3,0:0:0:0:
189,165,38827,1,2,0:0:0:0:
10,214,39044,1,4,0:3:0:0:
42,136,39153,2,0,B|68:113|99:121|99:121|132:165|86:217,1,157.299992799378,8|2,0:1|0:0,0:0:0:0:
52,364,39642,2,0,P|35:372|49:359,1,52.4333309331259
58,359,39805,102,0,P|119:348|133:346,1,64.5333333333333,2|0,0:0|0:0,0:0:0:0:
198,371,40131,2,0,L|202:348,1,16.1333333333333,2|0,0:0|0:0,0:0:0:0:
321,300,40457,5,2,0:0:0:0:
325,293,40566,2,0,L|321:270,2,16.1333333333333,2|0|0,0:0|0:0|0:0,0:0:0:0:
415,260,40783,102,0,L|337:244,1,80.6666666666667,2|2,0:0|0:0,0:0:0:0:
244,204,41109,6,0,L|335:146,1,88.7333360412598,2|2,0:0|0:0,0:0:0:0:
408,134,41435,102,0,L|364:78,1,56.4666649434408,2|0,0:0|0:0,0:0:0:0:
302,65,41653,6,0,L|324:-6,1,68.5666679744721,2|0,0:0|0:0,0:0:0:0:
322,0,42414,69,6,0:0:0:0:
322,0,42522,2,0,P|274:5|268:6,1,36.299998892212,2|2,0:0|0:0,0:0:0:0:
272,21,42740,1,2,0:0:0:0:
272,21,42848,2,0,P|224:26|218:27,1,36.299998892212,2|2,0:0|0:0,0:0:0:0:
165,0,43066,6,0,P|159:46|152:98,1,72.5999977844239,6|2,0:3|0:0,0:0:0:0:
83,89,43392,2,0,P|77:135|70:187,1,72.5999977844239,2|0,0:0|0:0,0:0:0:0:
95,267,43718,102,0,P|71:284|91:256,1,88.7333360412598,6|0,0:3|0:0,0:0:0:0:
145,207,44044,2,0,B|176:196|204:219|204:219|205:253|226:278,1,121.000004615784,2|0,0:0|0:0,0:0:0:0:
276,332,44370,2,0,P|321:327|360:288,1,72.5999977844239,6|0,0:3|0:0,0:0:0:0:
268,357,44696,2,0,P|248:349|218:346,2,36.299998892212,10|0|0,0:3|0:0|0:0,0:0:0:0:
412,361,45022,5,4,0:3:0:0:
412,361,45348,2,0,P|426:299|433:263,1,72.5999977844239,2|0,0:0|0:0,0:0:0:0:
358,241,45674,2,0,P|344:303|337:339,1,72.5999977844239,6|0,0:3|0:0,0:0:0:0:
221,242,46001,102,0,P|207:180|200:144,1,72.5999977844239,2|0,0:0|0:0,0:0:0:0:
275,122,46327,2,0,P|289:184|296:220,1,72.5999977844239,6|0,0:3|0:0,0:0:0:0:
434,172,46653,6,0,P|448:110|455:74,1,72.5999977844239,2|0,0:0|0:0,0:0:0:0:
380,52,46979,2,0,P|366:114|359:150,1,72.5999977844239,6|0,0:3|0:0,0:0:0:0:
357,42,47305,2,0,P|353:9|352:-11,2,36.299998892212,2|0|0,0:0|0:0|0:0,0:0:0:0:
263,104,47631,101,6,0:3:0:0:
263,104,47740,2,0,L|204:96,1,36.299998892212,2|2,0:0|0:0,0:0:0:0:
219,86,47957,1,2,0:0:0:0:
219,86,48066,2,0,L|160:78,1,36.299998892212,2|2,0:0|0:0,0:0:0:0:
108,65,48283,6,0,P|114:123|117:160,1,72.5999977844239,6|2,0:3|0:0,0:0:0:0:
49,171,48609,2,0,P|55:229|58:266,1,72.5999977844239,2|2,0:0|0:0,0:0:0:0:
147,304,48935,102,0,P|112:312|134:288,1,88.7333360412598,6|0,0:3|0:0,0:0:0:0:
194,243,49261,2,0,B|239:250|239:250|256:272|256:272|331:284,1,121.000004615784,2|0,0:3|0:0,0:0:0:0:
346,344,49588,2,0,P|392:326|437:316,1,72.5999977844239,6|0,0:3|0:0,0:0:0:0:
347,366,49914,2,0,P|322:363|297:359,2,36.299998892212,10|0|0,0:3|0:0|0:0,0:0:0:0:
486,359,50240,5,4,0:3:0:0:
486,359,50566,2,0,P|495:309|502:267,1,72.5999977844239,2|2,0:0|0:0,0:0:0:0:
419,191,50892,2,0,P|425:215|432:242,1,36.299998892212,6|0,0:3|0:0,0:0:0:0:
416,305,51109,1,2,0:0:0:0:
416,305,51218,102,0,B|457:304|459:261|459:261|430:137,1,181.500006923676,2|6,0:0|0:3,0:0:0:0:
413,75,51653,1,0,0:0:0:0:
413,75,51761,1,0,0:0:0:0:
413,75,51870,2,0,P|363:62|321:49,1,88.7333360412598,2|0,0:0|0:0,0:0:0:0:
289,120,52196,2,0,P|239:133|209:140,1,72.5999977844239,4|0,0:3|0:0,0:0:0:0:
151,96,52522,2,0,P|142:73|150:46,2,36.299998892212,2|2|2,0:0|0:0|0:0,0:0:0:0:
184,213,52848,37,6,0:3:0:0:
180,234,52957,1,2,0:0:0:0:
176,255,53066,1,2,0:0:0:0:
172,276,53174,1,2,0:0:0:0:
168,297,53283,1,2,0:0:0:0:
164,318,53392,1,2,0:0:0:0:
174,358,53501,70,0,P|142:317|51:318,1,133.10000406189,6|2,0:3|0:0,0:0:0:0:
31,128,54044,1,4,0:3:0:0:
31,128,54153,2,0,P|22:174|70:223,1,112.933329886882,6|0,0:3|0:0,0:0:0:0:
147,198,54479,2,0,P|157:142|99:82,1,137.133335948944,6|0,0:3|0:0,0:0:0:0:
39,44,54805,1,10,0:0:0:0:
86,314,55131,6,0,P|114:289|193:289,1,88.7333360412598,2|2,0:0|0:0,0:0:0:0:
284,344,55457,6,0,B|349:362|382:283|346:274|377:218|456:220,1,221.83334010315,6|0,0:0|0:0,0:0:0:0:
494,294,56109,6,0,B|434:354|348:289|382:256|312:215|227:267,1,282.333324717204,6|8,0:0|0:0,0:0:0:0:
133,343,56761,102,0,B|158:320|158:320|153:270,1,68.5666679744721,10|0,0:0|0:0,0:0:0:0:
78,259,56979,1,8,0:0:0:0:
78,259,57088,2,0,B|53:282|53:282|58:332,1,68.5666679744721,6|0,0:3|0:0,0:0:0:0:
142,204,57305,1,8,0:0:0:0:
142,204,57414,2,0,P|136:151|134:126,1,60.5000023078919,10|0,0:0|0:0,0:0:0:0:
58,68,57631,1,8,0:3:0:0:
58,68,57740,2,0,P|54:98|39:175,1,104.866661866252,6|0,0:3|0:0,0:0:0:0:
134,128,58066,6,0,P|180:136|253:52,2,157.299992799378,6|2|8,0:0|0:0|0:0,0:0:0:0:
321,14,59044,2,0,P|376:19|411:62,1,104.866661866252,2|0,0:0|1:0,0:0:0:0:
504,31,59370,102,0,P|482:93|470:156,1,104.866661866252,6|0,0:3|1:0,0:0:0:0:
482,161,59696,1,4,0:3:0:0:
504,350,59914,1,2,0:0:0:0:
504,350,60022,2,0,P|495:306|419:283,1,104.866661866252,8|0,0:0|0:0,0:0:0:0:
416,204,60348,2,0,P|373:189|315:244,1,96.7999970458985,2|0,0:0|1:0,0:0:0:0:
235,304,60674,6,0,B|269:309|269:309|295:274,1,60.5000023078919,6|0,0:3|0:0,0:0:0:0:
235,228,60892,2,0,B|166:238|166:238|141:264|141:264|21:285,1,181.500006923676,8|4,0:0|0:3,0:0:0:0:
51,286,61272,1,4,0:3:0:0:
56,301,61327,102,0,B|100:308|110:271|110:271|41:211|74:131,1,205.700003923416,12|6,0:0|0:3,0:0:0:0:
67,149,61870,1,8,0:0:0:0:
149,183,61979,6,0,P|186:184|241:159,1,80.6666666666667,2|8,0:0|0:0,0:0:0:0:
251,279,62305,102,0,P|289:259|328:203,1,104.866661866252,4|0,0:3|0:0,0:0:0:0:
405,306,62631,6,0,P|431:264|438:185,1,129.066666666667,12|4,0:0|0:3,0:0:0:0:
497,70,62957,102,0,P|492:25|491:17,1,48.4,4|0,0:3|0:0,0:0:0:0:
491,21,64588,22,0,P|494:45|504:115,1,80.6666666666667,2|0,0:0|0:0,0:0:0:0:
475,174,65240,1,12,0:3:0:0:
475,174,65892,54,0,B|469:160|443:160|443:160|393:192|416:257,1,137.133335948944,6|0,0:0|0:0,0:0:0:0:
374,333,66218,2,0,B|380:347|406:347|406:347|456:315|433:250,1,137.133335948944,2|0,0:0|0:0,0:0:0:0:
332,220,66544,2,0,P|292:237|252:243,1,68.5666679744721,10|0,0:0|0:0,0:0:0:0:
224,315,66761,1,2,0:0:0:0:
224,315,66870,2,0,P|152:282|72:282,1,137.133335948944,2|0,0:0|0:0,0:0:0:0:
0,365,67196,6,0,P|7:303|13:245,1,104.866661866252,6|0,0:3|0:0,0:0:0:0:
110,251,67522,2,0,P|117:189|123:131,1,104.866661866252,6|0,0:3|0:0,0:0:0:0:
0,122,67848,2,0,B|89:101|41:47|155:32,1,157.299992799378,10|0,0:0|0:0,0:0:0:0:
127,37,68392,1,2,0:0:0:0:
193,105,68501,6,0,B|217:136|256:139|256:139|303:96|372:88,1,137.133335948944,6|0,0:3|0:0,0:0:0:0:
390,53,68827,2,0,B|354:70|343:107|343:107|375:162|369:231,1,137.133335948944,6|0,0:3|0:0,0:0:0:0:
448,188,69153,2,0,P|432:243|425:292,1,68.5666679744721,10|0,0:0|0:0,0:0:0:0:
322,239,69370,1,2,0:0:0:0:
322,239,69479,2,0,P|340:290|353:382,1,137.133335948944,2|0,0:0|1:0,0:0:0:0:
512,332,69805,6,0,P|477:288|399:297,1,104.866661866252,2|0,0:0|1:0,0:0:0:0:
424,302,70131,1,6,0:3:0:0:
109,341,70348,1,0,0:0:0:0:
109,341,70457,2,0,B|90:286|112:211|218:121|311:232|288:281|256:306,1,342.83333987236,10|0,0:0|0:0,0:0:0:0:
194,358,71109,70,0,B|206:323|242:315|242:315|298:363|376:344,2,205.700003923416,6|2|10,0:0|0:0|0:0,0:0:0:0:
194,358,72088,2,0,P|124:336|76:335,1,104.866661866252,2|0,0:0|0:0,0:0:0:0:
5,228,72414,6,0,P|66:235|132:248,1,104.866661866252,6|0,0:3|0:0,0:0:0:0:
120,110,72740,2,0,P|181:117|247:130,1,104.866661866252,6|0,0:3|0:0,0:0:0:0:
267,218,73066,2,0,P|328:225|394:238,1,104.866661866252,10|0,0:0|0:0,0:0:0:0:
390,248,73392,1,2,0:0:0:0:
491,91,73609,1,0,1:0:0:0:
491,91,73718,2,0,P|444:102|415:177,1,104.866661866252,6|0,0:3|0:0,0:0:0:0:
467,214,74044,6,0,B|532:177|384:7|341:109,1,229.899993861008,6|8,0:3|0:0,0:0:0:0:
350,92,74588,1,4,0:3:0:0:
282,140,74696,2,0,P|226:145|183:77,1,121.000004615784,2|0,0:0|1:0,0:0:0:0:
46,90,75022,6,0,B|72:61|72:61|133:81,1,76.6333312870026,12|0,0:0|0:0,0:0:0:0:
154,6,75240,2,0,B|172:25|162:52|162:52|113:166|113:166|100:200|125:231,1,229.899993861008,8|4,0:0|0:3,0:0:0:0:
126,233,75620,1,4,0:3:0:0:
143,227,75674,2,0,P|104:182|9:212,1,153.266662574005,12|8,0:0|0:0,0:0:0:0:
1,279,76001,2,0,P|40:324|135:294,1,153.266662574005,4|8,0:3|0:3,0:0:0:0:
222,203,76327,70,0,B|196:201|188:228|188:228|198:287|266:283,1,137.133335948944,6|0,0:0|0:0,0:0:0:0:
304,199,76653,2,0,B|318:177|299:157|299:157|243:136|212:197,1,137.133335948944,2|0,0:0|0:0,0:0:0:0:
266,272,76979,2,0,B|277:295|304:288|304:288|350:250|313:193,1,137.133335948944,10|0,0:0|0:0,0:0:0:0:
275,122,77305,2,0,P|270:75|264:37,1,80.6666666666667,2|0,0:0|0:0,0:0:0:0:
331,4,77631,6,0,P|391:12|427:15,1,78.6499963996889,6|0,0:3|0:0,0:0:0:0:
512,127,77957,2,0,P|452:119|416:116,1,78.6499963996889,6|0,0:3|0:0,0:0:0:0:
468,295,78283,2,0,P|476:235|479:199,1,78.6499963996889,10|0,0:0|0:0,0:0:0:0:
331,127,78609,2,0,P|323:187|320:223,1,80.6666666666667,2|0,0:0|0:0,0:0:0:0:
332,331,78935,6,0,P|328:278|210:244,2,157.299992799378,6|6|10,0:3|0:3|0:0,0:0:0:0:
332,331,79914,2,0,P|281:336|233:354,1,80.6666666666667,2|0,0:0|1:0,0:0:0:0:
174,382,80240,6,0,P|145:373|106:368,1,52.4333309331259,2|0,0:0|0:0,0:0:0:0:
39,379,80457,1,0,1:0:0:0:
39,379,80566,2,0,P|22:329|55:259,1,121,6|8,0:3|0:0,0:0:0:0:
45,267,81218,2,0,P|75:232|75:187,1,80.6666666666667,2|0,0:0|0:0,0:0:0:0:
12,69,81544,70,0,P|47:113|129:108,1,104.866661866252,6|0,0:0|0:0,0:0:0:0:
167,88,81870,2,0,P|138:52|97:42,1,78.6499963996889,2|2,0:0|0:0,0:0:0:0:
163,209,82196,2,0,P|204:159|283:160,1,121,10|0,0:0|0:0,0:0:0:0:
434,41,82740,1,0,1:0:0:0:
434,41,82848,6,0,P|403:60|394:143,1,104.866661866252,4|0,0:3|0:0,0:0:0:0:
420,199,83174,2,0,P|451:180|460:97,1,104.866661866252,4|0,0:3|0:0,0:0:0:0:
349,4,83501,2,0,P|304:13|200:30,1,121,8|2,0:0|0:0,0:0:0:0:
229,25,84153,6,0,P|266:62|260:143,1,104.866661866252,6|0,0:3|0:0,0:0:0:0:
159,171,84479,2,0,P|124:158|86:151,1,52.4333309331259,2|0,0:0|0:0,0:0:0:0:
93,71,84696,1,4,0:3:0:0:
93,71,84805,2,0,P|158:85|214:108,1,104.866661866252,10|0,0:0|1:0,0:0:0:0:
243,199,85131,2,0,P|308:185|364:162,1,104.866661866252,2|0,0:0|1:0,0:0:0:0:
373,56,85457,2,0,P|438:70|494:93,1,104.866661866252,2|0,0:0|0:0,0:0:0:0:
512,216,85783,6,0,B|511:192|476:175|476:175|397:206|397:292|397:292|407:313|415:337,1,229.899993861008,6|8,0:0|0:0,0:0:0:0:
405,311,86327,1,8,0:0:0:0:
350,373,86435,2,0,P|298:365|273:332,1,80.6666666666667,6|0,0:3|0:0,0:0:0:0:
199,243,86761,70,0,B|229:273|192:361|117:335|97:289|97:289|77:236|28:207|-13:234|-30:278|37:283|49:276,1,363,14|4,0:0|0:3,0:0:0:0:
336,182,88066,2,0,B|303:202|338:267|391:250|403:214|403:214|417:176|452:155|482:174|494:206|446:209|437:204,1,262.16665466563,12|4,0:0|0:3,0:0:0:0:
279,121,88718,6,0,P|287:64|306:15,1,104.866661866252,6|4,0:3|0:3,0:0:0:0:
210,53,89044,2,0,P|203:28|196:7,1,48.4,6|14,0:3|0:0,0:0:0:0:
256,192,89479,12,0,91979,0:0:0:0:
34,328,110240,102,0,B|57:359|97:345|97:345|188:307,2,157.299992799378,4|2|10,0:0|0:0|0:0,0:0:0:0:
191,291,111218,2,0,P|217:297|249:308,2,40.3333333333333,2|0|0,0:0|0:0|1:0,0:0:0:0:
130,238,111544,2,0,P|143:185|154:144,1,80.6666666666667,2|0,0:0|1:0,0:0:0:0:
145,134,111870,1,6,0:3:0:0:
379,47,112196,2,0,P|348:10|269:9,1,121,10|2,0:0|0:0,0:0:0:0:
21,80,112848,6,0,P|81:90|174:118,2,121,6|4|8,0:3|0:3|0:0,0:0:0:0:
21,80,113827,2,0,P|31:115|34:169,1,80.6666666666667,2|0,0:0|1:0,0:0:0:0:
14,253,114153,102,0,P|45:236|117:243,1,80.6666666666667,2|0,0:0|1:0,0:0:0:0:
108,252,114479,1,6,0:3:0:0:
254,342,114805,2,0,P|289:306|300:282,1,40.3333333333333,10|0,0:0|0:0,0:0:0:0:
217,274,115022,2,0,P|271:286|374:316,1,161.333333333333,2|4,0:0|0:3,0:0:0:0:
510,136,115783,5,0,0:0:0:0:
385,221,116001,1,4,0:3:0:0:
385,221,116109,2,0,P|341:218|306:175,1,80.6666666666667,10|0,0:0|0:0,0:0:0:0:
396,238,116435,2,0,P|421:245|449:258,2,40.3333333333333,2|0|0,0:0|0:0|1:0,0:0:0:0:
306,180,116761,102,0,P|310:123|338:71,1,80.6666666666667,2|0,0:0|1:0,0:0:0:0:
340,83,117088,1,6,0:3:0:0:
109,11,117414,2,0,P|161:25|186:105,1,121,10|2,0:0|0:0,0:0:0:0:
55,246,118066,6,0,P|46:184|23:113,2,121,6|4|8,0:3|0:3|0:0,0:0:0:0:
55,246,119044,2,0,P|101:247|129:268,1,60.5,0|2,0:0|0:0,0:0:0:0:
127,275,119289,1,2,0:0:0:0:
127,275,119370,102,0,P|212:260|243:260,1,80.6666666666667,2|0,0:0|1:0,0:0:0:0:
268,193,119696,2,0,P|228:183|188:178,1,80.6666666666667,6|0,0:3|0:0,0:0:0:0:
107,155,120022,2,0,P|95:116|85:86,1,40.3333333333333,10|0,0:0|0:0,0:0:0:0:
168,78,120240,1,0,0:0:0:0:
168,78,120348,2,0,P|173:31|189:-20,1,80.6666666666667,2|0,0:0|0:0,0:0:0:0:
259,11,120674,5,4,0:3:0:0:
256,192,120783,12,0,122631,0:0:0:0:
499,19,123283,102,0,P|468:59|455:141,2,121,6|4|8,0:0|0:3|0:0,0:0:0:0:
499,19,124261,2,0,P|456:34|410:37,1,80.6666666666667,2|0,0:0|1:0,0:0:0:0:
309,10,124588,6,0,P|341:44|340:105,1,80.6666666666667,2|0,0:0|1:0,0:0:0:0:
334,102,124914,1,6,0:3:0:0:
458,259,125240,2,0,P|421:195|344:190,1,121,8|0,0:0|0:0,0:0:0:0:
246,361,125892,102,0,P|297:358|375:352,1,121,6|0,0:3|0:0,0:0:0:0:
366,352,126435,1,4,0:3:0:0:
337,280,126544,2,0,P|350:228|364:172,1,80.6666666666667,10|0,0:0|0:0,0:0:0:0:
292,151,126870,2,0,P|279:203|265:259,1,80.6666666666667,2|0,0:0|1:0,0:0:0:0:
246,361,127196,6,0,P|220:319|170:304,1,80.6666666666667,2|0,0:0|1:0,0:0:0:0:
166,314,127522,1,6,0:3:0:0:
51,150,127848,2,0,P|34:158|18:197,1,40.3333333333333,10|0,0:0|0:0,0:0:0:0:
86,220,128066,2,0,P|97:145|113:77,1,121,2|0,0:0|0:0,0:0:0:0:
129,1,128501,102,0,P|165:5|182:50,1,84.6999974151612,4|0,0:0|0:0,0:0:0:0:
182,45,129479,5,2,0:0:0:0:
182,45,129588,2,0,P|223:57|232:59,1,28.2333324717204,2|2,0:0|0:0,0:0:0:0:
286,100,129805,101,2,0:0:0:0:
286,100,129914,2,0,P|251:125|243:130,1,28.2333324717204,2|2,0:0|0:0,0:0:0:0:
187,132,130131,6,0,P|197:173|199:182,1,28.2333324717204,2|2,0:0|0:0,0:0:0:0:
261,206,130348,101,2,0:0:0:0:
242,211,130457,1,2,0:0:0:0:
259,224,130566,5,2,0:0:0:0:
250,231,130674,1,2,0:0:0:0:
256,241,130783,37,2,0:0:0:0:
494,368,131109,21,6,0:0:0:0:
497,357,131218,1,2,0:0:0:0:
486,343,131327,1,2,0:0:0:0:
489,332,131436,1,2,0:0:0:0:
478,318,131544,1,2,0:0:0:0:
481,307,131653,1,2,0:0:0:0:
503,268,131761,6,0,P|457:283|407:288,1,80.6666666666667,6|2,0:3|0:0,0:0:0:0:
392,358,132088,2,0,P|352:364|314:377,1,80.6666666666667,2|0,0:0|0:0,0:0:0:0:
197,384,132414,102,0,P|178:379|144:341,1,44.3666680206299,6|0,0:3|0:0,0:0:0:0:
93,321,132631,1,0,0:0:0:0:
93,321,132740,2,0,B|125:342|162:324|162:324|247:267,1,121.000004615784,2|0,0:0|0:0,0:0:0:0:
263,248,133066,2,0,P|275:190|286:149,1,80.6666666666667,6|0,0:3|0:0,0:0:0:0:
281,258,133392,2,0,P|288:284|295:308,2,40.3333333333333,10|0|0,0:3|0:0|0:0,0:0:0:0:
204,150,133718,5,4,0:3:0:0:
204,150,134044,2,0,P|198:98|192:57,1,80.6666666666667,2|0,0:0|0:0,0:0:0:0:
271,49,134370,2,0,P|277:101|283:142,1,80.6666666666667,6|0,0:3|0:0,0:0:0:0:
185,243,134696,102,0,P|191:191|197:150,1,80.6666666666667,2|0,0:0|0:0,0:0:0:0:
118,142,135022,2,0,P|112:194|106:235,1,80.6666666666667,6|0,0:3|0:0,0:0:0:0:
204,339,135348,6,0,P|198:287|192:246,1,80.6666666666667,2|0,0:0|0:0,0:0:0:0:
271,238,135674,2,0,P|277:290|283:331,1,80.6666666666667,6|0,0:3|0:0,0:0:0:0:
288,227,136001,2,0,P|297:184|301:169,2,40.3333333333333,2|0|0,0:0|0:0|0:0,0:0:0:0:
204,339,136327,101,6,0:3:0:0:
193,343,136436,1,2,0:0:0:0:
179,331,136545,1,2,0:0:0:0:
168,334,136654,1,2,0:0:0:0:
154,323,136762,1,2,0:0:0:0:
143,326,136871,1,2,0:0:0:0:
104,348,136979,6,0,P|119:302|124:252,1,80.6666666666667,6|2,0:3|0:0,0:0:0:0:
60,230,137305,2,0,P|45:184|40:134,1,80.6666666666667,2|2,0:0|0:0,0:0:0:0:
107,47,137631,102,0,P|144:51|172:72,1,48.3999985229493,6|0,0:3|0:0,0:0:0:0:
118,127,137848,1,0,0:0:0:0:
118,127,137957,2,0,B|162:96|162:96|258:126,1,121.000004615784,2|0,0:3|0:0,0:0:0:0:
291,160,138283,2,0,P|305:103|320:55,1,80.6666666666667,6|0,0:3|0:0,0:0:0:0:
309,174,138609,2,0,P|316:215|320:241,2,40.3333333333333,10|0|0,0:3|0:0|0:0,0:0:0:0:
416,91,138935,6,0,B|383:98|384:138|384:138|403:237,1,145.199995568848,4|2,0:3|0:0,0:0:0:0:
507,384,139479,1,2,0:0:0:0:
507,384,139588,2,0,P|512:341|520:314,1,40.3333333333333,6|0,0:3|0:0,0:0:0:0:
503,268,139805,1,2,0:0:0:0:
503,268,139914,102,0,B|457:283|457:283|435:312|435:312|364:335,1,129.066666666667
316,347,140240,1,6,0:3:0:0:
316,347,140348,1,0,0:0:0:0:
316,347,140457,1,0,0:0:0:0:
316,347,140566,2,0,P|324:281|334:231,1,88.7333360412598,2|0,0:0|0:0,0:0:0:0:
253,230,140892,2,0,P|247:269|242:287,1,36.299998892212,4|0,0:3|0:0,0:0:0:0:
160,335,141109,1,2,0:0:0:0:
160,335,141218,2,0,P|138:331|96:328,2,36.299998892212,2|2|2,0:0|0:0|0:0,0:0:0:0:
171,257,141544,101,6,0:3:0:0:
165,227,141653,1,2,0:0:0:0:
159,197,141762,1,2,0:0:0:0:
153,167,141870,1,2,0:0:0:0:
148,137,141979,1,2,0:0:0:0:
142,107,142088,1,2,0:0:0:0:
112,79,142196,6,0,P|146:101|249:48,1,133.10000406189,6|2,0:3|0:0,0:0:0:0:
435,156,142740,1,4,0:3:0:0:
435,156,142848,6,0,P|473:116|447:38,1,112.933329886882,6|0,0:3|0:0,0:0:0:0:
401,17,143174,2,0,P|349:69|395:172,1,137.133335948944,6|0,0:3|0:0,0:0:0:0:
371,204,143501,1,10,0:0:0:0:
491,373,143827,102,0,P|474:325|411:309,1,88.7333360412598,2|2,0:0|0:0,0:0:0:0:
330,367,144153,102,0,B|261:351|261:351|231:283|231:283|143:262,1,221.83334010315,6|0,0:0|0:0,0:0:0:0:
137,377,144805,22,0,B|229:358|229:358|267:272|267:272|378:245,1,282.333324717204,6|8,0:0|0:0,0:0:0:0:
481,177,145457,86,0,B|502:150|502:150|490:76,1,68.5666679744721,10|0,0:0|0:0,0:0:0:0:
375,82,145674,1,8,0:0:0:0:
375,82,145783,2,0,B|354:109|354:109|366:183,1,68.5666679744721,6|0,0:3|0:0,0:0:0:0:
492,264,146001,1,8,0:0:0:0:
492,264,146109,2,0,P|479:192|473:159,1,60.5000023078919,10|0,0:0|0:0,0:0:0:0:
386,228,146327,1,8,0:3:0:0:
386,228,146435,2,0,P|399:300|405:352,1,104.866661866252,6|0,0:3|0:0,0:0:0:0:
505,383,146761,22,0,P|465:303|291:310,1,254.099992245484,6|8,0:0|0:0,0:0:0:0:
314,290,147740,2,0,P|254:297|178:314,1,104.866661866252,2|0,0:0|1:0,0:0:0:0:
70,375,148066,86,0,P|40:325|73:254,1,104.866661866252,6|0,0:3|1:0,0:0:0:0:
72,263,148392,1,4,0:3:0:0:
198,112,148609,1,2,0:0:0:0:
198,112,148718,2,0,P|180:164|159:243,1,104.866661866252,8|0,0:0|0:0,0:0:0:0:
96,162,149044,2,0,P|114:110|131:38,1,96.7999970458985,2|0,0:0|0:0,0:0:0:0:
289,19,149370,22,0,B|262:34|262:34|263:94,1,60.5000023078919,6|0,0:3|0:0,0:0:0:0:
198,112,149588,2,0,P|284:96|403:86,1,181.500006923676,8|4,0:0|0:3,0:0:0:0:
392,76,149968,1,4,0:3:0:0:
381,65,150022,86,0,B|342:75|335:116|335:116|399:153|403:228,1,205.700003923416,12|6,0:0|0:3,0:0:0:0:
402,223,150566,1,8,0:0:0:0:
321,254,150674,22,0,P|335:194|354:158,1,80.6666666666667,2|8,0:0|0:0,0:0:0:0:
193,196,151001,2,0,P|179:136|160:100,1,80.6666666666667,4|0,0:3|0:0,0:0:0:0:
332,165,151327,86,0,P|355:63|388:1,1,129.066666666667,12|4,0:0|0:3,0:0:0:0:
163,90,151653,2,0,P|156:59|146:41,1,48.4,4|0,0:3|0:0,0:0:0:0:
450,338,153283,102,0,B|491:320|474:342|489:281,1,64.5333333333333,10|0,0:0|0:0,0:0:0:0:
466,216,153501,2,0,B|378:236|417:202|355:312|413:287|259:307,1,193.6,4|4,0:3|0:3,0:0:0:0:
291,290,153881,1,4,0:3:0:0:
304,277,153935,2,0,P|289:336|285:361,2,64.5333333333333,6|4|4,0:3|0:3|0:3,0:0:0:0:
246,205,154261,1,4,0:3:0:0:
246,205,154370,2,0,P|261:146|265:121,1,64.5333333333333,8|4,0:3|0:3,0:0:0:0:
183,20,154588,6,0,B|168:37|169:55|169:55|207:96|258:47,1,137.133335948944,6|0,0:0|0:0,0:0:0:0:
334,70,154914,2,0,B|349:53|348:35|348:35|310:-5|259:43,1,137.133335948944,2|0,0:0|0:0,0:0:0:0:
261,142,155240,2,0,P|276:192|292:260,1,68.5666679744721,10|0,0:0|0:0,0:0:0:0:
365,223,155457,1,2,0:0:0:0:
365,223,155566,2,0,P|338:282|330:394,1,137.133335948944,2|0,0:0|0:0,0:0:0:0:
478,378,155892,6,0,P|457:326|370:318,1,104.866661866252,6|0,0:3|0:0,0:0:0:0:
365,223,156218,2,0,P|309:215|259:286,1,104.866661866252,6|0,0:3|0:0,0:0:0:0:
233,369,156544,2,0,B|146:344|206:300|92:280,1,157.299992799378,10|0,0:0|0:0,0:0:0:0:
53,13,157196,6,0,B|13:22|18:66|18:66|70:173,1,137.133335948944,6|0,0:3|0:0,0:0:0:0:
50,207,157522,2,0,P|82:202|121:156,1,68.5666679744721,6|0,0:3|0:0,0:0:0:0:
124,95,157740,1,2,0:0:0:0:
124,95,157848,2,0,P|187:106|260:144,1,137.133335948944,10|2,0:0|0:0,0:0:0:0:
274,54,158174,2,0,P|337:43|410:5,1,137.133335948944,2|0,0:0|1:0,0:0:0:0:
502,100,158501,86,0,P|456:98|405:170,1,104.866661866252,2|0,0:0|1:0,0:0:0:0:
414,161,158827,1,6,0:3:0:0:
494,339,159044,1,0,0:0:0:0:
494,339,159153,2,0,B|513:284|491:209|385:119|292:230|315:279|347:304,1,342.83333987236,10|0,0:0|0:0,0:0:0:0:
412,363,159805,6,0,B|354:326|354:326|289:373|204:354,2,205.700003923416,6|2|10,0:0|0:0|0:0,0:0:0:0:
412,363,160783,2,0,P|419:279|439:228,1,104.866661866252,2|0,0:0|0:0,0:0:0:0:
496,128,161109,6,0,P|459:169|372:149,1,104.866661866252,6|0,0:3|0:0,0:0:0:0:
349,228,161435,2,0,P|294:216|268:131,1,104.866661866252,6|0,0:3|0:0,0:0:0:0:
188,150,161761,2,0,P|170:97|231:32,1,104.866661866252,10|0,0:0|0:0,0:0:0:0:
214,49,162088,1,2,0:0:0:0:
1,177,162305,1,0,1:0:0:0:
1,177,162414,2,0,P|39:180|96:135,1,104.866661866252,6|0,0:3|0:0,0:0:0:0:
46,81,162740,86,0,B|19:95|20:129|20:129|73:239|73:239|104:264|131:237,1,229.899993861008,6|8,0:3|0:0,0:0:0:0:
118,246,163283,1,4,0:3:0:0:
177,180,163392,2,0,P|217:172|274:233,1,121.000004615784,2|0,0:0|1:0,0:0:0:0:
295,371,163718,6,0,B|277:338|277:338|307:285,1,76.6333312870026,12|0,0:0|0:0,0:0:0:0:
384,232,163935,2,0,B|376:257|348:261|348:261|224:276|224:276|188:282|174:319,1,229.899993861008,8|4,0:0|0:3,0:0:0:0:
187,320,164316,1,4,0:3:0:0:
199,329,164370,6,0,P|214:272|137:226,1,153.266662574005,12|8,0:0|0:0,0:0:0:0:
75,262,164696,2,0,P|60:319|137:365,1,153.266662574005,4|8,0:3|0:3,0:0:0:0:
283,348,165022,86,0,B|342:337|342:337|395:326|388:267,1,137.133335948944,6|0,0:0|0:0,0:0:0:0:
351,177,165348,2,0,B|331:233|331:233|314:284|368:308,1,137.133335948944,2|0,0:0|0:0,0:0:0:0:
465,321,165674,2,0,B|425:275|425:275|389:235|342:270,1,137.133335948944,10|0,0:0|0:0,0:0:0:0:
283,348,166001,2,0,P|232:321|182:315,1,80.6666666666667,2|0,0:0|0:0,0:0:0:0:
120,383,166327,6,0,P|113:316|112:271,1,78.6499963996889,6|0,0:3|0:0,0:0:0:0:
0,156,166653,2,0,P|7:223|8:268,1,78.6499963996889,6|0,0:3|0:0,0:0:0:0:
183,202,166979,2,0,P|143:204|104:209,1,78.6499963996889,10|0,0:0|0:0,0:0:0:0:
0,55,167305,2,0,P|47:51|93:45,1,80.6666666666667,2|0,0:0|0:0,0:0:0:0:
172,14,167631,6,0,P|111:41|107:155,2,157.299992799378,6|6|10,0:3|0:3|0:0,0:0:0:0:
172,14,168609,2,0,P|225:39|252:35,1,80.6666666666667,2|0,0:0|1:0,0:0:0:0:
328,86,168935,86,0,P|375:66|415:62,1,52.4333309331259,2|0,0:0|0:0,0:0:0:0:
457,33,169153,1,0,1:0:0:0:
457,33,169261,2,0,P|445:114|437:185,1,121,6|8,0:3|0:0,0:0:0:0:
440,152,169914,2,0,P|449:220|453:271,1,80.6666666666667,2|0,0:0|0:0,0:0:0:0:
491,370,170240,6,0,P|456:322|377:320,1,104.866661866252,6|0,0:0|0:0,0:0:0:0:
337,330,170566,2,0,P|347:359|415:383,1,78.6499963996889,2|2,0:0|0:0,0:0:0:0:
364,195,170892,2,0,P|336:241|257:238,1,121,10|0,0:0|0:0,0:0:0:0:
42,235,171435,1,0,1:0:0:0:
42,235,171544,6,0,P|28:277|61:335,1,104.866661866252,4|0,0:3|0:0,0:0:0:0:
126,372,171870,2,0,P|140:330|112:272,1,104.866661866252,4|0,0:3|0:0,0:0:0:0:
56,147,172196,2,0,P|111:169|195:189,1,121,8|2,0:0|0:0,0:0:0:0:
170,184,172848,86,0,P|168:135|223:81,1,104.866661866252,6|0,0:3|0:0,0:0:0:0:
270,23,173174,2,0,P|314:37|350:53,1,52.4333309331259,2|0,0:0|0:0,0:0:0:0:
391,94,173392,1,4,0:3:0:0:
391,94,173501,2,0,P|335:91|284:164,1,104.866661866252,10|0,0:0|1:0,0:0:0:0:
260,194,173827,2,0,P|309:219|317:308,1,104.866661866252,2|0,0:0|1:0,0:0:0:0:
418,282,174153,2,0,P|387:328|425:409,1,104.866661866252,2|0,0:0|0:0,0:0:0:0:
472,346,174479,6,0,B|433:314|389:317|389:317|333:371|246:355,1,229.899993861008,6|8,0:0|0:0,0:0:0:0:
260,357,175022,1,8,0:0:0:0:
183,333,175131,2,0,P|166:302|185:247,1,80.6666666666667,6|0,0:3|0:0,0:0:0:0:
291,222,175457,6,0,B|262:257|212:262|212:262|183:183|66:170|66:170|46:215|-1:228,1,363,14|4,0:0|0:3,0:0:0:0:
240,113,176761,2,0,B|263:141|303:145|303:145|326:81|420:71|420:71|436:107|473:117,1,262.16665466563,12|4,0:0|0:3,0:0:0:0:
405,175,177414,86,0,P|389:222|377:286,1,104.866661866252,6|4,0:3|0:3,0:0:0:0:
297,285,177740,2,0,P|306:319|309:330,1,32.2666666666667,6|0,0:3|0:0,0:0:0:0:
196,368,178066,6,0,P|166:360|86:356,1,90.7500034618379,4|0,0:0|0:0,0:0:0:0:
0,211,178392,2,0,P|30:219|110:223,1,72.5999977844239,2|0,0:0|0:0,0:0:0:0:
236,173,178718,2,0,B|195:156|171:191|171:191|139:293,1,145.199995568848,10|0,0:0|0:0,0:0:0:0:
150,259,179370,6,0,P|145:197|129:156,1,72.5999977844239,4|0,0:3|0:0,0:0:0:0:
313,173,179696,2,0,P|323:115|373:19,1,145.199995568848,6|10,0:3|0:0,0:0:0:0:
359,37,180348,2,0,P|399:58|484:64,1,72.5999977844239,2|2,0:0|0:0,0:0:0:0:
504,191,180674,86,0,P|497:229|486:290,1,72.5999977844239,4|0,0:3|0:0,0:0:0:0:
366,358,181001,2,0,P|373:320|384:259,1,72.5999977844239,6|0,0:3|0:0,0:0:0:0:
426,146,181327,2,0,B|410:188|379:201|379:201|306:196|277:216,1,145.199995568848,10|2,0:0|0:0,0:0:0:0:
217,346,181870,1,0,1:0:0:0:
217,346,181979,6,0,P|239:345|282:273,1,96.7999970458985,2|0,0:0|1:0,0:0:0:0:
225,235,182305,2,0,P|148:214|69:203,1,145.199995568848,6|10,0:3|0:0,0:0:0:0:
83,204,182957,2,0,P|94:134|93:105,1,72.5999977844239,2|0,0:0|0:0,0:0:0:0:
40,50,183283,6,0,P|113:39|155:32,1,72.5999977844239,6|0,0:0|0:0,0:0:0:0:
252,113,183609,2,0,P|179:124|137:131,1,78.6499963996889,2|0,0:0|0:0,0:0:0:0:
0,216,183935,2,0,P|73:205|115:198,1,84.6999974151612,10|0,0:0|0:0,0:0:0:0:
298,242,184261,2,0,P|225:253|183:260,1,90.7500034618379,2|0,0:0|0:0,0:0:0:0:
41,303,184588,86,0,B|157:286|102:385|248:353,2,193.6,6|6|10,0:3|0:3|0:0,0:0:0:0:
41,303,185566,2,0,P|11:247|36:193,1,96.7999970458985,2|2,0:0|1:2,0:0:0:0:
82,151,185892,6,0,P|172:141|242:134,1,112.933329886882,6|0,0:3|0:0,0:0:0:0:
136,62,186218,2,0,P|226:52|296:45,1,112.933329886882,4|0,0:3|0:0,0:0:0:0:
369,19,186544,2,0,B|352:0|352:0|293:0,1,56.4666649434408,8|0,0:0|0:0,0:0:0:0:
319,89,186761,2,0,P|378:57|521:58,1,169.399994830322,4|2,0:3|1:3,0:0:0:0:
499,193,187196,6,0,B|513:166|513:166|491:113,1,68.5666679744721,14|0,0:0|0:0,0:0:0:0:
418,175,187414,2,0,B|411:199|381:201|381:201|257:173|257:173|223:169|211:219,1,229.899993861008,10|4,0:0|0:3,0:0:0:0:
232,218,187794,1,4,0:3:0:0:
251,210,187848,86,0,P|261:149|195:95,1,145.199995568848,14|8,0:0|0:0,0:0:0:0:
119,134,188174,2,0,P|109:195|175:249,1,137.133335948944,6|4,0:3|0:3,0:0:0:0:
233,346,188501,6,0,P|179:284|105:293,1,121.000004615784,6|0,0:0|0:0,0:0:0:0:
66,302,188827,2,0,P|95:348|144:358,1,90.7500034618379,2|2,0:0|0:0,0:0:0:0:
311,375,189153,2,0,P|350:327|444:321,1,145.199995568848,10|0,0:0|0:0,0:0:0:0:
429,315,189805,6,0,P|443:256|461:224,1,72.5999977844239,4|0,0:3|0:0,0:0:0:0:
299,202,190131,2,0,P|291:136|269:52,1,145.199995568848,6|10,0:3|0:0,0:0:0:0:
456,22,190674,1,0,1:0:0:0:
456,22,190783,2,0,P|434:63|426:108,1,72.5999977844239,6|0,0:3|0:0,0:0:0:0:
399,165,191109,86,0,B|437:130|437:130|504:144,1,108.899996676636,6|2,0:0|0:0,0:0:0:0:
271,59,191761,2,0,B|224:102|224:102|141:84,1,133.10000406189,14|2,0:0|0:0,0:0:0:0:
5,12,192305,1,2,1:3:0:0:
5,12,192414,6,0,P|26:62|31:146,1,104.866661866252,14|0,0:0|1:0,0:0:0:0:
156,87,192740,2,0,P|135:137|130:221,1,104.866661866252,12|8,0:3|0:0,0:0:0:0:
47,193,193066,1,8,0:0:0:0:
102,373,193283,1,8,0:3:0:0:
102,373,193392,2,0,P|78:336|96:291,1,72.5999977844239,6|0,0:3|0:0,0:0:0:0:
220,233,193718,70,0,B|245:190|284:194|362:225|342:336|242:354|242:354|203:359|176:390,1,326.699990029908,6|2,0:0|0:0,0:0:0:0:
220,233,195022,86,0,B|209:183|171:173|89:177|67:288|158:340|158:340|192:359|198:388,1,326.700001246262,4|0,0:0|0:0,0:0:0:0:
256,192,196435,12,0,198935,0:0:0:0:
314,360,201544,70,0,P|324:319|338:276,1,72.5999977844239,2|0,0:0|0:0,0:0:0:0:
192,253,202196,2,0,P|183:217|176:195,1,48.3999985229493
167,192,202522,1,0,0:0:0:0:
241,341,202848,1,2,0:0:0:0:
241,341,203174,1,0,0:0:0:0:
290,200,203501,2,0,P|300:159|314:116,1,72.5999977844239
234,24,204153,6,0,P|193:14|150:0,1,72.5999977844239,2|0,0:0|0:0,0:0:0:0:
127,146,204805,2,0,P|91:154|69:162,1,48.3999985229493
66,171,205131,1,0,0:0:0:0:
215,97,205457,1,2,0:0:0:0:
215,97,205783,1,0,0:0:0:0:
74,48,206110,2,0,P|33:38|-10:24,1,72.5999977844239
66,171,206761,101,2,0:0:0:0:
78,250,207088,1,0,0:0:0:0:
157,237,207414,1,0,0:0:0:0:
145,158,207741,1,0,0:0:0:0:
129,311,208066,6,0,P|147:360|153:383,1,72.5999977844239,2|0,0:0|0:0,0:0:0:0:
230,263,208718,2,0,P|240:228|253:194,1,72.5999977844239
317,350,209370,1,2,0:0:0:0:
444,264,209696,2,0,P|441:229|438:200,5,36.2999988922119
369,241,210674,2,0,P|366:206|363:177,3,36.2999988922119,2|0|0|0,0:0|0:0|0:0|0:0,0:0:0:0:
294,218,211327,2,0,P|291:183|288:154,3,36.2999988922119
220,143,211979,101,2,0:0:0:0:
220,143,212305,1,2,0:0:0:0:
360,41,212631,2,0,P|350:80|344:107,1,48.4,2|0,0:0|0:0,0:0:0:0:
211,127,213283,5,2,0:0:0:0:
211,127,213609,1,2,0:0:0:0:
337,228,213935,2,0,P|327:189|321:162,1,48.4,2|0,0:0|0:0,0:0:0:0:
196,110,214588,101,2,0:0:0:0:
196,110,214914,1,2,0:0:0:0:
350,37,215240,2,0,P|340:76|334:103,1,48.4,2|0,0:0|0:0,0:0:0:0:
167,103,215892,6,0,P|128:96|98:93,3,48.4,2|0|0|0,0:0|0:0|0:0|0:0,0:0:0:0:
71,276,217196,102,0,P|66:246|55:214,3,48.4,2|0|0|0,0:0|0:0|0:0|0:0,0:0:0:0:
248,214,218501,2,0,P|248:183|243:150,1,48.4,2|0,0:0|0:0,0:0:0:0:
404,168,219153,2,0,P|413:114|414:54,1,96.8,2|2,0:0|0:0,0:0:0:0:
256,192,219914,12,0,222088,0:0:0:0:
114,70,222414,22,0,B|139:59|162:75|162:75|171:123|129:161,1,137.133335948944,6|0,0:0|0:0,0:0:0:0:
135,243,222740,2,0,B|110:254|87:238|87:238|78:190|120:152,1,137.133335948944,2|0,0:0|0:0,0:0:0:0:
229,164,223066,2,0,P|271:166|335:191,1,68.5666679744721,10|0,0:0|0:0,0:0:0:0:
306,89,223283,1,2,0:0:0:0:
306,89,223392,2,0,P|368:79|443:41,1,137.133335948944,2|0,0:0|0:0,0:0:0:0:
511,140,223718,6,0,P|463:156|446:223,1,104.866661866252,6|0,0:3|0:0,0:0:0:0:
362,226,224044,2,0,P|352:275|401:323,1,104.866661866252,6|0,0:3|0:0,0:0:0:0:
503,375,224370,2,0,P|465:338|350:373,1,157.299992799378,10|0,0:0|0:0,0:0:0:0:
368,350,224914,1,2,0:0:0:0:
290,376,225022,6,0,B|254:376|227:346|227:346|191:343|147:375,1,137.133335948944,6|0,0:3|0:0,0:0:0:0:
82,377,225348,2,0,B|100:345|139:337|139:337|160:307|154:253,1,137.133335948944,6|0,0:3|0:0,0:0:0:0:
240,258,225674,2,0,P|254:192|270:152,1,68.5666679744721,10|0,0:0|0:0,0:0:0:0:
161,187,225892,1,2,0:0:0:0:
161,187,226001,2,0,P|152:101|125:45,1,137.133335948944,2|0,0:0|1:0,0:0:0:0:
237,111,226327,6,0,P|287:105|330:45,1,104.866661866252,2|0,0:0|1:0,0:0:0:0:
327,41,226653,1,6,0:3:0:0:
504,223,226870,1,0,0:0:0:0:
467,149,226979,2,0,B|454:121|413:124|413:124|382:183|416:229|416:229|432:289|402:334|402:334|362:303|325:300,1,342.83333987236,10|0,0:0|0:0,0:0:0:0:
220,179,227631,70,0,P|270:196|336:213,1,104.866661866252,6|0,0:0|0:0,0:0:0:0:
350,305,227957,2,0,P|300:288|234:271,1,104.866661866252,2|0,0:0|0:0,0:0:0:0:
158,307,228283,2,0,P|175:257|192:191,1,104.866661866252,10|0,0:0|0:0,0:0:0:0:
122,145,228609,2,0,P|105:194|91:245,1,104.866661866252,2|0,0:0|0:0,0:0:0:0:
46,120,228935,6,0,P|68:85|147:72,1,104.866661866252,6|0,0:3|0:0,0:0:0:0:
179,2,229261,2,0,P|217:3|270:65,1,104.866661866252,6|0,0:3|0:0,0:0:0:0:
347,58,229588,2,0,P|366:91|340:167,1,104.866661866252,10|0,0:0|0:0,0:0:0:0:
330,165,229914,1,2,0:0:0:0:
480,335,230131,1,0,1:0:0:0:
480,335,230240,2,0,P|419:337|380:278,1,104.866661866252,6|0,0:3|0:0,0:0:0:0:
460,251,230566,6,0,B|465:274|444:290|444:290|319:335|319:335|292:340|270:318,1,229.899993861008,6|8,0:3|0:0,0:0:0:0:
271,319,231109,1,4,0:3:0:0:
189,244,231218,2,0,P|226:300|181:347,1,121.000004615784,2|0,0:0|1:0,0:0:0:0:
62,331,231544,6,0,B|84:300|84:300|152:302,1,76.6333312870026,12|0,0:0|0:0,0:0:0:0:
137,384,231761,2,0,B|112:376|108:348|108:348|93:224|93:224|87:188|50:174,1,229.899993861008,8|4,0:0|0:3,0:0:0:0:
39,172,232142,1,4,0:3:0:0:
36,194,232196,70,0,P|99:186|138:102,1,153.266662574005,12|8,0:0|0:0,0:0:0:0:
62,60,232522,2,0,P|18:78|-7:129,1,76.6333312870026,4|0,0:3|0:0,0:0:0:0:
148,25,232740,1,8,0:3:0:0:
148,25,232848,6,0,B|225:51|225:51|268:65|292:39,1,137.133335948944,6|0,0:0|0:0,0:0:0:0:
357,19,233174,2,0,B|295:72|295:72|262:102|272:136,1,137.133335948944,2|0,0:0|0:0,0:0:0:0:
257,202,233501,2,0,B|241:122|241:122|231:78|197:70,1,137.133335948944,10|0,0:0|0:0,0:0:0:0:
357,123,233827,2,0,P|425:107|456:101,1,80.6666666666667,2|0,0:0|0:0,0:0:0:0:
502,179,234153,6,0,P|488:257|483:290,1,78.6499963996889,6|0,0:3|0:0,0:0:0:0:
335,364,234479,2,0,P|349:286|354:253,1,78.6499963996889,6|0,0:3|0:0,0:0:0:0:
512,359,234805,2,0,P|434:345|401:340,1,78.6499963996889,10|0,0:0|0:0,0:0:0:0:
317,184,235131,2,0,P|395:198|428:203,1,80.6666666666667,2|0,0:0|0:0,0:0:0:0:
348,286,235457,6,0,P|288:284|225:381,2,157.299992799378,6|6|10,0:3|0:3|0:0,0:0:0:0:
348,286,236435,2,0,P|358:229|334:196,1,80.6666666666667,2|0,0:0|1:0,0:0:0:0:
276,139,236761,70,0,P|230:155|200:162,1,52.4333309331259,2|0,0:0|0:0,0:0:0:0:
176,222,236979,1,0,1:0:0:0:
176,222,237088,2,0,P|101:192|46:188,1,121,6|8,0:3|0:0,0:0:0:0:
61,187,237740,2,0,P|79:136|76:74,1,80.6666666666667,2|0,0:0|0:0,0:0:0:0:
230,62,238066,6,0,P|273:103|341:102,1,104.866661866252,6|0,0:0|0:0,0:0:0:0:
393,80,238392,2,0,P|353:34|309:36,1,78.6499963996889,2|2,0:0|0:0,0:0:0:0:
319,214,238718,2,0,P|373:172|441:167,1,121,10|0,0:0|0:0,0:0:0:0:
464,321,239261,1,0,1:0:0:0:
464,321,239370,6,0,P|491:272|470:212,1,104.866661866252,4|0,0:3|0:0,0:0:0:0:
423,164,239696,2,0,P|396:213|417:273,1,104.866661866252,4|0,0:3|0:0,0:0:0:0:
401,377,240022,2,0,P|339:327|269:332,1,121,8|2,0:0|0:0,0:0:0:0:
300,323,240674,6,0,P|228:333|162:350,1,104.866661866252,6|0,0:3|0:0,0:0:0:0:
84,260,241001,2,0,P|121:277|146:301,1,52.4333309331259,2|0,0:0|0:0,0:0:0:0:
212,257,241218,1,4,0:3:0:0:
212,257,241327,2,0,P|243:214|284:182,1,104.866661866252,10|0,0:0|1:0,0:0:0:0:
147,198,241653,2,0,P|133:137|105:91,1,104.866661866252,2|0,0:0|1:0,0:0:0:0:
218,128,241979,2,0,P|241:67|275:12,1,104.866661866252,2|0,0:0|0:0,0:0:0:0:
396,0,242305,70,0,B|438:25|438:25|419:110|419:110|377:120|377:120|386:179,1,229.899993861008,6|8,0:0|0:0,0:0:0:0:
384,170,242848,1,8,0:0:0:0:
467,199,242957,2,0,P|477:246|488:291,1,80.6666666666667,6|0,0:3|0:0,0:0:0:0:
500,381,243283,6,0,B|482:316|482:316|405:302|405:302|363:345|363:345|278:323|278:323|263:242,1,363,14|4,0:0|0:3,0:0:0:0:
0,291,244588,2,0,B|22:207|22:207|121:189|121:189|175:244|175:244|285:216|285:216|304:111,1,471.899978398133,12|6,0:0|0:3,0:0:0:0:
302,123,245892,6,0,P|371:138|417:156,1,90.7500034618379,6|0,0:0|0:0,0:0:0:0:
489,43,246218,2,0,P|420:28|374:10,1,72.5999977844239,2|0,0:0|0:0,0:0:0:0:
232,54,246544,2,0,B|269:96|268:140|268:140|232:179|220:218,1,145.199995568848,10|0,0:0|0:0,0:0:0:0:
237,179,247196,6,0,P|244:242|252:289,1,72.5999977844239,6|0,0:3|0:0,0:0:0:0:
103,142,247522,2,0,P|107:177|111:214,1,72.5999977844239,6|0,0:3|0:0,0:0:0:0:
196,328,247848,2,0,P|246:281|352:297,1,145.199995568848,10|0,0:0|0:0,0:0:0:0:
319,278,248501,70,0,P|387:290|426:300,1,72.5999977844239,6|0,0:3|0:0,0:0:0:0:
509,115,248827,2,0,P|441:103|402:93,1,72.5999977844239,6|0,0:3|0:0,0:0:0:0:
275,161,249153,6,0,P|343:149|382:139,1,72.5999977844239,10|0,0:0|0:0,0:0:0:0:
512,219,249479,2,0,P|476:211|414:202,1,96.7999970458985,2|0,0:0|1:0,0:0:0:0:
390,290,249805,6,0,P|329:296|258:328,1,112.933329886882,2|0,0:0|1:0,0:0:0:0:
219,373,250131,1,6,0:3:0:0:
181,363,250240,1,2,0:0:0:0:
209,337,250348,1,2,0:0:0:0:
202,358,250457,6,0,P|141:336|86:328,1,84.6999974151612,10|0,0:0|0:0,0:0:0:0:
21,162,250783,2,0,P|9:210|53:283,1,96.7999970458985,2|0,0:0|0:0,0:0:0:0:
106,249,251109,70,0,P|179:228|209:224,1,90.7500034618379,6|0,0:0|0:0,0:0:0:0:
307,77,251435,2,0,P|279:132|274:179,1,72.5999977844239,2|0,0:0|0:0,0:0:0:0:
167,18,251761,2,0,B|146:44|138:81|138:81|176:112|197:166,1,145.199995568848,10|0,0:0|0:0,0:0:0:0:
184,139,252414,6,0,P|255:158|295:179,1,72.5999977844239,6|0,0:3|0:0,0:0:0:0:
291,281,252740,2,0,P|362:300|402:321,1,72.5999977844239,6|0,0:3|0:0,0:0:0:0:
458,152,253066,2,0,P|394:146|338:201,1,145.199995568848,10|0,0:0|0:0,0:0:0:0:
497,362,253609,1,0,1:0:0:0:
497,362,253718,6,0,P|420:349|360:349,1,96.7999970458985,6|0,0:3|0:0,0:0:0:0:
340,287,254044,2,0,P|263:300|203:300,1,96.7999970458985,6|0,0:3|0:0,0:0:0:0:
145,374,254370,2,0,B|122:355|122:355|124:305,1,56.4666649434408,10|0,0:0|0:0,0:0:0:0:
230,280,254588,2,0,B|193:313|193:313|23:285,1,169.399994830322,4|8,0:3|0:0,0:0:0:0:
3,195,255022,6,0,B|23:170|23:170|79:181,1,68.5666679744721,14|0,0:0|0:0,0:0:0:0:
132,220,255240,2,0,B|108:213|106:183|106:183|134:59|134:59|138:25|88:13,1,229.899993861008,4|4,0:3|0:3,0:0:0:0:
88,25,255620,1,4,0:3:0:0:
93,44,255674,70,0,P|182:30|268:22,1,161.333333333333,12|8,0:0|0:0,0:0:0:0:
284,35,256001,1,4,0:3:0:0:
495,132,256218,1,4,0:3:0:0:
436,70,256327,6,0,P|416:136|400:194,1,90.7500034618379,6|0,0:0|0:0,0:0:0:0:
480,314,256653,2,0,P|500:248|516:190,1,72.5999977844239,2|0,0:0|0:0,0:0:0:0:
387,251,256979,2,0,B|312:266|347:324|254:329,1,145.199995568848,10|0,0:0|0:0,0:0:0:0:
269,327,257631,6,0,P|199:308|155:309,1,72.5999977844239,6|0,0:3|0:0,0:0:0:0:
314,185,257957,2,0,P|244:166|200:167,1,72.5999977844239,6|0,0:3|0:0,0:0:0:0:
98,259,258283,2,0,P|155:202|141:125,1,145.199995568848,10|0,0:0|0:0,0:0:0:0:
151,142,258935,6,0,P|135:74|125:38,1,72.5999977844239,6|0,0:3|0:0,0:0:0:0:
280,0,259261,2,0,P|296:68|306:104,1,72.5999977844239,4|0,0:3|0:0,0:0:0:0:
381,204,259588,2,0,B|362:165|320:159|320:159|287:174|228:182,1,145.199995568848,10|0,0:0|0:0,0:0:0:0:
69,221,260131,1,0,1:0:0:0:
69,221,260240,70,0,P|116:240|128:303,1,96.7999970458985,2|0,0:0|1:0,0:0:0:0:
220,293,260566,2,0,P|227:343|178:385,1,96.7999970458985,4|0,0:3|0:0,0:0:0:0:
52,365,260892,2,0,P|61:280|75:181,1,145.199995568848,10|0,0:0|0:0,0:0:0:0:
321,348,261544,6,0,P|366:335|438:330,1,90.7500034618379,6|0,0:0|0:0,0:0:0:0:
504,172,261870,2,0,P|459:166|415:153,1,72.5999977844239,2|0,0:0|0:0,0:0:0:0:
279,183,262196,2,0,B|361:191|319:250|447:245,1,145.199995568848,10|0,0:0|0:0,0:0:0:0:
462,37,262740,1,0,1:0:0:0:
462,37,262848,6,0,P|422:30|369:12,1,72.5999977844239,6|0,0:3|0:0,0:0:0:0:
279,183,263174,2,0,P|239:176|186:158,1,72.5999977844239,6|0,0:3|0:0,0:0:0:0:
270,15,263501,2,0,P|312:54|358:200,1,145.199995568848,10|0,0:0|0:0,0:0:0:0:
351,131,264153,6,0,P|323:196|314:236,1,72.5999977844239,6|0,0:0|0:0,0:0:0:0:
266,386,264479,2,0,P|264:347|252:309,1,78.6499963996889,4|0,0:3|0:0,0:0:0:0:
178,122,264805,2,0,P|208:151|242:177,1,84.6999974151612,4|0,0:3|0:0,0:0:0:0:
419,286,265131,2,0,P|374:279|328:278,1,90.7500034618379,4|0,0:3|0:0,0:0:0:0:
117,296,265457,70,0,P|160:274|200:246,1,96.8,4|0,0:3|0:0,0:0:0:0:
233,370,265783,2,0,P|264:321|289:268,1,102.850001961708,6|0,0:3|0:0,0:0:0:0:
370,375,266109,2,0,P|372:317|363:239,1,108.899996676636,6|0,0:3|0:0,0:0:0:0:
491,310,266435,2,0,P|464:258|407:185,1,114.949996930504,6|0,0:3|0:0,0:0:0:0:
353,119,266761,6,0,B|291:110|250:140|289:200|223:227|176:213,1,217.799993353272,2|0,0:0|0:0,0:0:0:0:
175,133,268066,2,0,P|231:150|206:288,1,217.799993353272,2|0,0:0|0:0,0:0:0:0:
123,311,269370,6,0,P|238:327|354:365,1,217.799993353272,2|0,0:0|0:0,0:0:0:0:
426,330,270674,2,0,P|416:287|409:240,1,72.5999977844239,2|0,0:0|0:0,0:0:0:0:
411,258,271638,1,0,0:0:0:0:
478,200,271964,102,0,P|427:223|329:172,1,145.199995568848,2|0,0:0|0:0,0:0:0:0:
346,195,273283,2,0,P|359:130|373:93,1,72.5999977844239,2|0,0:0|0:0,0:0:0:0:
199,116,273972,2,0,P|186:51|172:14,1,72.5999977844239,2|0,0:0|0:0,0:0:0:0:
295,18,274624,5,2,0:0:0:0:
256,192,274732,12,0,276906,0:0:0:0:
