osu file format v14

[General]
AudioFilename: audio.mp3
AudioLeadIn: 0
PreviewTime: 67768
Countdown: 0
SampleSet: Normal
StackLeniency: 0.7
Mode: 1
LetterboxInBreaks: 0
WidescreenStoryboard: 0

[Editor]
DistanceSpacing: 1
BeatDivisor: 4
GridSize: 32
TimelineZoom: 1

[Metadata]
Title:Yume no Mata Yume
TitleUnicode:夢のまた夢
Artist:mafumafu
ArtistUnicode:まふまふ
Creator:newyams99
Version:Oni
Source:
Tags:ニコニコ動画 niconicodouga nnd a dream within a dream utaite
BeatmapID:1078890
BeatmapSetID:507212

[Difficulty]
HPDrainRate:6
CircleSize:5
OverallDifficulty:6
ApproachRate:5
SliderMultiplier:1.4
SliderTickRate:1

[Events]
//Background and Video events
0,0,"Yume No Mata Yume BG.jpg",0,0
//Break Periods
2,146323,158344
//Storyboard Layer 0 (Background)
//Storyboard Layer 1 (Fail)
//Storyboard Layer 2 (Pass)
//Storyboard Layer 3 (Foreground)
//Storyboard Sound Samples

[TimingPoints]
1650,394.736842105263,4,1,0,50,1,0
12505,-100,4,1,0,80,0,0
67965,-100,4,1,0,90,0,1
92044,-100,4,1,0,80,0,0
93228,-100,4,1,0,90,0,1
95597,-100,4,1,0,80,0,0
105860,-100,4,1,0,50,0,0
116715,-100,4,1,0,80,0,0
159544,-133.333333333333,4,1,0,50,0,0
168821,-100,4,1,0,80,0,0
175334,394.736842105263,4,1,0,80,1,8
176123,394.736842105263,4,1,0,80,1,0
176123,-100,4,1,0,90,0,1
200201,-100,4,1,0,80,0,0
221912,-100,4,1,0,70,0,0
222701,-100,4,1,0,65,0,0
223491,-100,4,1,0,60,0,0
224280,-100,4,1,0,55,0,0
225070,-100,4,1,0,50,0,0

[HitObjects]
256,192,1255,5,0,0:0:0:0:
256,192,1452,1,0,0:0:0:0:
256,192,1650,1,2,0:0:0:0:
256,192,2044,1,2,0:0:0:0:
256,192,2242,1,0,0:0:0:0:
256,192,2636,1,0,0:0:0:0:
256,192,2834,1,2,0:0:0:0:
256,192,3031,1,0,0:0:0:0:
256,192,3228,1,2,0:0:0:0:
256,192,3623,1,2,0:0:0:0:
256,192,3821,1,0,0:0:0:0:
256,192,4215,1,0,0:0:0:0:
256,192,4413,1,2,0:0:0:0:
256,192,4610,1,0,0:0:0:0:
256,192,4807,1,2,0:0:0:0:
256,192,5202,1,2,0:0:0:0:
256,192,5399,1,0,0:0:0:0:
256,192,5794,1,0,0:0:0:0:
256,192,5992,1,2,0:0:0:0:
256,192,6189,1,0,0:0:0:0:
256,192,6386,1,2,0:0:0:0:
256,192,6781,1,2,0:0:0:0:
256,192,6978,1,0,0:0:0:0:
256,192,7373,1,2,0:0:0:0:
256,192,7571,1,2,0:0:0:0:
256,192,7768,1,0,0:0:0:0:
256,192,7965,1,2,0:0:0:0:
256,192,8360,1,2,0:0:0:0:
256,192,8557,1,0,0:0:0:0:
256,192,8952,1,0,0:0:0:0:
256,192,9149,1,2,0:0:0:0:
256,192,9347,1,0,0:0:0:0:
256,192,9544,1,2,0:0:0:0:
256,192,9939,1,2,0:0:0:0:
256,192,10136,1,0,0:0:0:0:
256,192,10531,1,0,0:0:0:0:
256,192,10728,1,2,0:0:0:0:
256,192,10926,1,0,0:0:0:0:
256,192,11123,1,2,0:0:0:0:
256,192,11518,1,2,0:0:0:0:
256,192,11715,1,0,0:0:0:0:
256,192,11913,1,2,0:0:0:0:
256,192,12110,1,0,0:0:0:0:
256,192,12307,1,2,0:0:0:0:
256,192,12505,1,4,0:0:0:0:
256,192,12899,1,4,0:0:0:0:
256,192,13097,1,4,0:0:0:0:
256,192,13294,1,4,0:0:0:0:
256,192,13492,1,4,0:0:0:0:
256,192,13886,1,0,0:0:0:0:
256,192,14084,1,0,0:0:0:0:
256,192,14281,1,6,0:0:0:0:
256,192,14676,1,2,0:0:0:0:
256,192,15071,1,0,0:0:0:0:
256,192,15268,1,2,0:0:0:0:
256,192,15367,1,2,0:0:0:0:
256,192,15465,1,0,0:0:0:0:
256,192,15662,1,2,0:0:0:0:
256,192,15860,1,0,0:0:0:0:
256,192,16057,1,2,0:0:0:0:
256,192,16255,1,0,0:0:0:0:
256,192,16452,1,0,0:0:0:0:
256,192,16650,1,2,0:0:0:0:
256,192,17044,1,0,0:0:0:0:
256,192,17242,1,0,0:0:0:0:
256,192,17439,1,2,0:0:0:0:
256,192,17834,1,2,0:0:0:0:
256,192,18228,1,0,0:0:0:0:
256,192,18426,1,2,0:0:0:0:
256,192,18524,1,2,0:0:0:0:
256,192,18623,1,0,0:0:0:0:
256,192,18821,1,2,0:0:0:0:
256,192,19018,1,0,0:0:0:0:
256,192,19413,1,0,0:0:0:0:
256,192,19610,1,0,0:0:0:0:
256,192,19807,1,6,0:0:0:0:
256,192,20202,1,4,0:0:0:0:
256,192,20399,1,0,0:0:0:0:
256,192,20597,1,6,0:0:0:0:
256,192,20992,1,2,0:0:0:0:
256,192,21386,1,0,0:0:0:0:
256,192,21584,1,2,0:0:0:0:
256,192,21682,1,2,0:0:0:0:
256,192,21781,1,0,0:0:0:0:
256,192,21978,1,2,0:0:0:0:
256,192,22176,1,0,0:0:0:0:
256,192,22373,1,2,0:0:0:0:
256,192,22571,1,0,0:0:0:0:
256,192,22768,1,0,0:0:0:0:
256,192,22965,1,2,0:0:0:0:
256,192,23360,1,0,0:0:0:0:
256,192,23557,1,0,0:0:0:0:
256,192,23755,1,2,0:0:0:0:
256,192,24149,1,2,0:0:0:0:
256,192,24544,1,0,0:0:0:0:
256,192,24742,1,2,0:0:0:0:
256,192,24840,1,2,0:0:0:0:
256,192,24939,1,0,0:0:0:0:
256,192,25136,1,0,0:0:0:0:
256,192,25334,1,6,0:0:0:0:
256,192,25728,1,4,0:0:0:0:
256,192,26123,1,6,0:0:0:0:
256,192,26321,1,2,0:0:0:0:
256,192,26518,1,2,0:0:0:0:
256,192,26617,1,2,0:0:0:0:
256,192,26715,1,0,0:0:0:0:
256,192,26913,1,6,0:0:0:0:
256,192,27505,1,0,0:0:0:0:
256,192,27702,1,2,0:0:0:0:
256,192,27998,1,2,0:0:0:0:
256,192,28294,1,0,0:0:0:0:
256,192,28689,1,0,0:0:0:0:
256,192,28886,1,2,0:0:0:0:
256,192,29084,1,0,0:0:0:0:
256,192,29281,1,2,0:0:0:0:
256,192,29478,1,0,0:0:0:0:
256,192,29676,1,2,0:0:0:0:
256,192,29873,1,2,0:0:0:0:
256,192,30071,1,0,0:0:0:0:
256,192,30663,1,2,0:0:0:0:
256,192,30860,1,0,0:0:0:0:
256,192,31156,1,0,0:0:0:0:
256,192,31452,1,2,0:0:0:0:
256,192,31847,1,0,0:0:0:0:
256,192,32044,1,2,0:0:0:0:
256,192,32242,1,0,0:0:0:0:
256,192,32439,1,2,0:0:0:0:
256,192,32834,1,0,0:0:0:0:
256,192,33031,1,0,0:0:0:0:
256,192,33228,1,2,0:0:0:0:
256,192,33821,1,0,0:0:0:0:
256,192,34018,1,2,0:0:0:0:
256,192,34314,1,2,0:0:0:0:
256,192,34610,1,0,0:0:0:0:
256,192,35005,1,0,0:0:0:0:
256,192,35202,1,2,0:0:0:0:
256,192,35399,1,0,0:0:0:0:
256,192,35597,1,2,0:0:0:0:
256,192,35794,1,0,0:0:0:0:
256,192,35992,1,2,0:0:0:0:
256,192,36189,1,2,0:0:0:0:
256,192,36386,1,0,0:0:0:0:
256,192,36978,1,2,0:0:0:0:
256,192,37176,1,0,0:0:0:0:
256,192,37472,1,2,0:0:0:0:
256,192,37768,1,4,0:0:0:0:
256,192,38163,1,0,0:0:0:0:
256,192,38360,1,2,0:0:0:0:
256,192,38557,1,0,0:0:0:0:
256,192,38755,1,0,0:0:0:0:
256,192,38952,1,0,0:0:0:0:
256,192,39051,1,2,0:0:0:0:
256,192,39150,1,0,0:0:0:0:
256,192,39347,1,0,0:0:0:0:
256,192,39544,1,6,0:0:0:0:
256,192,39939,1,0,0:0:0:0:
256,192,40136,1,0,0:0:0:0:
256,192,40334,1,2,0:0:0:0:
256,192,40630,1,2,0:0:0:0:
256,192,40926,1,0,0:0:0:0:
256,192,41321,1,0,0:0:0:0:
256,192,41518,1,2,0:0:0:0:
256,192,41715,1,0,0:0:0:0:
256,192,41913,1,2,0:0:0:0:
256,192,42110,1,0,0:0:0:0:
256,192,42307,1,2,0:0:0:0:
256,192,42505,1,2,0:0:0:0:
256,192,42702,1,0,0:0:0:0:
256,192,43097,1,0,0:0:0:0:
256,192,43294,1,2,0:0:0:0:
256,192,43492,1,0,0:0:0:0:
256,192,43788,1,0,0:0:0:0:
256,192,44084,1,2,0:0:0:0:
256,192,44478,1,0,0:0:0:0:
256,192,44676,1,2,0:0:0:0:
256,192,44873,1,0,0:0:0:0:
256,192,45071,1,6,0:0:0:0:
256,192,45268,1,0,0:0:0:0:
256,192,45367,1,2,0:0:0:0:
256,192,45465,1,0,0:0:0:0:
256,192,45663,1,0,0:0:0:0:
256,192,45860,1,6,0:0:0:0:
256,192,46255,1,0,0:0:0:0:
256,192,46452,1,0,0:0:0:0:
256,192,46649,1,2,0:0:0:0:
256,192,46946,1,2,0:0:0:0:
256,192,47242,1,0,0:0:0:0:
256,192,47636,1,0,0:0:0:0:
256,192,47834,1,2,0:0:0:0:
256,192,48031,1,0,0:0:0:0:
256,192,48228,1,2,0:0:0:0:
256,192,48426,1,0,0:0:0:0:
256,192,48623,1,2,0:0:0:0:
256,192,48821,1,2,0:0:0:0:
256,192,49018,1,0,0:0:0:0:
256,192,49413,1,0,0:0:0:0:
256,192,49610,1,2,0:0:0:0:
256,192,49807,1,0,0:0:0:0:
256,192,50103,1,2,0:0:0:0:
256,192,50399,1,0,0:0:0:0:
256,192,50597,1,6,0:0:0:0:
256,192,50893,1,6,0:0:0:0:
256,192,51189,1,6,0:0:0:0:
256,192,51386,1,0,0:0:0:0:
256,192,51485,1,0,0:0:0:0:
256,192,51584,1,2,0:0:0:0:
256,192,51682,1,2,0:0:0:0:
256,192,51781,1,0,0:0:0:0:
256,192,51978,1,0,0:0:0:0:
256,192,52176,1,2,0:0:0:0:
256,192,52571,1,0,0:0:0:0:
256,192,52768,1,0,0:0:0:0:
256,192,52965,1,6,0:0:0:0:
256,192,53557,1,2,0:0:0:0:
256,192,53755,1,0,0:0:0:0:
256,192,54149,1,2,0:0:0:0:
256,192,54347,1,2,0:0:0:0:
256,192,54544,1,4,0:0:0:0:
256,192,54939,1,0,0:0:0:0:
256,192,55136,1,0,0:0:0:0:
256,192,55334,1,2,0:0:0:0:
256,192,55728,1,0,0:0:0:0:
256,192,55926,1,0,0:0:0:0:
256,192,56123,1,6,0:0:0:0:
256,192,56715,1,2,0:0:0:0:
256,192,56913,1,0,0:0:0:0:
256,192,57307,1,0,0:0:0:0:
256,192,57505,1,2,0:0:0:0:
256,192,57702,1,6,0:0:0:0:
256,192,58097,1,0,0:0:0:0:
256,192,58294,1,0,0:0:0:0:
256,192,58492,1,6,0:0:0:0:
256,192,58886,1,0,0:0:0:0:
256,192,59084,1,0,0:0:0:0:
256,192,59281,1,2,0:0:0:0:
256,192,59478,1,0,0:0:0:0:
256,192,59577,1,2,0:0:0:0:
256,192,59676,1,0,0:0:0:0:
256,192,59873,1,2,0:0:0:0:
256,192,60268,1,2,0:0:0:0:
256,192,60465,1,0,0:0:0:0:
256,192,60663,1,2,0:0:0:0:
256,192,60860,1,0,0:0:0:0:
256,192,61057,1,0,0:0:0:0:
256,192,61156,1,2,0:0:0:0:
256,192,61255,1,0,0:0:0:0:
256,192,61452,1,0,0:0:0:0:
256,192,61650,1,6,0:0:0:0:
256,192,62044,1,2,0:0:0:0:
256,192,62242,1,2,0:0:0:0:
256,192,62439,1,0,0:0:0:0:
256,192,62834,1,0,0:0:0:0:
256,192,63031,1,0,0:0:0:0:
256,192,63228,1,2,0:0:0:0:
256,192,63426,1,0,0:0:0:0:
256,192,63524,1,0,0:0:0:0:
256,192,63623,1,2,0:0:0:0:
256,192,63821,1,2,0:0:0:0:
256,192,64018,1,0,0:0:0:0:
256,192,64215,1,2,0:0:0:0:
256,192,64314,1,2,0:0:0:0:
256,192,64413,1,0,0:0:0:0:
256,192,64610,1,0,0:0:0:0:
256,192,64807,1,6,0:0:0:0:
256,192,65103,1,0,0:0:0:0:
256,192,65399,1,2,0:0:0:0:
256,192,65597,1,0,0:0:0:0:
256,192,65893,1,0,0:0:0:0:
256,192,66189,1,2,0:0:0:0:
256,192,66386,1,4,0:0:0:0:
256,192,66682,1,4,0:0:0:0:
256,192,66978,1,4,0:0:0:0:
256,192,67176,1,6,0:0:0:0:
256,192,67965,1,6,0:0:0:0:
256,192,68360,1,0,0:0:0:0:
256,192,68557,1,0,0:0:0:0:
256,192,68755,1,2,0:0:0:0:
256,192,68952,1,0,0:0:0:0:
256,192,69051,1,0,0:0:0:0:
256,192,69149,1,2,0:0:0:0:
256,192,69347,1,2,0:0:0:0:
256,192,69544,1,0,0:0:0:0:
256,192,69742,1,2,0:0:0:0:
256,192,69840,1,2,0:0:0:0:
256,192,69939,1,0,0:0:0:0:
256,192,70136,1,0,0:0:0:0:
256,192,70334,1,2,0:0:0:0:
256,192,70728,1,0,0:0:0:0:
256,192,71123,1,6,0:0:0:0:
256,192,71518,1,2,0:0:0:0:
256,192,71715,1,2,0:0:0:0:
256,192,71913,1,0,0:0:0:0:
256,192,72110,1,2,0:0:0:0:
256,192,72209,1,2,0:0:0:0:
256,192,72307,1,0,0:0:0:0:
256,192,72505,1,0,0:0:0:0:
256,192,72702,1,2,0:0:0:0:
256,192,72899,1,0,0:0:0:0:
256,192,72998,1,0,0:0:0:0:
256,192,73097,1,2,0:0:0:0:
256,192,73294,1,2,0:0:0:0:
256,192,73492,1,0,0:0:0:0:
256,192,73886,1,0,0:0:0:0:
256,192,74281,1,6,0:0:0:0:
256,192,74676,1,0,0:0:0:0:
256,192,74873,1,0,0:0:0:0:
256,192,75071,1,2,0:0:0:0:
256,192,75268,1,2,0:0:0:0:
256,192,75367,1,2,0:0:0:0:
256,192,75465,1,0,0:0:0:0:
256,192,75663,1,0,0:0:0:0:
256,192,75860,1,2,0:0:0:0:
256,192,76057,1,0,0:0:0:0:
256,192,76156,1,0,0:0:0:0:
256,192,76255,1,2,0:0:0:0:
256,192,76452,1,2,0:0:0:0:
256,192,76649,1,0,0:0:0:0:
256,192,77044,1,2,0:0:0:0:
256,192,77439,1,4,0:0:0:0:
256,192,77834,1,2,0:0:0:0:
256,192,78031,1,0,0:0:0:0:
256,192,78228,1,2,0:0:0:0:
256,192,78623,1,0,0:0:0:0:
256,192,78821,1,2,0:0:0:0:
256,192,79018,1,4,0:0:0:0:
256,192,79215,1,0,0:0:0:0:
256,192,79413,1,2,0:0:0:0:
256,192,79610,1,2,0:0:0:0:
256,192,79709,1,2,0:0:0:0:
256,192,79807,1,0,0:0:0:0:
256,192,80005,1,0,0:0:0:0:
256,192,80103,1,0,0:0:0:0:
256,192,80202,1,2,0:0:0:0:
256,192,80301,1,2,0:0:0:0:
256,192,80399,1,0,0:0:0:0:
256,192,80597,1,6,0:0:0:0:
256,192,80992,1,0,0:0:0:0:
256,192,81189,1,0,0:0:0:0:
256,192,81386,1,2,0:0:0:0:
256,192,81584,1,0,0:0:0:0:
256,192,81682,1,0,0:0:0:0:
256,192,81781,1,2,0:0:0:0:
256,192,81978,1,2,0:0:0:0:
256,192,82176,1,0,0:0:0:0:
256,192,82373,1,2,0:0:0:0:
256,192,82472,1,2,0:0:0:0:
256,192,82571,1,0,0:0:0:0:
256,192,82768,1,0,0:0:0:0:
256,192,82965,1,6,0:0:0:0:
256,192,83163,1,2,0:0:0:0:
256,192,83360,1,4,0:0:0:0:
256,192,83755,1,6,0:0:0:0:
256,192,84149,1,2,0:0:0:0:
256,192,84347,1,2,0:0:0:0:
256,192,84544,1,0,0:0:0:0:
256,192,84742,1,2,0:0:0:0:
256,192,84840,1,2,0:0:0:0:
256,192,84939,1,0,0:0:0:0:
256,192,85136,1,0,0:0:0:0:
256,192,85334,1,2,0:0:0:0:
256,192,85531,1,0,0:0:0:0:
256,192,85630,1,0,0:0:0:0:
256,192,85728,1,2,0:0:0:0:
256,192,85926,1,2,0:0:0:0:
256,192,86123,1,0,0:0:0:0:
256,192,86321,1,2,0:0:0:0:
256,192,86518,1,0,0:0:0:0:
256,192,86913,1,6,0:0:0:0:
256,192,87307,1,0,0:0:0:0:
256,192,87505,1,0,0:0:0:0:
256,192,87702,1,2,0:0:0:0:
256,192,87899,1,2,0:0:0:0:
256,192,87998,1,2,0:0:0:0:
256,192,88097,1,0,0:0:0:0:
256,192,88294,1,2,0:0:0:0:
256,192,88689,1,0,0:0:0:0:
256,192,88886,1,2,0:0:0:0:
256,192,89084,1,2,0:0:0:0:
256,192,89281,1,6,0:0:0:0:
256,192,89478,1,0,0:0:0:0:
256,192,89577,1,0,0:0:0:0:
256,192,89676,1,2,0:0:0:0:
256,192,89873,1,2,0:0:0:0:
256,192,90071,1,4,0:0:0:0:
256,192,90465,1,2,0:0:0:0:
256,192,90663,1,2,0:0:0:0:
256,192,90860,1,0,0:0:0:0:
256,192,91057,1,0,0:0:0:0:
256,192,91255,1,2,0:0:0:0:
256,192,91353,1,2,0:0:0:0:
256,192,91452,1,2,0:0:0:0:
256,192,91649,1,4,0:0:0:0:
256,192,91847,1,4,0:0:0:0:
256,192,92044,1,4,0:0:0:0:
256,192,92242,1,2,0:0:0:0:
256,192,92340,1,0,0:0:0:0:
256,192,92538,1,0,0:0:0:0:
256,192,92636,1,2,0:0:0:0:
256,192,92834,1,2,0:0:0:0:
256,192,93031,1,0,0:0:0:0:
0,32,93228,2,4,L|416:192,2,420
256,192,95992,1,0,0:0:0:0:
256,192,96189,1,0,0:0:0:0:
256,192,96386,1,2,0:0:0:0:
256,192,96781,1,2,0:0:0:0:
256,192,97175,1,0,0:0:0:0:
256,192,97373,1,2,0:0:0:0:
256,192,97471,1,2,0:0:0:0:
256,192,97570,1,0,0:0:0:0:
256,192,97768,1,2,0:0:0:0:
256,192,97965,1,0,0:0:0:0:
256,192,98360,1,0,0:0:0:0:
256,192,98557,1,0,0:0:0:0:
256,192,98754,1,6,0:0:0:0:
256,192,99149,1,4,0:0:0:0:
256,192,99346,1,0,0:0:0:0:
256,192,99544,1,6,0:0:0:0:
256,192,99939,1,2,0:0:0:0:
256,192,100333,1,0,0:0:0:0:
256,192,100531,1,2,0:0:0:0:
256,192,100629,1,2,0:0:0:0:
256,192,100728,1,0,0:0:0:0:
256,192,100925,1,2,0:0:0:0:
256,192,101123,1,0,0:0:0:0:
256,192,101320,1,2,0:0:0:0:
256,192,101419,1,2,0:0:0:0:
256,192,101518,1,0,0:0:0:0:
256,192,101715,1,0,0:0:0:0:
256,192,101912,1,2,0:0:0:0:
256,192,102307,1,0,0:0:0:0:
256,192,102504,1,0,0:0:0:0:
256,192,102702,1,2,0:0:0:0:
256,192,103096,1,2,0:0:0:0:
256,192,103491,1,0,0:0:0:0:
256,192,103689,1,2,0:0:0:0:
256,192,103787,1,2,0:0:0:0:
256,192,103886,1,0,0:0:0:0:
256,192,104083,1,0,0:0:0:0:
256,192,104281,1,6,0:0:0:0:
256,192,104675,1,4,0:0:0:0:
256,192,105070,1,6,0:0:0:0:
256,192,105268,1,2,0:0:0:0:
256,192,105465,1,2,0:0:0:0:
256,192,105564,1,2,0:0:0:0:
256,192,105662,1,0,0:0:0:0:
256,192,105860,1,6,0:0:0:0:
256,192,106452,1,0,0:0:0:0:
256,192,106649,1,2,0:0:0:0:
256,192,106946,1,2,0:0:0:0:
256,192,107242,1,0,0:0:0:0:
256,192,108031,1,0,0:0:0:0:
256,192,108228,1,2,0:0:0:0:
256,192,108426,1,0,0:0:0:0:
256,192,108623,1,2,0:0:0:0:
256,192,108821,1,2,0:0:0:0:
256,192,109018,1,0,0:0:0:0:
256,192,109610,1,2,0:0:0:0:
256,192,109807,1,0,0:0:0:0:
256,192,110103,1,0,0:0:0:0:
256,192,110399,1,2,0:0:0:0:
256,192,111781,1,0,0:0:0:0:
256,192,111978,1,0,0:0:0:0:
256,192,112176,1,2,0:0:0:0:
256,192,112768,1,0,0:0:0:0:
256,192,112965,1,2,0:0:0:0:
256,192,113261,1,2,0:0:0:0:
256,192,113557,1,0,0:0:0:0:
256,192,114347,1,0,0:0:0:0:
256,192,114544,1,2,0:0:0:0:
256,192,114742,1,0,0:0:0:0:
256,192,114939,1,2,0:0:0:0:
256,192,115136,1,2,0:0:0:0:
256,192,115334,1,0,0:0:0:0:
256,192,115728,1,0,0:0:0:0:
256,192,115926,1,0,0:0:0:0:
256,192,116123,1,2,0:0:0:0:
256,192,116321,1,0,0:0:0:0:
256,192,116518,1,2,0:0:0:0:
256,192,116617,1,2,0:0:0:0:
256,192,116715,1,0,0:0:0:0:
256,192,117110,1,0,0:0:0:0:
256,192,117307,1,0,0:0:0:0:
256,192,117505,1,0,0:0:0:0:
256,192,117702,1,2,0:0:0:0:
256,192,117998,1,0,0:0:0:0:
256,192,118097,1,2,0:0:0:0:
256,192,118294,1,2,0:0:0:0:
256,192,118492,1,4,0:0:0:0:
256,192,118886,1,2,0:0:0:0:
256,192,119084,1,2,0:0:0:0:
256,192,119281,1,0,0:0:0:0:
256,192,119478,1,2,0:0:0:0:
256,192,119676,1,0,0:0:0:0:
256,192,119873,1,0,0:0:0:0:
256,192,120071,1,2,0:0:0:0:
256,192,120268,1,2,0:0:0:0:
256,192,120465,1,0,0:0:0:0:
256,192,120663,1,0,0:0:0:0:
256,192,120860,1,6,0:0:0:0:
256,192,121255,1,6,0:0:0:0:
256,192,121649,1,4,0:0:0:0:
256,192,122044,1,2,0:0:0:0:
256,192,122242,1,2,0:0:0:0:
256,192,122439,1,0,0:0:0:0:
256,192,122636,1,2,0:0:0:0:
256,192,122834,1,0,0:0:0:0:
256,192,123031,1,0,0:0:0:0:
256,192,123228,1,2,0:0:0:0:
256,192,123426,1,0,0:0:0:0:
256,192,123623,1,2,0:0:0:0:
256,192,123821,1,2,0:0:0:0:
256,192,124018,1,6,0:0:0:0:
256,192,124413,1,4,0:0:0:0:
256,192,124807,1,6,0:0:0:0:
256,192,125202,1,2,0:0:0:0:
256,192,125399,1,2,0:0:0:0:
256,192,125597,1,0,0:0:0:0:
256,192,125794,1,0,0:0:0:0:
256,192,125992,1,2,0:0:0:0:
256,192,126189,1,0,0:0:0:0:
256,192,126386,1,2,0:0:0:0:
256,192,126584,1,0,0:0:0:0:
256,192,126781,1,2,0:0:0:0:
256,192,126978,1,2,0:0:0:0:
256,192,127176,1,0,0:0:0:0:
256,192,127571,1,2,0:0:0:0:
256,192,127965,1,0,0:0:0:0:
256,192,128163,1,2,0:0:0:0:
256,192,128360,1,0,0:0:0:0:
256,192,128557,1,0,0:0:0:0:
256,192,128755,1,2,0:0:0:0:
256,192,128952,1,2,0:0:0:0:
256,192,129149,1,0,0:0:0:0:
256,192,129347,1,0,0:0:0:0:
256,192,129544,1,6,0:0:0:0:
256,192,129840,1,2,0:0:0:0:
256,192,130136,1,2,0:0:0:0:
256,192,130334,1,0,0:0:0:0:
256,192,130531,1,0,0:0:0:0:
256,192,130630,1,0,0:0:0:0:
256,192,130728,1,0,0:0:0:0:
256,192,130926,1,0,0:0:0:0:
256,192,131123,1,2,0:0:0:0:
256,192,131518,1,0,0:0:0:0:
256,192,131715,1,0,0:0:0:0:
256,192,131913,1,6,0:0:0:0:
256,192,132505,1,2,0:0:0:0:
256,192,132702,1,0,0:0:0:0:
256,192,133097,1,2,0:0:0:0:
256,192,133294,1,2,0:0:0:0:
256,192,133492,1,4,0:0:0:0:
256,192,133886,1,0,0:0:0:0:
256,192,134084,1,0,0:0:0:0:
256,192,134281,1,2,0:0:0:0:
256,192,134676,1,0,0:0:0:0:
256,192,134873,1,0,0:0:0:0:
256,192,135071,1,6,0:0:0:0:
256,192,135663,1,2,0:0:0:0:
256,192,135860,1,0,0:0:0:0:
256,192,136255,1,0,0:0:0:0:
256,192,136452,1,2,0:0:0:0:
256,192,136649,1,6,0:0:0:0:
256,192,137044,1,0,0:0:0:0:
256,192,137143,1,0,0:0:0:0:
256,192,137242,1,0,0:0:0:0:
256,192,137439,1,6,0:0:0:0:
256,192,137834,1,0,0:0:0:0:
256,192,138031,1,0,0:0:0:0:
256,192,138228,1,2,0:0:0:0:
256,192,138426,1,0,0:0:0:0:
256,192,138524,1,2,0:0:0:0:
256,192,138623,1,0,0:0:0:0:
256,192,138821,1,2,0:0:0:0:
256,192,139215,1,2,0:0:0:0:
256,192,139413,1,0,0:0:0:0:
256,192,139610,1,2,0:0:0:0:
256,192,139807,1,0,0:0:0:0:
256,192,140005,1,0,0:0:0:0:
256,192,140103,1,2,0:0:0:0:
256,192,140202,1,0,0:0:0:0:
256,192,140399,1,0,0:0:0:0:
256,192,140597,1,6,0:0:0:0:
256,192,140992,1,2,0:0:0:0:
256,192,141189,1,2,0:0:0:0:
256,192,141386,1,0,0:0:0:0:
256,192,141781,1,0,0:0:0:0:
256,192,141978,1,0,0:0:0:0:
256,192,142176,1,2,0:0:0:0:
256,192,142373,1,0,0:0:0:0:
256,192,142472,1,0,0:0:0:0:
256,192,142571,1,2,0:0:0:0:
256,192,142768,1,2,0:0:0:0:
256,192,142965,1,0,0:0:0:0:
256,192,143163,1,2,0:0:0:0:
256,192,143261,1,2,0:0:0:0:
256,192,143360,1,0,0:0:0:0:
256,192,143557,1,0,0:0:0:0:
256,192,143755,1,6,0:0:0:0:
256,192,144051,1,0,0:0:0:0:
256,192,144347,1,2,0:0:0:0:
256,192,144544,1,0,0:0:0:0:
256,192,144840,1,0,0:0:0:0:
256,192,145136,1,2,0:0:0:0:
256,192,145334,1,4,0:0:0:0:
256,192,145630,1,4,0:0:0:0:
256,192,145926,1,4,0:0:0:0:
256,192,146123,1,6,0:0:0:0:
256,192,159544,5,2,0:0:0:0:
256,192,160136,1,0,0:0:0:0:
256,192,160334,1,0,0:0:0:0:
256,192,160926,1,0,0:0:0:0:
256,192,161123,1,2,0:0:0:0:
256,192,161715,1,2,0:0:0:0:
256,192,161913,1,2,0:0:0:0:
256,192,162505,1,0,0:0:0:0:
256,192,162702,1,2,0:0:0:0:
256,192,163097,1,2,0:0:0:0:
256,192,163492,1,0,0:0:0:0:
256,192,163886,1,2,0:0:0:0:
256,192,164281,1,0,0:0:0:0:
256,192,165663,1,0,0:0:0:0:
256,192,165860,1,2,0:0:0:0:
256,192,166452,1,2,0:0:0:0:
256,192,166649,1,2,0:0:0:0:
256,192,167242,1,0,0:0:0:0:
256,192,167439,1,2,0:0:0:0:
256,192,168031,1,0,0:0:0:0:
256,192,168228,1,0,0:0:0:0:
256,192,168821,1,0,0:0:0:0:
256,192,169018,1,6,0:0:0:0:
256,192,169314,1,0,0:0:0:0:
256,192,169610,1,0,0:0:0:0:
256,192,169807,1,2,0:0:0:0:
256,192,170103,1,2,0:0:0:0:
256,192,170202,1,0,0:0:0:0:
256,192,170399,1,0,0:0:0:0:
256,192,170597,1,2,0:0:0:0:
256,192,170893,1,0,0:0:0:0:
256,192,171189,1,2,0:0:0:0:
256,192,171386,1,0,0:0:0:0:
256,192,171584,1,0,0:0:0:0:
256,192,171682,1,0,0:0:0:0:
256,192,171781,1,2,0:0:0:0:
256,192,171880,1,2,0:0:0:0:
256,192,171978,1,0,0:0:0:0:
256,192,172176,1,6,0:0:0:0:
256,192,172472,1,0,0:0:0:0:
256,192,172768,1,0,0:0:0:0:
256,192,172965,1,2,0:0:0:0:
256,192,173261,1,2,0:0:0:0:
256,192,173360,1,0,0:0:0:0:
256,192,173557,1,0,0:0:0:0:
256,192,173755,1,6,0:0:0:0:
256,192,174051,1,0,0:0:0:0:
256,192,174347,1,0,0:0:0:0:
256,192,174544,1,2,0:0:0:0:
256,192,176123,1,6,0:0:0:0:
256,192,176517,1,0,0:0:0:0:
256,192,176714,1,0,0:0:0:0:
256,192,176912,1,2,0:0:0:0:
256,192,177109,1,0,0:0:0:0:
256,192,177208,1,0,0:0:0:0:
256,192,177306,1,2,0:0:0:0:
256,192,177504,1,2,0:0:0:0:
256,192,177701,1,0,0:0:0:0:
256,192,177899,1,2,0:0:0:0:
256,192,177997,1,2,0:0:0:0:
256,192,178096,1,0,0:0:0:0:
256,192,178293,1,0,0:0:0:0:
256,192,178491,1,2,0:0:0:0:
256,192,178688,1,2,0:0:0:0:
256,192,178787,1,0,0:0:0:0:
256,192,178885,1,2,0:0:0:0:
256,192,179083,1,0,0:0:0:0:
256,192,179280,1,6,0:0:0:0:
256,192,179675,1,2,0:0:0:0:
256,192,179872,1,2,0:0:0:0:
256,192,180070,1,0,0:0:0:0:
256,192,180267,1,2,0:0:0:0:
256,192,180366,1,2,0:0:0:0:
256,192,180464,1,0,0:0:0:0:
256,192,180662,1,0,0:0:0:0:
256,192,180859,1,2,0:0:0:0:
256,192,181056,1,0,0:0:0:0:
256,192,181155,1,0,0:0:0:0:
256,192,181254,1,2,0:0:0:0:
256,192,181451,1,2,0:0:0:0:
256,192,181649,1,0,0:0:0:0:
256,192,181846,1,2,0:0:0:0:
256,192,181945,1,0,0:0:0:0:
256,192,182043,1,2,0:0:0:0:
256,192,182241,1,0,0:0:0:0:
256,192,182438,1,6,0:0:0:0:
256,192,182833,1,2,0:0:0:0:
256,192,183030,1,0,0:0:0:0:
256,192,183229,1,2,0:0:0:0:
256,192,183425,1,2,0:0:0:0:
256,192,183623,1,0,0:0:0:0:
256,192,183821,1,0,0:0:0:0:
256,192,184018,1,2,0:0:0:0:
256,192,184215,1,0,0:0:0:0:
256,192,184413,1,2,0:0:0:0:
256,192,184610,1,2,0:0:0:0:
256,192,184807,1,0,0:0:0:0:
256,192,185005,1,0,0:0:0:0:
256,192,185103,1,0,0:0:0:0:
256,192,185202,1,2,0:0:0:0:
256,192,185399,1,2,0:0:0:0:
256,192,185597,1,4,0:0:0:0:
256,192,185992,1,2,0:0:0:0:
256,192,186189,1,0,0:0:0:0:
256,192,186386,1,2,0:0:0:0:
256,192,186583,1,0,0:0:0:0:
256,192,186682,1,2,0:0:0:0:
256,192,186781,1,0,0:0:0:0:
256,192,186978,1,2,0:0:0:0:
256,192,187176,1,4,0:0:0:0:
256,192,187373,1,0,0:0:0:0:
256,192,187571,1,2,0:0:0:0:
256,192,187768,1,2,0:0:0:0:
256,192,187866,1,2,0:0:0:0:
256,192,187965,1,0,0:0:0:0:
256,192,188163,1,0,0:0:0:0:
256,192,188261,1,0,0:0:0:0:
256,192,188359,1,2,0:0:0:0:
256,192,188458,1,2,0:0:0:0:
256,192,188557,1,0,0:0:0:0:
256,192,188755,1,6,0:0:0:0:
256,192,189149,1,2,0:0:0:0:
256,192,189346,1,2,0:0:0:0:
256,192,189544,1,0,0:0:0:0:
256,192,189741,1,2,0:0:0:0:
256,192,189840,1,2,0:0:0:0:
256,192,189939,1,0,0:0:0:0:
256,192,190037,1,2,0:0:0:0:
256,192,190136,1,0,0:0:0:0:
256,192,190334,1,2,0:0:0:0:
256,192,190530,1,2,0:0:0:0:
256,192,190629,1,2,0:0:0:0:
256,192,190729,1,0,0:0:0:0:
256,192,190925,1,0,0:0:0:0:
256,192,191123,1,6,0:0:0:0:
256,192,191320,1,2,0:0:0:0:
256,192,191518,1,4,0:0:0:0:
256,192,191913,1,6,0:0:0:0:
256,192,192307,1,2,0:0:0:0:
256,192,192504,1,0,0:0:0:0:
256,192,192702,1,2,0:0:0:0:
256,192,192800,1,2,0:0:0:0:
256,192,192899,1,0,0:0:0:0:
256,192,192998,1,0,0:0:0:0:
256,192,193096,1,2,0:0:0:0:
256,192,193294,1,0,0:0:0:0:
256,192,193491,1,6,0:0:0:0:
256,192,193688,1,4,0:0:0:0:
256,192,193886,1,6,0:0:0:0:
256,192,194084,1,6,0:0:0:0:
256,192,194280,1,6,0:0:0:0:
256,192,194478,1,0,0:0:0:0:
256,192,194576,1,2,0:0:0:0:
256,192,194676,1,0,0:0:0:0:
256,192,194873,1,0,0:0:0:0:
256,192,195071,1,6,0:0:0:0:
256,192,195465,1,0,0:0:0:0:
256,192,195662,1,0,0:0:0:0:
256,192,195860,1,2,0:0:0:0:
256,192,196057,1,2,0:0:0:0:
256,192,196155,1,2,0:0:0:0:
256,192,196255,1,0,0:0:0:0:
256,192,196452,1,2,0:0:0:0:
256,192,196649,1,0,0:0:0:0:
256,192,196847,1,0,0:0:0:0:
256,192,196945,1,0,0:0:0:0:
256,192,197044,1,2,0:0:0:0:
256,192,197241,1,2,0:0:0:0:
256,192,197439,1,6,0:0:0:0:
256,192,197636,1,0,0:0:0:0:
256,192,197734,1,0,0:0:0:0:
256,192,197834,1,2,0:0:0:0:
256,192,198030,1,2,0:0:0:0:
256,192,198229,1,4,0:0:0:0:
256,192,198623,1,2,0:0:0:0:
256,192,198820,1,2,0:0:0:0:
256,192,199018,1,0,0:0:0:0:
256,192,199215,1,0,0:0:0:0:
256,192,199413,1,2,0:0:0:0:
256,192,199511,1,2,0:0:0:0:
256,192,199609,1,2,0:0:0:0:
256,192,199807,1,4,0:0:0:0:
256,192,200004,1,4,0:0:0:0:
256,192,200202,1,4,0:0:0:0:
256,192,200399,1,2,0:0:0:0:
256,192,200498,1,0,0:0:0:0:
256,192,200695,1,0,0:0:0:0:
256,192,200794,1,2,0:0:0:0:
256,192,200992,1,2,0:0:0:0:
256,192,201189,1,0,0:0:0:0:
256,192,201386,1,6,0:0:0:0:
256,192,201781,1,2,0:0:0:0:
256,192,202176,1,0,0:0:0:0:
256,192,202373,1,2,0:0:0:0:
256,192,202472,1,2,0:0:0:0:
256,192,202570,1,0,0:0:0:0:
256,192,202767,1,2,0:0:0:0:
256,192,202965,1,0,0:0:0:0:
256,192,203162,1,2,0:0:0:0:
256,192,203261,1,2,0:0:0:0:
256,192,203360,1,0,0:0:0:0:
256,192,203557,1,0,0:0:0:0:
256,192,203755,1,2,0:0:0:0:
256,192,203951,1,2,0:0:0:0:
256,192,204149,1,0,0:0:0:0:
256,192,204347,1,0,0:0:0:0:
256,192,204544,1,2,0:0:0:0:
256,192,204939,1,2,0:0:0:0:
256,192,205333,1,0,0:0:0:0:
256,192,205531,1,2,0:0:0:0:
256,192,205629,1,2,0:0:0:0:
256,192,205728,1,0,0:0:0:0:
256,192,205926,1,2,0:0:0:0:
256,192,206123,1,0,0:0:0:0:
256,192,206320,1,2,0:0:0:0:
256,192,206518,1,0,0:0:0:0:
256,192,206715,1,0,0:0:0:0:
256,192,206912,1,6,0:0:0:0:
256,192,207307,1,6,0:0:0:0:
256,192,207701,1,0,0:0:0:0:
256,192,207800,1,0,0:0:0:0:
256,192,207899,1,0,0:0:0:0:
256,192,208097,1,6,0:0:0:0:
256,192,208491,1,0,0:0:0:0:
256,192,208689,1,2,0:0:0:0:
256,192,208787,1,2,0:0:0:0:
256,192,208886,1,0,0:0:0:0:
256,192,209083,1,2,0:0:0:0:
256,192,209281,1,0,0:0:0:0:
256,192,209478,1,2,0:0:0:0:
256,192,209577,1,2,0:0:0:0:
256,192,209676,1,0,0:0:0:0:
256,192,209873,1,0,0:0:0:0:
256,192,210070,1,2,0:0:0:0:
256,192,210267,1,2,0:0:0:0:
256,192,210465,1,0,0:0:0:0:
256,192,210662,1,0,0:0:0:0:
256,192,210860,1,2,0:0:0:0:
256,192,211254,1,2,0:0:0:0:
256,192,211649,1,0,0:0:0:0:
256,192,211847,1,2,0:0:0:0:
256,192,211945,1,2,0:0:0:0:
256,192,212044,1,0,0:0:0:0:
256,192,212241,1,0,0:0:0:0:
256,192,212439,1,6,0:0:0:0:
256,192,212636,1,0,0:0:0:0:
256,192,212833,1,0,0:0:0:0:
256,192,213030,1,6,0:0:0:0:
256,192,213228,1,0,0:0:0:0:
256,192,213425,1,6,0:0:0:0:
256,192,213623,1,2,0:0:0:0:
256,192,213721,1,2,0:0:0:0:
256,192,213820,1,0,0:0:0:0:
256,192,214017,1,6,0:0:0:0:
256,192,214412,1,2,0:0:0:0:
256,192,214807,1,0,0:0:0:0:
256,192,215004,1,2,0:0:0:0:
256,192,215103,1,2,0:0:0:0:
256,192,215201,1,0,0:0:0:0:
256,192,215398,1,2,0:0:0:0:
256,192,215596,1,0,0:0:0:0:
256,192,215793,1,2,0:0:0:0:
256,192,215892,1,2,0:0:0:0:
256,192,215991,1,0,0:0:0:0:
256,192,216188,1,0,0:0:0:0:
256,192,216386,1,2,0:0:0:0:
256,192,216582,1,2,0:0:0:0:
256,192,216780,1,0,0:0:0:0:
256,192,216978,1,0,0:0:0:0:
256,192,217175,1,2,0:0:0:0:
256,192,217570,1,2,0:0:0:0:
256,192,217964,1,0,0:0:0:0:
256,192,218162,1,2,0:0:0:0:
256,192,218260,1,2,0:0:0:0:
256,192,218359,1,0,0:0:0:0:
256,192,218557,1,2,0:0:0:0:
256,192,218754,1,0,0:0:0:0:
256,192,218951,1,2,0:0:0:0:
256,192,219149,1,0,0:0:0:0:
256,192,219346,1,0,0:0:0:0:
256,192,219543,1,6,0:0:0:0:
256,192,219938,1,6,0:0:0:0:
256,192,220332,1,0,0:0:0:0:
256,192,220431,1,0,0:0:0:0:
256,192,220530,1,0,0:0:0:0:
256,192,220728,1,6,0:0:0:0:
256,192,221122,1,0,0:0:0:0:
256,192,221320,1,2,0:0:0:0:
256,192,221418,1,2,0:0:0:0:
256,192,221517,1,0,0:0:0:0:
256,192,221714,1,2,0:0:0:0:
256,192,221912,1,0,0:0:0:0:
256,192,222109,1,2,0:0:0:0:
256,192,222208,1,2,0:0:0:0:
256,192,222307,1,0,0:0:0:0:
256,192,222504,1,0,0:0:0:0:
256,192,222701,1,2,0:0:0:0:
256,192,222898,1,2,0:0:0:0:
256,192,223096,1,0,0:0:0:0:
256,192,223293,1,0,0:0:0:0:
256,192,223491,1,2,0:0:0:0:
256,192,223885,1,2,0:0:0:0:
256,192,224280,1,0,0:0:0:0:
256,192,224478,1,2,0:0:0:0:
256,192,224576,1,2,0:0:0:0:
256,192,224675,1,0,0:0:0:0:
256,192,224872,1,0,0:0:0:0:
256,192,225070,1,6,0:0:0:0:
