osu file format v14

[General]
AudioFilename: audio.mp3
AudioLeadIn: 0
PreviewTime: 44347
Countdown: 0
SampleSet: Soft
StackLeniency: 0.7
Mode: 0
LetterboxInBreaks: 0
WidescreenStoryboard: 0

[Editor]
DistanceSpacing: 1.1
BeatDivisor: 4
GridSize: 32
TimelineZoom: 1.6

[Metadata]
Title:Toosenbou
TitleUnicode:とおせんぼう
Artist:mafumafu
ArtistUnicode:まふまふ
Creator:William K
Version:Restricted
Source:
Tags:keep out kagurairo artifact 神楽色アーティファクト
BeatmapID:1825504
BeatmapSetID:873264

[Difficulty]
HPDrainRate:6
CircleSize:4
OverallDifficulty:8.5
ApproachRate:9
SliderMultiplier:1.7
SliderTickRate:1

[Events]
//Background and Video events
Video,-648,"vid.mp4"
0,0,"toosenbou.jpg",0,0
//Break Periods
2,66450,86446
2,164632,174741
//Storyboard Layer 0 (Background)
//Storyboard Layer 1 (Fail)
//Storyboard Layer 2 (Pass)
//Storyboard Layer 3 (Foreground)
//Storyboard Layer 4 (Overlay)
//Storyboard Sound Samples

[TimingPoints]
796,340.909090909091,4,2,1,28,1,0
796,-133.333333333333,4,2,1,28,0,0
11705,-121.951219512195,4,2,1,36,0,0
19886,-111.111111111111,4,2,1,55,0,0
22614,-121.951219512195,4,2,1,40,0,0
25341,-111.111111111111,4,2,1,55,0,0
28068,-121.951219512195,4,2,1,40,0,0
30796,-111.111111111111,4,2,1,55,0,0
33523,-121.951219512195,4,2,1,40,0,0
38977,-107.52688172043,4,2,1,60,0,0
41705,-88.4955752212389,4,2,1,60,0,0
41960,-88.4955752212389,4,2,1,5,0,0
42046,-81.3008130081301,4,2,1,65,0,0
42301,-81.3008130081301,4,2,1,5,0,0
42386,-75.187969924812,4,2,1,70,0,0
42642,-75.187969924812,4,2,1,5,0,0
42727,-107.52688172043,4,2,1,70,0,0
44432,-97.0873786407767,4,2,1,75,0,1
66250,-97.0873786407767,4,2,1,50,0,0
87046,-97.0873786407767,4,2,1,75,0,0
88068,-117.647058823529,4,2,1,35,0,0
107159,-107.52688172043,4,2,1,55,0,0
109886,-120.481927710843,4,2,1,40,0,0
112614,-107.52688172043,4,2,1,55,0,0
115341,-120.481927710843,4,2,1,40,0,0
118068,-107.52688172043,4,2,1,55,0,0
120796,-117.647058823529,4,2,1,40,0,0
126250,-105.263157894737,4,2,1,60,0,0
128977,-86.9565217391304,4,2,1,60,0,0
129233,-86.9565217391304,4,2,1,5,0,0
129318,-80,4,2,1,65,0,0
129574,-80,4,2,1,5,0,0
129659,-74.0740740740741,4,2,1,70,0,0
129915,-74.0740740740741,4,2,1,5,0,0
130000,-105.263157894737,4,2,1,70,0,0
131705,-95.2380952380952,4,2,1,75,0,1
153523,-95.2380952380952,4,2,1,70,0,0
164432,-95.2380952380952,4,2,1,30,0,0
175341,-83.3333333333333,4,2,1,80,0,1
197159,-117.647058823529,4,2,1,40,0,0
202614,-133.333333333333,4,2,1,40,0,0

[Colours]
Combo1 : 138,217,255
Combo2 : 255,209,164
Combo3 : 255,168,168
Combo4 : 219,219,219

[HitObjects]
78,95,796,6,0,L|93:249,1,127.500004863739,2|0,0:0|0:0,0:0:0:0:
158,99,1307,1,0,0:0:0:0:
158,99,1477,2,0,L|173:253,1,127.500004863739,2|0,0:0|0:0,0:0:0:0:
238,103,1989,1,0,0:0:0:0:
280,170,2159,6,0,P|315:158|360:170,1,63.7500024318696,2|0,0:0|0:0,0:0:0:0:
382,230,2500,2,0,P|346:241|302:230,1,63.7500024318696,2|0,0:0|0:0,0:0:0:0:
206,199,2841,2,0,L|221:353,1,127.500004863739,2|0,0:0|0:0,0:0:0:0:
218,325,3523,6,0,P|159:295|88:318,1,127.500004863739,2|0,0:0|0:0,0:0:0:0:
89,181,4034,1,0,0:0:0:0:
89,181,4205,2,0,P|148:211|219:188,1,127.500004863739,2|0,0:0|0:0,0:0:0:0:
155,133,4716,1,0,0:0:0:0:
255,51,4886,6,0,P|293:42|337:50,1,63.7500024318696,2|0,0:0|0:0,0:0:0:0:
297,118,5227,2,0,P|259:127|215:119,1,63.7500024318696,2|0,0:0|0:0,0:0:0:0:
182,15,5568,2,0,P|227:70|230:143,1,127.500004863739,2|0,0:0|0:0,0:0:0:0:
233,124,6250,6,0,L|219:274,1,127.500004863739,2|0,0:0|0:0,0:0:0:0:
306,177,6761,1,0,0:0:0:0:
306,177,6932,2,0,L|292:327,1,127.500004863739,2|0,0:0|0:0,0:0:0:0:
379,227,7443,1,0,0:0:0:0:
430,289,7614,6,0,L|513:277,1,63.7500024318696,2|0,0:0|0:0,0:0:0:0:
478,364,7955,2,0,L|395:376,1,63.7500024318696,2|0,0:0|0:0,0:0:0:0:
374,208,8296,2,0,L|501:189,1,127.500004863739,2|0,0:0|0:0,0:0:0:0:
500,189,8977,6,0,P|507:129|461:72,1,127.500004863739,2|0,0:0|0:0,0:0:0:0:
396,35,9489,1,0,0:0:0:0:
396,35,9659,2,0,P|389:95|435:152,1,127.500004863739,2|0,0:0|0:0,0:0:0:0:
500,189,10171,1,0,0:0:0:0:
374,208,10341,6,0,L|290:190,1,63.7500024318696,2|0,0:0|0:0,0:0:0:0:
248,289,10682,2,0,L|310:275,1,63.7500024318696,2|0,0:0|0:0,0:0:0:0:
247,144,11023,2,0,L|107:173,1,127.500004863739,2|0,0:0|0:0,0:0:0:0:
119,254,11534,1,2,0:0:0:0:
311,194,11705,6,0,P|279:146|275:51,1,139.400002127075,6|8,0:0|0:3,0:0:0:0:
375,130,12216,1,0,0:0:0:0:
375,130,12386,2,0,P|371:72|415:-11,1,139.400002127075,10|8,0:3|0:3,0:0:0:0:
478,50,12898,1,0,0:0:0:0:
461,178,13068,6,0,L|453:270,1,69.7000010635376,6|0,0:3|0:0,0:0:0:0:
367,264,13409,2,0,L|375:356,1,69.7000010635376,10|0,0:3|0:0,0:0:0:0:
289,195,13750,2,0,L|268:363,1,139.400002127075,10|8,0:3|0:3,0:0:0:0:
187,308,14261,1,0,0:0:0:0:
111,195,14432,6,0,L|39:183,1,69.7000010635376,6|0,0:3|0:0,0:0:0:0:
43,287,14773,2,0,L|112:276,1,69.7000010635376,8|0,0:3|0:0,0:0:0:0:
135,113,15114,2,0,L|207:101,1,69.7000010635376,10|0,0:3|0:0,0:0:0:0:
203,205,15455,2,0,L|134:193,1,69.7000010635376,8|0,0:3|0:0,0:0:0:0:
271,154,15796,6,0,P|287:117|279:64,1,69.7000010635376,6|0,0:3|0:0,0:0:0:0:
368,43,16136,2,0,P|369:77|383:108,1,69.7000010635376,10|0,0:3|0:0,0:0:0:0:
503,133,16477,2,0,P|457:95|362:134,1,139.400002127075,10|8,0:3|0:3,0:0:0:0:
383,108,17159,6,0,L|397:196,1,69.7000010635376,6|0,0:0|0:0,0:0:0:0:
300,256,17500,2,0,L|314:168,1,69.7000010635376,8|0,0:3|0:0,0:0:0:0:
486,255,17841,2,0,L|476:324,1,69.7000010635376,10|0,0:3|0:0,0:0:0:0:
403,244,18182,2,0,L|393:176,1,69.7000010635376,8|0,0:3|0:0,0:0:0:0:
361,318,18523,6,0,P|320:341|283:338,1,69.7000010635376,6|0,0:3|0:0,0:0:0:0:
237,279,18864,2,0,P|278:256|315:259,1,69.7000010635376,10|0,0:3|0:0,0:0:0:0:
412,213,19205,2,0,P|377:208|349:189,1,69.7000010635376,10|0,0:3|0:0,0:0:0:0:
411,127,19546,2,0,P|445:131|473:150,1,69.7000010635376,10|0,0:3|0:0,0:0:0:0:
270,179,19886,6,0,L|90:196,1,152.999995330811,6|8,0:0|0:0,0:0:0:0:
84,61,20398,1,10,0:0:0:0:
47,141,20568,1,8,0:3:0:0:
47,141,20739,1,8,0:3:0:0:
171,71,20909,2,0,L|194:167,1,76.4999976654054,10|0,0:0|0:0,0:0:0:0:
324,247,21250,6,0,P|350:209|348:161,1,76.4999976654054,6|0,0:3|0:0,0:0:0:0:
241,258,21591,1,8,0:0:0:0:
270,179,21761,1,10,0:0:0:0:
293,329,21932,1,8,0:3:0:0:
187,196,22102,1,8,0:0:0:0:
158,273,22273,1,6,0:3:0:0:
158,273,22614,6,0,L|85:264,1,69.7000010635376,6|0,0:0|0:0,0:0:0:0:
24,190,22955,2,0,L|97:181,1,69.7000010635376,8|0,0:3|0:0,0:0:0:0:
167,140,23296,2,0,P|170:91|122:16,1,139.400002127075,10|8,0:3|0:3,0:0:0:0:
303,86,23807,6,0,P|261:140|259:209,1,139.400002127075,2|0,0:0|0:0,0:0:0:0:
328,263,24318,1,10,0:3:0:0:
375,137,24489,1,0,0:0:0:0:
446,193,24659,2,0,L|435:284,1,69.7000010635376,10|0,0:3|0:0,0:0:0:0:
375,137,25000,2,0,L|386:46,1,69.7000010635376,10|0,0:3|0:0,0:0:0:0:
328,263,25341,6,0,P|302:245|229:241,1,76.4999976654054,14|0,0:0|0:0,0:0:0:0:
137,195,25682,2,0,P|174:188|206:167,1,76.4999976654054,8|0,0:0|0:0,0:0:0:0:
139,30,26023,1,10,0:3:0:0:
139,30,26193,1,8,0:3:0:0:
75,82,26364,2,0,P|106:102|144:109,1,76.4999976654054,8|8,0:0|0:3,0:0:0:0:
269,2,26705,5,2,0:0:0:0:
214,67,26875,1,8,0:3:0:0:
333,166,27046,2,0,P|381:163|416:137,1,76.4999976654054,8|0,0:0|0:0,0:0:0:0:
299,89,27386,1,10,0:3:0:0:
299,89,27557,1,8,0:3:0:0:
206,167,27727,2,0,P|209:215|235:250,1,76.4999976654054,8|0,0:0|0:0,0:0:0:0:
326,318,28068,6,0,L|229:310,1,69.7000010635376,6|0,0:0|0:0,0:0:0:0:
153,244,28409,2,0,L|250:236,1,69.7000010635376,8|0,0:3|0:0,0:0:0:0:
115,322,28750,2,0,P|85:298|84:200,1,139.400002127075,10|8,0:3|0:3,0:0:0:0:
48,85,29261,6,0,P|78:109|79:207,1,139.400002127075,2|0,0:0|0:0,0:0:0:0:
167,106,29773,1,10,0:3:0:0:
212,181,29943,1,0,0:0:0:0:
255,104,30114,2,0,P|243:68|219:34,1,69.7000010635376,10|0,0:3|0:0,0:0:0:0:
291,230,30455,2,0,P|271:258|260:291,1,69.7000010635376,10|0,0:3|0:0,0:0:0:0:
348,112,30796,6,0,L|452:102,1,76.4999976654054,14|0,0:0|0:0,0:0:0:0:
458,270,31136,2,0,L|381:262,1,76.4999976654054,8|0,0:0|0:0,0:0:0:0:
444,184,31477,1,10,0:3:0:0:
444,184,31648,1,8,0:3:0:0:
493,352,31818,2,0,L|416:359,1,76.4999976654054,8|8,0:0|0:3,0:0:0:0:
369,249,32159,5,2,0:0:0:0:
315,330,32330,1,8,0:3:0:0:
204,211,32500,2,0,P|195:177|217:115,1,76.4999976654054,8|0,0:0|0:0,0:0:0:0:
280,252,32841,1,10,0:3:0:0:
280,252,33011,1,8,0:3:0:0:
240,374,33182,2,0,P|206:383|144:361,1,76.4999976654054,8|0,0:0|0:0,0:0:0:0:
40,276,33523,6,0,B|123:252|90:316|196:286,1,139.400002127075,6|8,0:0|0:3,0:0:0:0:
145,208,34034,1,0,0:0:0:0:
119,126,34205,2,0,P|92:140|63:188,1,69.7000010635376,10|0,0:3|0:0,0:0:0:0:
203,144,34546,2,0,P|223:171|253:188,1,69.7000010635376,10|0,0:3|0:0,0:0:0:0:
297,65,34886,6,0,P|264:101|259:205,1,139.400002127075,6|8,0:3|0:3,0:0:0:0:
339,162,35398,1,0,0:0:0:0:
423,196,35568,2,0,P|428:147|371:60,1,139.400002127075,10|8,0:3|0:3,0:0:0:0:
318,243,36250,6,0,P|331:287|343:343,1,69.7000010635376,6|0,0:3|0:0,0:0:0:0:
411,363,36591,2,0,P|419:329|429:295,1,69.7000010635376,10|0,0:3|0:0,0:0:0:0:
329,159,36932,2,0,P|316:203|304:259,1,69.7000010635376,10|0,0:3|0:0,0:0:0:0:
236,279,37273,1,8,0:3:0:0:
196,200,37443,1,0,0:0:0:0:
84,263,37614,6,0,P|129:263|156:282,1,69.7000010635376,6|0,0:3|0:0,0:0:0:0:
196,200,37955,1,8,0:3:0:0:
236,279,38125,1,0,0:0:0:0:
266,153,38296,2,0,P|259:117|251:78,1,69.7000010635376,10|0,0:3|0:0,0:0:0:0:
330,46,38636,2,0,P|337:82|345:121,1,69.7000010635376,8|0,0:3|0:0,0:0:0:0:
236,279,38977,6,0,P|312:254|419:250,1,158.10000494545,6|8,0:0|0:0,0:0:0:0:
471,197,39489,1,0,0:0:0:0:
360,75,39659,2,0,P|379:126|389:168,1,79.050002472725,8|10,0:3|0:3,0:0:0:0:
466,296,40000,2,0,P|476:257|491:221,1,79.050002472725,8|0,0:0|0:0,0:0:0:0:
304,171,40341,6,0,L|202:147,1,79.050002472725,6|0,0:3|0:0,0:0:0:0:
159,297,40682,2,0,L|236:279,1,79.050002472725,8|2,0:0|0:0,0:0:0:0:
157,206,41023,1,8,0:3:0:0:
75,329,41193,1,10,0:3:0:0:
12,194,41364,2,0,P|8:144|37:88,1,79.050002472725,8|0,0:0|0:0,0:0:0:0:
190,20,41705,6,0,P|227:80|226:152,1,144.075000439682,12|0,0:3|0:0,0:0:0:0:
271,12,42046,6,0,P|271:89|226:152,1,156.82500239296,12|0,0:3|0:0,0:0:0:0:
348,53,42386,6,0,P|304:124|226:152,1,169.574993013726,12|0,0:3|0:0,0:0:0:0:
226,234,42727,6,0,P|183:222|152:177,1,79.050002472725,12|0,0:3|0:0,0:0:0:0:
303,203,43068,5,8,0:0:0:0:
293,289,43239,2,0,L|302:342,2,39.5250012363625,2|0|0,0:0|0:0|0:0,0:0:0:0:
226,234,43580,1,2,0:0:0:0:
428,300,43750,6,0,B|443:244|443:244|435:204|435:204|453:122,1,158.10000494545,12|0,0:0|0:0,0:0:0:0:
450,122,44432,6,0,B|349:148|387:60|252:102,1,175.099998530502,6|8,0:0|0:0,0:0:0:0:
209,144,44943,1,0,0:0:0:0:
316,260,45114,2,0,P|326:214|307:167,1,87.5499992652512,10|4,0:3|0:3,0:0:0:0:
126,103,45455,2,0,P|116:149|135:196,1,87.5499992652512,8|0,0:0|0:0,0:0:0:0:
306,341,45796,6,0,L|430:349,1,87.5499992652512,6|0,0:3|0:0,0:0:0:0:
142,266,46136,2,0,L|18:258,1,87.5499992652512,8|0,0:0|0:0,0:0:0:0:
217,384,46477,2,0,B|212:319|212:319|238:278|238:278|229:181,1,175.099998530502,10|8,0:3|0:0,0:0:0:0:
142,266,46989,1,0,0:0:0:0:
37,138,47159,6,0,P|22:108|36:28,1,87.5499992652512,6|0,0:3|0:0,0:0:0:0:
155,181,47500,1,8,0:0:0:0:
155,181,47671,1,0,0:0:0:0:
177,48,47841,2,0,P|138:67|112:102,1,87.5499992652512,10|8,0:3|0:3,0:0:0:0:
232,216,48182,1,8,0:0:0:0:
232,216,48352,1,0,0:0:0:0:
315,18,48523,6,0,P|353:37|379:72,1,87.5499992652512,6|0,0:3|0:0,0:0:0:0:
377,239,48864,2,0,P|339:220|313:185,1,87.5499992652512,8|0,0:0|0:0,0:0:0:0:
241,98,49205,2,0,B|349:98|281:153|406:158,1,175.099998530502,10|8,0:3|0:0,0:0:0:0:
465,213,49716,1,0,0:0:0:0:
339,335,49886,6,0,B|236:298|285:404|140:343,1,175.099998530502,6|8,0:0|0:0,0:0:0:0:
201,271,50398,1,0,0:0:0:0:
158,125,50568,2,0,P|133:176|150:240,1,87.5499992652512,10|8,0:3|0:3,0:0:0:0:
283,250,50909,2,0,P|308:199|291:135,1,87.5499992652512,8|0,0:0|0:0,0:0:0:0:
178,39,51250,6,0,P|122:46|83:80,1,87.5499992652512,6|0,0:3|0:0,0:0:0:0:
324,81,51591,2,0,P|361:102|404:104,1,87.5499992652512,8|0,0:0|0:0,0:0:0:0:
263,10,51932,2,0,L|219:200,1,175.099998530502,10|8,0:3|0:0,0:0:0:0:
283,250,52443,1,0,0:0:0:0:
404,104,52614,6,0,P|410:47|427:-11,1,87.5499992652512,6|0,0:3|0:0,0:0:0:0:
223,180,52955,2,0,P|217:123|200:65,1,87.5499992652512,8|0,0:0|0:0,0:0:0:0:
372,186,53296,2,0,P|418:194|480:154,1,87.5499992652512,10|8,0:3|0:3,0:0:0:0:
195,264,53636,2,0,P|149:256|87:296,1,87.5499992652512,8|0,0:0|0:0,0:0:0:0:
53,165,53977,5,6,0:3:0:0:
23,245,54148,1,0,0:0:0:0:
138,151,54318,1,8,0:0:0:0:
0,99,54488,1,0,0:0:0:0:
111,269,54659,1,10,0:3:0:0:
84,87,54830,1,8,0:0:0:0:
23,245,55000,2,0,L|36:346,1,87.5499992652512,8|0,0:3|0:0,0:0:0:0:
138,151,55341,6,0,B|205:143|205:143|230:169|230:169|334:159,1,175.099998530502,6|8,0:0|0:0,0:0:0:0:
356,92,55852,1,0,0:0:0:0:
286,0,56023,2,0,P|267:30|286:113,1,87.5499992652512,10|8,0:3|0:3,0:0:0:0:
445,117,56364,2,0,P|446:73|425:36,1,87.5499992652512,8|0,0:0|0:0,0:0:0:0:
301,162,56705,6,0,L|289:305,1,131.324998897877,6|0,0:3|0:0,0:0:0:0:
288,315,57046,2,0,P|240:301|174:308,1,87.5499992652512,8|0,0:0|0:0,0:0:0:0:
80,242,57386,2,0,P|123:241|165:228,1,87.5499992652512,10|8,0:3|0:3,0:0:0:0:
126,71,57727,2,0,L|108:174,1,87.5499992652512,8|0,0:0|0:0,0:0:0:0:
32,39,58068,6,0,L|216:27,1,175.099998530502,6|8,0:3|0:0,0:0:0:0:
271,89,58580,1,0,0:0:0:0:
412,33,58750,2,0,P|370:17|321:26,1,87.5499992652512,10|8,0:3|0:3,0:0:0:0:
306,171,59091,1,8,0:0:0:0:
364,105,59261,1,0,0:0:0:0:
454,228,59432,6,0,P|462:288|437:332,1,87.5499992652512,6|0,0:3|0:0,0:0:0:0:
291,264,59773,2,0,P|333:254|375:266,1,87.5499992652512,8|0,0:0|0:0,0:0:0:0:
335,343,60114,2,0,P|292:353|251:341,1,87.5499992652512,10|8,0:3|0:3,0:0:0:0:
116,272,60455,2,0,P|158:261|199:273,1,87.5499992652512,8|0,0:0|0:0,0:0:0:0:
218,127,60796,6,0,P|175:171|229:288,1,175.099998530502,6|8,0:0|0:0,0:0:0:0:
256,205,61307,1,0,0:0:0:0:
165,65,61477,2,0,P|127:46|71:66,1,87.5499992652512,10|8,0:3|0:3,0:0:0:0:
248,44,61818,2,0,P|285:62|342:43,1,87.5499992652512,8|0,0:0|0:0,0:0:0:0:
425,204,62159,5,6,0:3:0:0:
455,121,62330,1,0,0:0:0:0:
340,218,62500,1,8,0:0:0:0:
508,190,62671,1,0,0:0:0:0:
366,136,62841,2,0,P|328:132|264:174,1,87.5499992652512,10|8,0:3|0:3,0:0:0:0:
392,287,63182,2,0,P|435:294|498:252,1,87.5499992652512,8|0,0:0|0:0,0:0:0:0:
254,232,63523,5,6,0:0:0:0:
307,301,63693,1,0,0:0:0:0:
173,347,63864,1,8,0:0:0:0:
172,262,64035,1,10,0:3:0:0:
257,372,64205,1,0,0:0:0:0:
99,306,64375,1,8,0:3:0:0:
254,232,64546,1,10,0:0:0:0:
173,347,64716,1,0,0:0:0:0:
188,176,64886,5,10,0:0:0:0:
257,372,65057,1,0,0:0:0:0:
269,146,65227,5,10,0:0:0:0:
173,347,65398,1,0,0:0:0:0:
203,91,65568,5,10,0:0:0:0:
344,380,65909,1,8,0:0:0:0:
23,357,66250,1,12,0:0:0:0:
111,95,87046,5,4,0:3:0:0:
270,161,87216,2,0,L|381:145,1,87.5499992652512,8|0,0:0|0:0,0:0:0:0:
111,95,87557,5,8,0:0:0:0:
189,130,87727,1,8,0:3:0:0:
189,130,88068,6,0,P|160:175|166:293,1,144.500002756119,6|8,0:0|0:3,0:0:0:0:
241,250,88580,1,0,0:0:0:0:
270,161,88750,2,0,P|267:214|331:313,1,144.500002756119,10|8,0:3|0:3,0:0:0:0:
378,248,89261,1,0,0:0:0:0:
465,170,89432,6,0,P|412:157|368:182,1,72.2500013780594,6|0,0:3|0:0,0:0:0:0:
309,91,89773,2,0,P|347:97|384:84,1,72.2500013780594,10|0,0:3|0:0,0:0:0:0:
419,19,90114,2,0,L|392:184,1,144.500002756119,10|8,0:3|0:3,0:0:0:0:
241,47,90796,6,0,P|202:16|86:27,1,144.500002756119,6|8,0:3|0:3,0:0:0:0:
73,87,91307,1,0,0:0:0:0:
175,123,91477,2,0,P|97:121|37:170,1,144.500002756119,10|8,0:3|0:3,0:0:0:0:
16,235,91989,1,0,0:0:0:0:
108,312,92159,6,0,P|106:268|76:221,1,72.2500013780594,6|0,0:3|0:0,0:0:0:0:
209,196,92500,2,0,P|193:228|191:263,1,72.2500013780594,10|0,0:3|0:0,0:0:0:0:
315,274,92841,2,0,P|256:237|191:263,1,144.500002756119,10|8,0:3|0:3,0:0:0:0:
249,320,93352,1,0,0:0:0:0:
400,311,93523,6,0,L|381:137,1,144.500002756119,6|8,0:0|0:3,0:0:0:0:
303,157,94034,1,0,0:0:0:0:
263,227,94205,2,0,L|282:53,1,144.500002756119,10|8,0:3|0:3,0:0:0:0:
200,92,94716,1,0,0:0:0:0:
80,60,94886,6,0,P|120:35|177:44,1,72.2500013780594,6|0,0:3|0:0,0:0:0:0:
192,168,95227,2,0,L|182:262,1,72.2500013780594,10|0,0:3|0:0,0:0:0:0:
200,92,95568,2,0,B|289:69|243:142|365:118,1,144.500002756119,10|8,0:3|0:3,0:0:0:0:
456,306,96250,6,0,P|436:244|351:203,1,144.500002756119,6|8,0:3|0:3,0:0:0:0:
303,256,96761,1,0,0:0:0:0:
267,334,96932,2,0,P|280:270|227:192,1,144.500002756119,10|8,0:3|0:3,0:0:0:0:
156,199,97443,1,0,0:0:0:0:
30,260,97614,6,0,L|121:274,1,72.2500013780594,6|0,0:3|0:0,0:0:0:0:
146,114,97955,2,0,L|55:128,1,72.2500013780594,10|0,0:3|0:0,0:0:0:0:
156,199,98296,2,0,P|212:165|214:68,1,144.500002756119,10|8,0:3|0:3,0:0:0:0:
146,114,98807,1,0,0:0:0:0:
108,272,98977,6,0,P|167:282|274:308,1,144.500002756119,6|8,0:0|0:3,0:0:0:0:
307,237,99489,1,0,0:0:0:0:
231,203,99659,2,0,P|290:193|397:167,1,144.500002756119,10|8,0:3|0:3,0:0:0:0:
417,94,100171,1,0,0:0:0:0:
249,73,100341,6,0,P|229:47|219:0,1,72.2500013780594,6|0,0:3|0:0,0:0:0:0:
303,12,100682,2,0,P|323:38|333:85,1,72.2500013780594,10|0,0:3|0:0,0:0:0:0:
228,157,101023,2,0,P|267:95|366:83,1,144.500002756119,10|8,0:3|0:3,0:0:0:0:
460,242,101705,6,0,P|470:191|459:143,1,72.2500013780594,6|0,0:3|0:0,0:0:0:0:
382,195,102046,2,0,P|371:247|382:295,1,72.2500013780594,8|0,0:3|0:0,0:0:0:0:
208,304,102386,2,0,P|197:254|208:209,1,72.2500013780594,10|0,0:3|0:0,0:0:0:0:
286,258,102727,2,0,P|296:308|285:356,1,72.2500013780594,8|0,0:3|0:0,0:0:0:0:
141,352,103068,6,0,L|49:331,1,72.2500013780594,6|0,0:3|0:0,0:0:0:0:
14,263,103409,2,0,L|106:242,1,72.2500013780594,10|0,0:3|0:0,0:0:0:0:
218,198,103750,2,0,P|154:188|115:106,1,144.500002756119,10|8,0:3|0:3,0:0:0:0:
296,68,104432,6,0,L|283:171,1,72.2500013780594,6|0,0:0|0:0,0:0:0:0:
366,133,104773,2,0,L|379:236,1,72.2500013780594,8|0,0:3|0:0,0:0:0:0:
458,196,105114,2,0,L|445:299,1,72.2500013780594,10|0,0:3|0:0,0:0:0:0:
368,250,105455,2,0,L|377:328,1,72.2500013780594,8|0,0:3|0:0,0:0:0:0:
266,363,105796,6,0,P|227:369|187:346,1,72.2500013780594,6|0,0:3|0:0,0:0:0:0:
165,275,106136,2,0,P|204:269|244:292,1,72.2500013780594,10|0,0:3|0:0,0:0:0:0:
329,174,106477,2,0,P|347:139|341:101,1,72.2500013780594,10|0,0:3|0:0,0:0:0:0:
265,128,106818,2,0,P|247:163|251:205,1,72.2500013780594,10|0,0:3|0:0,0:0:0:0:
99,336,107159,6,0,P|80:292|160:188,1,158.10000494545,6|8,0:0|0:0,0:0:0:0:
173,127,107671,1,10,0:0:0:0:
25,28,107841,1,8,0:3:0:0:
25,28,108011,1,8,0:3:0:0:
39,116,108182,2,0,P|89:91|110:46,1,79.050002472725,10|0,0:0|0:0,0:0:0:0:
216,203,108523,6,0,P|241:232|278:245,1,79.050002472725,6|0,0:3|0:0,0:0:0:0:
346,91,108864,1,8,0:0:0:0:
293,161,109034,1,10,0:0:0:0:
258,80,109205,1,8,0:3:0:0:
380,173,109375,1,8,0:0:0:0:
216,203,109546,1,6,0:3:0:0:
216,203,109886,6,0,P|160:189|129:191,1,70.5500010226822,6|0,0:0|0:0,0:0:0:0:
154,105,110227,2,0,P|98:120|72:138,1,70.5500010226822,8|0,0:3|0:0,0:0:0:0:
10,100,110568,2,0,P|52:141|67:246,1,141.100002045364,10|8,0:3|0:3,0:0:0:0:
154,322,111080,6,0,P|168:253|215:202,1,141.100002045364,2|0,0:0|0:0,0:0:0:0:
278,261,111591,1,10,0:3:0:0:
337,114,111761,1,0,0:0:0:0:
399,173,111932,2,0,P|355:196|306:194,1,70.5500010226822,10|0,0:3|0:0,0:0:0:0:
272,139,112273,2,0,P|316:116|365:118,1,70.5500010226822,10|0,0:3|0:0,0:0:0:0:
479,205,112614,6,0,L|453:304,1,79.050002472725,14|0,0:0|0:0,0:0:0:0:
370,280,112955,2,0,L|396:379,1,79.050002472725,8|0,0:0|0:0,0:0:0:0:
209,317,113296,1,10,0:3:0:0:
209,317,113466,1,8,0:3:0:0:
305,207,113636,2,0,L|279:306,1,79.050002472725,8|8,0:0|0:3,0:0:0:0:
167,194,113977,5,2,0:0:0:0:
126,273,114148,1,8,0:3:0:0:
6,230,114318,2,0,P|42:202|102:206,1,79.050002472725,8|0,0:0|0:0,0:0:0:0:
209,117,114659,1,10,0:3:0:0:
209,117,114830,1,8,0:3:0:0:
144,0,115000,2,0,P|126:48|148:106,1,79.050002472725,8|0,0:0|0:0,0:0:0:0:
295,139,115341,6,0,P|297:99|280:64,1,70.5500010226822,6|0,0:0|0:0,0:0:0:0:
388,24,115682,2,0,P|375:56|378:91,1,70.5500010226822,8|0,0:3|0:0,0:0:0:0:
495,45,116023,2,0,P|439:39|374:105,1,141.100002045364,10|8,0:3|0:3,0:0:0:0:
218,161,116534,6,0,P|274:155|339:221,1,141.100002045364,2|0,0:0|0:0,0:0:0:0:
265,324,117046,1,10,0:3:0:0:
257,241,117216,1,0,0:0:0:0:
347,343,117386,2,0,L|426:323,1,70.5500010226822,10|0,0:3|0:0,0:0:0:0:
257,241,117727,2,0,L|178:261,1,70.5500010226822,10|0,0:3|0:0,0:0:0:0:
65,103,118068,6,0,P|88:152|92:205,1,79.050002472725,14|0,0:0|0:0,0:0:0:0:
138,312,118409,2,0,P|146:273|165:238,1,79.050002472725,8|0,0:0|0:0,0:0:0:0:
257,142,118750,1,10,0:3:0:0:
257,142,118921,1,8,0:3:0:0:
325,200,119091,2,0,P|283:226|249:229,1,79.050002472725,8|8,0:0|0:3,0:0:0:0:
186,91,119432,5,2,0:0:0:0:
257,142,119602,1,8,0:3:0:0:
352,28,119773,2,0,P|378:25|437:58,1,79.050002472725,8|0,0:0|0:0,0:0:0:0:
272,56,120114,1,10,0:3:0:0:
272,56,120284,1,8,0:3:0:0:
173,177,120455,2,0,P|147:180|88:147,1,79.050002472725,8|0,0:0|0:0,0:0:0:0:
87,15,120796,6,0,L|100:169,1,144.500002756119,6|8,0:0|0:3,0:0:0:0:
16,137,121307,1,0,0:0:0:0:
35,222,121477,2,0,P|74:244|118:243,1,72.2500013780594,10|0,0:3|0:0,0:0:0:0:
151,320,121818,2,0,P|115:324|85:344,1,72.2500013780594,10|0,0:3|0:0,0:0:0:0:
187,241,122159,6,0,P|230:269|338:293,1,144.500002756119,6|8,0:3|0:3,0:0:0:0:
307,204,122671,1,0,0:0:0:0:
330,117,122841,2,0,P|258:123|192:152,1,144.500002756119,10|8,0:3|0:3,0:0:0:0:
395,186,123523,6,0,P|419:144|420:89,1,72.2500013780594,6|0,0:3|0:0,0:0:0:0:
314,46,123864,2,0,L|334:136,1,72.2500013780594,10|0,0:3|0:0,0:0:0:0:
241,224,124205,2,0,L|256:153,1,72.2500013780594,10|0,0:3|0:0,0:0:0:0:
196,90,124546,1,8,0:3:0:0:
160,168,124716,1,0,0:0:0:0:
54,56,124886,5,6,0:3:0:0:
81,138,125057,2,0,L|65:217,1,72.2500013780594,0|8,0:0|0:3,0:0:0:0:
98,323,125398,1,0,0:0:0:0:
22,284,125568,2,0,L|172:279,1,144.500002756119,10|8,0:3|0:3,0:0:0:0:
228,217,126080,1,0,0:0:0:0:
141,45,126250,6,0,B|112:93|112:93|155:227,1,161.499995687485,6|8,0:0|0:0,0:0:0:0:
208,137,126761,1,0,0:0:0:0:
306,253,126932,2,0,P|354:261|400:235,1,80.7499978437424,8|10,0:3|0:3,0:0:0:0:
352,95,127273,2,0,L|338:175,1,80.7499978437424,8|0,0:0|0:0,0:0:0:0:
454,298,127614,6,0,L|468:218,1,80.7499978437424,6|0,0:3|0:0,0:0:0:0:
306,253,127955,2,0,P|354:261|400:235,1,80.7499978437424,8|2,0:0|0:0,0:0:0:0:
352,95,128296,1,8,0:3:0:0:
253,191,128466,1,10,0:3:0:0:
368,329,128636,2,0,L|382:249,1,80.7499978437424,8|0,0:0|0:0,0:0:0:0:
187,131,128977,6,0,B|163:178|163:178|192:268,1,146.62500279665,12|0,0:3|0:0,0:0:0:0:
110,143,129318,6,0,B|112:195|112:195|192:268,1,159.375,12|0,0:3|0:0,0:0:0:0:
45,197,129659,6,0,B|73:241|73:241|191:267,1,172.125000656605,12|0,0:3|0:0,0:0:0:0:
245,330,130000,6,0,B|267:296|267:296|272:232,1,80.7499978437424,12|0,0:3|0:0,0:0:0:0:
360,134,130341,5,8,0:0:0:0:
343,217,130511,1,2,0:0:0:0:
343,217,130597,1,0,0:0:0:0:
343,217,130682,1,4,0:3:0:0:
424,191,130852,1,2,0:0:0:0:
258,160,131023,5,12,0:0:0:0:
446,100,131193,1,10,0:0:0:0:
468,107,131278,1,8,0:0:0:0:
487,121,131363,1,8,0:0:0:0:
406,292,131534,1,10,0:0:0:0:
274,75,131705,6,0,B|175:58|217:159|82:121,1,178.499994552612,6|8,0:0|0:0,0:0:0:0:
128,40,132216,1,0,0:0:0:0:
258,160,132386,2,8,P|273:195|240:272,1,89.2499972763062,10|8,0:3|0:3,0:0:0:0:
45,176,132727,2,0,P|30:141|63:64,1,89.2499972763062,8|0,0:0|0:0,0:0:0:0:
286,80,133068,6,0,P|324:66|400:70,1,89.2499972763062,6|0,0:3|0:0,0:0:0:0:
309,328,133409,2,0,P|264:326|222:312,1,89.2499972763062,8|0,0:0|0:0,0:0:0:0:
279,160,133750,1,10,0:3:0:0:
369,267,133921,1,8,0:3:0:0:
417,134,134091,1,8,0:0:0:0:
285,244,134261,1,0,0:0:0:0:
449,291,134432,6,0,L|551:271,1,89.2499972763062,6|0,0:3|0:0,0:0:0:0:
417,134,134773,1,8,0:0:0:0:
369,267,134943,1,0,0:0:0:0:
279,160,135114,2,8,L|177:140,1,89.2499972763062,10|8,0:3|0:3,0:0:0:0:
134,329,135455,2,0,L|236:309,1,89.2499972763062,8|0,0:0|0:0,0:0:0:0:
118,187,135796,6,0,P|104:145|164:61,1,133.874995914459,6|0,0:3|0:0,0:0:0:0:
166,66,136136,2,0,P|114:68|65:25,1,89.2499972763062,8|0,0:0|0:0,0:0:0:0:
191,142,136477,1,10,0:3:0:0:
235,23,136648,1,8,0:3:0:0:
328,155,136818,2,0,P|317:81|295:41,1,89.2499972763062,8|0,0:0|0:0,0:0:0:0:
105,174,137159,6,0,P|170:230|252:206,1,178.499994552612,6|8,0:0|0:0,0:0:0:0:
191,142,137671,1,0,0:0:0:0:
62,65,137841,2,8,P|82:128|92:166,1,89.2499972763062,10|8,0:3|0:3,0:0:0:0:
208,118,138182,2,0,P|220:75|234:32,1,89.2499972763062,8|0,0:0|0:0,0:0:0:0:
282,254,138523,6,0,P|310:267|368:256,1,89.2499972763062,6|0,0:3|0:0,0:0:0:0:
101,241,138864,2,0,P|58:229|17:244,1,89.2499972763062,8|0,0:0|0:0,0:0:0:0:
186,345,139205,1,10,0:3:0:0:
197,192,139375,1,8,0:3:0:0:
104,358,139546,1,8,0:0:0:0:
267,330,139716,1,0,0:0:0:0:
99,188,139886,6,0,P|131:277|134:297,1,89.2499972763062,6|0,0:3|0:0,0:0:0:0:
303,144,140227,2,0,P|271:233|268:253,1,89.2499972763062,8|0,0:0|0:0,0:0:0:0:
62,109,140568,2,8,P|18:156|9:196,1,89.2499972763062,10|8,0:3|0:3,0:0:0:0:
336,65,140909,2,0,P|380:112|389:152,1,89.2499972763062,8|0,0:0|0:0,0:0:0:0:
215,293,141250,5,6,0:3:0:0:
347,261,141421,1,0,0:0:0:0:
189,217,141591,5,8,0:0:0:0:
297,328,141761,1,0,0:0:0:0:
134,281,141932,5,10,0:3:0:0:
321,187,142102,1,8,0:0:0:0:
146,148,142273,2,0,L|33:121,1,89.2499972763062,8|0,0:3|0:0,0:0:0:0:
305,101,142614,6,0,B|411:79|356:174|478:142,1,178.499994552612,6|8,0:0|0:0,0:0:0:0:
450,58,143125,1,0,0:0:0:0:
321,187,143296,2,8,P|341:248|343:282,1,89.2499972763062,10|8,0:3|0:3,0:0:0:0:
146,148,143636,2,0,P|152:103|168:62,1,89.2499972763062,8|0,0:0|0:0,0:0:0:0:
169,233,143977,6,0,P|127:245|63:233,1,89.2499972763062,6|0,0:3|0:0,0:0:0:0:
327,102,144318,2,0,P|371:97|413:109,1,89.2499972763062,8|0,0:0|0:0,0:0:0:0:
248,167,144659,1,10,0:3:0:0:
168,62,144830,1,8,0:3:0:0:
82,240,145000,2,0,P|75:296|106:346,1,89.2499972763062,8|0,0:0|0:0,0:0:0:0:
313,221,145341,6,0,P|276:177|219:166,1,89.2499972763062,6|0,0:3|0:0,0:0:0:0:
183,329,145682,1,8,0:0:0:0:
229,255,145852,1,0,0:0:0:0:
360,305,146023,2,8,L|465:288,1,89.2499972763062,10|8,0:3|0:3,0:0:0:0:
457,140,146364,1,8,0:0:0:0:
503,214,146534,1,0,0:0:0:0:
338,178,146705,6,0,L|249:163,1,89.2499972763062,6|0,0:3|0:0,0:0:0:0:
153,86,147046,2,0,L|241:71,1,89.2499972763062,8|0,0:0|0:0,0:0:0:0:
219,249,147386,2,8,L|198:342,1,89.2499972763062,10|8,0:3|0:3,0:0:0:0:
87,159,147727,2,0,L|108:252,1,89.2499972763062,8|0,0:0|0:0,0:0:0:0:
299,349,148068,6,0,P|354:330|409:330,1,89.2499972763062,6|0,0:0|0:0,0:0:0:0:
249,163,148409,2,0,P|304:182|359:182,1,89.2499972763062,8|0,0:0|0:0,0:0:0:0:
210,349,148750,2,8,P|265:330|320:330,1,89.2499972763062,10|8,0:3|0:3,0:0:0:0:
160,163,149091,2,0,P|215:182|270:182,1,89.2499972763062,8|0,0:0|0:0,0:0:0:0:
65,349,149432,5,6,0:3:0:0:
101,225,149602,1,0,0:0:0:0:
136,384,149773,1,8,0:0:0:0:
29,189,149943,1,0,0:0:0:0:
160,163,150114,2,8,P|204:167|245:184,1,89.2499972763062,10|8,0:3|0:3,0:0:0:0:
351,82,150455,2,0,P|309:98|265:103,1,89.2499972763062,8|0,0:0|0:0,0:0:0:0:
185,250,150796,5,6,0:0:0:0:
265,103,150966,1,0,0:0:0:0:
273,273,151136,1,8,0:0:0:0:
160,163,151307,1,10,0:3:0:0:
130,320,151477,1,0,0:0:0:0:
245,184,151648,1,8,0:3:0:0:
305,351,151818,1,10,0:0:0:0:
185,250,151989,1,0,0:0:0:0:
357,287,152159,5,10,0:0:0:0:
130,320,152330,1,0,0:0:0:0:
328,207,152500,5,10,0:0:0:0:
160,163,152671,1,0,0:0:0:0:
305,351,152841,5,10,0:0:0:0:
307,120,153011,1,0,0:0:0:0:
303,110,153182,1,10,0:0:0:0:
299,100,153352,1,0,0:0:0:0:
185,250,153523,6,0,P|145:239|79:237,1,89.2499972763062,6|0,0:0|0:0,0:0:0:0:
22,111,153864,2,0,P|66:108|109:96,1,89.2499972763062,8|0,0:0|0:0,0:0:0:0:
18,199,154205,1,10,0:3:0:0:
18,199,154375,1,10,0:3:0:0:
124,343,154546,2,0,P|168:340|211:328,1,89.2499972763062,10|0,0:0|0:0,0:0:0:0:
295,183,154886,6,0,P|271:256|271:288,1,89.2499972763062,6|0,0:3|0:0,0:0:0:0:
415,127,155227,2,0,P|439:200|439:232,1,89.2499972763062,8|0,0:0|0:0,0:0:0:0:
330,92,155568,1,10,0:3:0:0:
374,280,155739,1,10,0:3:0:0:
399,40,155909,1,10,0:0:0:0:
295,183,156080,1,0,0:0:0:0:
162,58,156250,6,0,P|203:45|258:45,1,89.2499972763062,6|0,0:3|0:0,0:0:0:0:
105,219,156591,2,0,P|146:232|201:232,1,89.2499972763062,8|0,0:0|0:0,0:0:0:0:
38,148,156932,1,10,0:3:0:0:
78,69,157102,1,10,0:3:0:0:
206,146,157273,2,0,L|301:127,1,89.2499972763062,10|0,0:0|0:0,0:0:0:0:
442,34,157614,5,6,0:3:0:0:
359,0,157784,1,0,0:0:0:0:
454,129,157955,1,8,0:0:0:0:
373,89,158125,1,0,0:0:0:0:
468,218,158296,2,8,P|484:274|463:315,1,89.2499972763062,10|10,0:3|0:3,0:0:0:0:
387,178,158636,1,10,0:0:0:0:
296,338,158807,1,0,0:0:0:0:
136,167,158977,6,0,P|125:121|130:77,1,89.2499972763062,6|0,0:0|0:0,0:0:0:0:
307,253,159318,1,10,3:2:0:0:
281,231,159403,1,0,3:0:0:0:
249,221,159488,1,0,3:0:0:0:
216,224,159573,1,0,3:0:0:0:
187,239,159658,1,10,3:3:0:0:
158,254,159744,1,0,3:0:0:0:
125,257,159829,1,10,3:3:0:0:
93,247,159914,1,0,3:0:0:0:
68,226,160000,2,0,P|55:187|42:164,2,44.6249986381531,10|0|0,3:2|0:0|0:0,0:0:0:0:
239,312,160341,6,0,P|250:220|290:127,1,178.499994552612,6|8,0:3|0:0,0:0:0:0:
472,290,160852,2,0,B|369:273|417:365|300:345,1,178.499994552612,2|8,0:0|0:3,0:0:0:0:
459,380,161364,1,10,0:0:0:0:
323,266,161534,1,0,0:0:0:0:
464,87,161705,5,14,0:0:0:0:
396,314,161875,1,8,0:3:0:0:
400,322,162216,1,10,0:3:0:0:
404,330,162557,1,10,0:3:0:0:
405,234,162727,1,0,0:0:0:0:
218,362,162898,5,14,0:0:0:0:
256,192,162983,12,0,164432,0:0:0:0:
435,186,175341,6,0,P|337:144|240:142,1,203.999993774414,6|8,0:0|0:0,0:0:0:0:
180,216,175852,1,0,0:0:0:0:
50,104,176023,2,8,P|34:58|28:4,1,101.999996887207,10|8,0:3|0:3,0:0:0:0:
180,216,176364,2,0,P|173:266|157:315,1,101.999996887207,8|0,0:0|0:0,0:0:0:0:
126,59,176705,6,0,L|237:44,1,101.999996887207,6|0,0:3|0:0,0:0:0:0:
93,246,177046,2,0,L|-18:261,1,101.999996887207,8|0,0:0|0:0,0:0:0:0:
232,138,177386,1,10,0:3:0:0:
262,291,177557,1,8,0:3:0:0:
303,82,177727,1,8,0:0:0:0:
180,216,177898,1,0,0:0:0:0:
368,313,178068,6,0,P|401:263|391:218,1,101.999996887207,6|0,0:3|0:0,0:0:0:0:
318,174,178409,1,8,0:0:0:0:
318,174,178580,1,0,0:0:0:0:
179,302,178750,2,8,P|238:305|272:274,1,101.999996887207,10|8,0:3|0:3,0:0:0:0:
232,138,179091,1,8,0:0:0:0:
180,216,179261,1,0,0:0:0:0:
50,104,179432,6,0,P|88:72|167:74,1,101.999996887207,6|0,0:3|0:0,0:0:0:0:
328,79,179773,2,0,P|276:65|236:29,1,101.999996887207,8|0,0:0|0:0,0:0:0:0:
468,17,180114,1,10,0:3:0:0:
420,96,180284,1,8,0:3:0:0:
495,261,180455,2,0,P|510:307|492:361,1,101.999996887207,8|0,0:0|0:0,0:0:0:0:
275,158,180796,6,0,B|396:131|348:214|486:176,1,203.999993774414,6|8,0:0|0:0,0:0:0:0:
314,248,181307,1,0,0:0:0:0:
205,107,181477,2,8,P|201:40|216:9,1,101.999996887207,10|8,0:3|0:3,0:0:0:0:
175,198,181818,2,0,P|178:266|163:298,1,101.999996887207,8|0,0:0|0:0,0:0:0:0:
294,76,182159,6,0,L|401:60,1,101.999996887207,6|0,0:3|0:0,0:0:0:0:
120,133,182500,2,0,L|13:117,1,101.999996887207,8|0,0:0|0:0,0:0:0:0:
279,165,182841,1,10,0:3:0:0:
94,214,183011,1,8,0:3:0:0:
284,244,183182,1,8,0:0:0:0:
197,175,183352,1,0,0:0:0:0:
39,279,183523,6,0,P|62:341|66:382,1,101.999996887207,6|0,0:3|0:0,0:0:0:0:
317,235,183864,2,0,P|294:297|290:338,1,101.999996887207,8|0,0:0|0:0,0:0:0:0:
13,100,184205,2,8,P|39:160|51:208,1,101.999996887207,10|8,0:3|0:3,0:0:0:0:
387,4,184546,2,0,P|361:64|349:112,1,101.999996887207,8|0,0:0|0:0,0:0:0:0:
158,121,184886,6,0,P|224:147|252:136,1,101.999996887207,6|0,0:3|0:0,0:0:0:0:
184,31,185227,2,0,P|133:27|90:56,1,101.999996887207,8|0,0:0|0:0,0:0:0:0:
232,239,185568,1,10,0:3:0:0:
351,99,185739,1,4,0:3:0:0:
426,283,185909,2,0,L|414:391,1,101.999996887207,8|0,0:0|0:0,0:0:0:0:
250,138,186250,6,0,P|169:156|136:284,1,203.999993774414,6|8,0:0|0:0,0:0:0:0:
232,239,186761,1,0,0:0:0:0:
352,100,186932,2,8,P|333:43|325:0,1,101.999996887207,10|8,0:3|0:3,0:0:0:0:
161,67,187273,2,0,P|141:126|133:171,1,101.999996887207,8|0,0:0|0:0,0:0:0:0:
351,192,187614,6,0,P|399:199|460:214,1,101.999996887207,6|0,0:3|0:0,0:0:0:0:
147,256,187955,2,0,P|95:266|44:273,1,101.999996887207,8|0,0:0|0:0,0:0:0:0:
342,376,188296,2,8,P|351:339|340:271,1,101.999996887207,10|8,0:3|0:3,0:0:0:0:
239,137,188636,2,0,P|230:174|241:242,1,101.999996887207,8|0,0:0|0:0,0:0:0:0:
48,372,188977,6,0,P|56:336|45:270,1,101.999996887207,6|0,0:3|0:0,0:0:0:0:
239,137,189318,2,0,P|230:174|241:242,1,101.999996887207,8|0,0:0|0:0,0:0:0:0:
16,168,189659,2,8,P|74:170|120:185,1,101.999996887207,10|8,0:3|0:3,0:0:0:0:
387,39,190000,2,0,P|337:51|285:52,1,101.999996887207,8|0,0:0|0:0,0:0:0:0:
161,273,190341,6,0,P|183:329|194:374,1,101.999996887207,6|0,0:3|0:0,0:0:0:0:
339,235,190682,2,0,P|354:180|375:127,1,101.999996887207,8|0,0:0|0:0,0:0:0:0:
248,254,191023,1,10,0:3:0:0:
382,313,191193,1,8,0:3:0:0:
161,273,191364,2,0,P|105:287|57:308,1,101.999996887207,8|0,0:0|0:0,0:0:0:0:
20,29,191705,6,0,P|35:95|40:141,1,101.999996887207,6|0,0:0|0:0,0:0:0:0:
306,49,192046,2,0,P|291:115|286:161,1,101.999996887207,8|0,0:0|0:0,0:0:0:0:
20,137,192386,2,8,P|35:203|40:249,1,101.999996887207,10|8,0:3|0:3,0:0:0:0:
306,157,192727,2,0,P|291:223|286:269,1,101.999996887207,8|0,0:0|0:0,0:0:0:0:
120,65,193068,5,6,0:3:0:0:
197,220,193239,1,0,0:0:0:0:
202,35,193409,5,8,0:0:0:0:
118,238,193580,1,8,0:0:0:0:
276,199,193750,6,0,L|377:178,1,101.999996887207,10|8,0:3|0:3,0:0:0:0:
87,167,194091,2,0,L|-14:146,1,101.999996887207,8|0,0:0|0:0,0:0:0:0:
241,116,194432,5,6,0:0:0:0:
160,328,194602,1,8,0:0:0:0:
159,124,194773,5,8,0:0:0:0:
248,309,194943,1,10,0:3:0:0:
190,46,195114,5,8,0:0:0:0:
102,265,195284,1,8,0:3:0:0:
105,56,195455,5,10,0:0:0:0:
273,226,195625,1,8,0:3:0:0:
23,67,195796,5,10,0:0:0:0:
241,116,195966,1,0,0:0:0:0:
50,203,196136,5,10,0:0:0:0:
279,39,196307,1,0,0:0:0:0:
316,320,196477,5,10,0:0:0:0:
214,184,196818,5,8,0:0:0:0:
214,184,197159,5,4,0:0:0:0:
149,240,197330,2,0,P|129:197|181:107,1,144.500002756119,2|0,0:0|0:0,0:0:0:0:
214,184,197841,2,0,L|297:176,1,72.2500013780594,2|8,0:0|0:3,0:0:0:0:
345,113,198182,1,2,0:0:0:0:
345,113,198523,5,4,0:3:0:0:
369,197,198693,2,0,L|351:352,1,144.500002756119,2|0,0:0|0:0,0:0:0:0:
279,280,199205,1,2,0:0:0:0:
269,365,199375,1,8,0:3:0:0:
199,314,199546,1,2,0:0:0:0:
199,314,199886,5,4,0:3:0:0:
126,362,200057,2,0,P|58:357|17:286,1,144.500002756119,2|0,0:0|0:0,0:0:0:0:
102,280,200568,2,0,L|89:193,1,72.2500013780594,2|8,0:0|0:3,0:0:0:0:
136,135,200909,1,2,0:0:0:0:
136,135,201250,5,4,0:3:0:0:
176,210,201421,2,0,B|247:233|239:174|320:203,1,144.500002756119,2|0,0:0|0:0,0:0:0:0:
286,282,201932,1,2,0:0:0:0:
370,270,202102,1,8,0:3:0:0:
338,350,202273,1,2,0:0:0:0:
315,201,202443,1,8,0:3:0:0:
315,201,202528,1,8,0:3:0:0:
315,201,202614,5,4,0:3:0:0:
370,270,202784,2,0,P|399:225|382:146,1,127.500004863739,2|0,0:0|0:0,0:0:0:0:
315,201,203296,2,0,L|234:211,2,63.7500024318696,2|0|0,0:0|0:0|0:0,0:0:0:0:
359,77,203977,5,2,0:0:0:0:
359,77,204148,2,0,L|222:61,1,127.500004863739,2|0,0:0|0:0,0:0:0:0:
159,109,204659,2,0,P|146:78|150:35,1,63.7500024318696,2|0,0:0|0:0,0:0:0:0:
232,62,205000,2,0,P|245:93|241:136,1,63.7500024318696,2|0,0:0|0:0,0:0:0:0:
190,188,205341,5,2,0:0:0:0:
190,188,205511,2,0,P|130:160|50:157,1,127.500004863739,2|0,0:0|0:0,0:0:0:0:
5,212,206023,2,0,P|35:235|84:237,2,63.7500024318696,2|0|0,0:0|0:0|0:0,0:0:0:0:
28,80,206705,5,2,0:0:0:0:
28,80,206875,2,0,L|157:58,1,127.500004863739,2|0,0:0|0:0,0:0:0:0:
236,35,207386,2,0,L|219:128,1,63.7500024318696,2|0,0:0|0:0,0:0:0:0:
297,145,207727,2,0,L|314:52,1,63.7500024318696,2|0,0:0|0:0,0:0:0:0:
