osu file format v14

[General]
AudioFilename: audio.mp3
AudioLeadIn: 0
PreviewTime: 44347
Countdown: 0
SampleSet: Soft
StackLeniency: 0.5
Mode: 0
LetterboxInBreaks: 0
WidescreenStoryboard: 1

[Editor]
Bookmarks: 16444,64682
DistanceSpacing: 1.2
BeatDivisor: 4
GridSize: 32
TimelineZoom: 1.6

[Metadata]
Title:Toosenbou
TitleUnicode:とおせんぼう
Artist:mafumafu
ArtistUnicode:まふまふ
Creator:William K
Version:Normal
Source:
Tags:keep out kagurairo artifact 神楽色アーティファクト
BeatmapID:2226205
BeatmapSetID:873264

[Difficulty]
HPDrainRate:4
CircleSize:3.6
OverallDifficulty:4.5
ApproachRate:5
SliderMultiplier:1
SliderTickRate:1

[Events]
//Background and Video events
Video,-648,"vid.mp4"
0,0,"toosenbou.jpg",0,0
//Break Periods
2,66450,85846
2,164632,174141
//Storyboard Layer 0 (Background)
//Storyboard Layer 1 (Fail)
//Storyboard Layer 2 (Pass)
//Storyboard Layer 3 (Foreground)
//Storyboard Layer 4 (Overlay)
//Storyboard Sound Samples

[TimingPoints]
796,340.909090909091,4,2,1,28,1,0
796,-111.111111111111,4,2,1,28,0,0
11705,-100,4,2,1,36,0,0
19886,-100,4,2,1,55,0,0
22614,-100,4,2,1,40,0,0
25341,-100,4,2,1,55,0,0
28068,-100,4,2,1,40,0,0
30796,-100,4,2,1,55,0,0
33523,-100,4,2,1,40,0,0
38977,-100,4,2,1,60,0,0
41705,-100,4,2,1,60,0,0
41960,-100,4,2,1,5,0,0
42046,-100,4,2,1,65,0,0
42301,-100,4,2,1,5,0,0
42386,-100,4,2,1,70,0,0
42642,-100,4,2,1,5,0,0
42727,-100,4,2,1,70,0,0
44432,-100,4,2,1,75,0,1
66250,-100,4,2,1,50,0,0
87046,-100,4,2,1,75,0,0
88068,-100,4,2,1,35,0,0
107159,-100,4,2,1,55,0,0
109886,-100,4,2,1,40,0,0
112614,-100,4,2,1,55,0,0
115341,-100,4,2,1,40,0,0
118068,-100,4,2,1,55,0,0
120796,-100,4,2,1,40,0,0
126250,-100,4,2,1,60,0,0
128977,-100,4,2,1,60,0,0
129233,-100,4,2,1,5,0,0
129318,-100,4,2,1,65,0,0
129574,-100,4,2,1,5,0,0
129659,-100,4,2,1,70,0,0
129915,-100,4,2,1,5,0,0
130000,-100,4,2,1,70,0,0
131705,-100,4,2,1,75,0,1
153523,-100,4,2,1,70,0,0
164432,-100,4,2,1,30,0,0
175341,-90.9090909090909,4,2,1,80,0,1
197159,-100,4,2,1,40,0,0
202614,-100,4,2,1,40,0,0

[Colours]
Combo1 : 138,217,255
Combo2 : 255,209,164
Combo3 : 255,168,168
Combo4 : 219,219,219

[HitObjects]
44,141,796,6,0,P|81:123|165:180,1,134.999995880127,2|0,0:0|0:0,0:0:0:0:
177,191,1477,2,0,P|214:208|298:151,1,134.999995880127,2|0,0:0|0:0,0:0:0:0:
295,138,2159,2,0,L|284:29,1,89.9999972534181,2|2,0:0|0:0,0:0:0:0:
366,7,2841,1,2,0:0:0:0:
433,177,3523,6,0,P|395:194|311:137,1,134.999995880127,2|0,0:0|0:0,0:0:0:0:
300,127,4204,2,0,P|262:109|178:166,1,134.999995880127,2|0,0:0|0:0,0:0:0:0:
182,180,4886,2,0,L|192:288,1,89.9999972534181,2|2,0:0|0:0,0:0:0:0:
111,311,5568,1,2,0:0:0:0:
292,363,6250,6,0,P|313:329|414:327,1,134.999995880127,2|0,0:0|0:0,0:0:0:0:
424,340,6932,2,0,L|436:186,1,134.999995880127,2|0,0:0|0:0,0:0:0:0:
442,176,7614,2,0,P|407:195|342:195,1,89.9999972534181,2|2,0:0|0:0,0:0:0:0:
279,151,8296,1,2,0:0:0:0:
130,261,8977,6,0,P|151:227|252:225,1,134.999995880127,2|0,0:0|0:0,0:0:0:0:
264,235,9659,2,0,L|275:88,1,134.999995880127,2|0,0:0|0:0,0:0:0:0:
273,69,10341,2,0,P|238:88|173:88,1,89.9999972534181,2|2,0:0|0:0,0:0:0:0:
119,24,11023,2,0,P|84:5|19:5,1,89.9999972534181,2|0,0:0|0:0,0:0:0:0:
6,102,11705,6,0,P|63:181|53:234,1,150,6|0,0:0|0:0,0:0:0:0:
32,253,12386,2,0,L|199:232,1,150,10|0,0:3|0:0,0:0:0:0:
216,229,13068,1,6,0:3:0:0:
279,308,13409,1,10,0:3:0:0:
363,254,13750,2,0,P|371:214|350:152,1,100,10|8,0:3|0:3,0:0:0:0:
285,85,14432,5,6,0:3:0:0:
212,152,14773,1,8,0:3:0:0:
125,103,15114,2,0,L|134:-3,1,100,10|8,0:3|0:3,0:0:0:0:
34,12,15796,2,0,L|24:119,1,100,6|10,0:3|0:3,0:0:0:0:
79,195,16477,1,10,0:3:0:0:
231,61,17159,6,0,P|266:54|338:94,1,100,6|8,0:0|0:3,0:0:0:0:
419,48,17841,2,0,P|426:83|386:155,1,100,10|8,0:3|0:3,0:0:0:0:
432,236,18523,2,0,P|397:243|325:203,1,100,6|10,0:3|0:3,0:0:0:0:
244,249,19205,2,0,P|237:214|277:142,1,100,10|10,0:3|0:3,0:0:0:0:
231,61,19886,6,0,L|120:74,1,100,6|8,0:0|0:0,0:0:0:0:
99,59,20398,2,0,P|120:107|103:169,1,100,10|8,0:0|0:3,0:0:0:0:
88,176,20909,1,10,0:0:0:0:
174,228,21250,6,0,P|222:214|274:237,1,100,6|8,0:3|0:0,0:0:0:0:
293,259,21761,1,10,0:0:0:0:
293,259,21932,2,0,L|286:317,1,50,8|8,0:3|0:0,0:0:0:0:
286,343,22273,1,6,0:3:0:0:
380,309,22614,5,6,0:0:0:0:
465,358,22955,1,8,0:3:0:0:
505,266,23296,2,0,P|491:174|489:165,1,100,10|8,0:3|0:3,0:0:0:0:
476,134,23807,2,0,P|444:161|379:164,1,100,2|0,0:0|0:0,0:0:0:0:
366,138,24318,1,10,0:3:0:0:
279,188,24659,2,0,P|261:160|179:136,1,100,10|10,0:3|0:3,0:0:0:0:
109,175,25341,6,0,L|127:282,1,100,14|8,0:0|0:0,0:0:0:0:
208,330,26023,2,0,P|239:314|276:311,1,50,10|8,0:3|0:3,0:0:0:0:
287,324,26364,1,8,0:0:0:0:
387,339,26705,2,0,L|405:232,1,100,2|8,0:0|0:0,0:0:0:0:
356,151,27386,2,0,P|328:160|296:159,1,50,10|8,0:3|0:3,0:0:0:0:
277,142,27727,1,8,0:0:0:0:
190,191,28068,5,6,0:0:0:0:
121,117,28409,1,8,0:3:0:0:
179,34,28750,2,0,P|243:44|283:58,1,100,10|8,0:3|0:3,0:0:0:0:
291,87,29261,2,0,P|355:77|395:63,1,100,2|0,0:0|0:0,0:0:0:0:
416,44,29773,1,10,0:3:0:0:
437,143,30114,2,0,P|426:227|423:260,1,100,10|10,0:3|0:3,0:0:0:0:
365,321,30796,6,0,P|324:304|261:319,1,100,14|8,0:0|0:0,0:0:0:0:
179,351,31477,2,0,P|173:301|171:292,1,50,10|8,0:3|0:3,0:0:0:0:
161,269,31818,1,8,0:0:0:0:
141,171,32159,2,0,P|182:188|245:173,1,100,2|8,0:0|0:0,0:0:0:0:
332,214,32841,2,0,P|338:164|340:155,1,50,10|8,0:3|0:3,0:0:0:0:
350,132,33182,1,8,0:0:0:0:
280,61,33523,6,0,P|223:67|163:77,1,100,6|8,0:0|0:3,0:0:0:0:
82,102,34205,1,10,0:3:0:0:
129,191,34546,1,10,0:3:0:0:
30,219,34886,2,0,P|22:258|45:318,1,100,6|8,0:3|0:3,0:0:0:0:
73,338,35398,1,0,0:0:0:0:
73,338,35568,2,0,P|160:313|182:317,1,100,10|8,0:3|0:3,0:0:0:0:
243,250,36250,5,6,0:3:0:0:
321,313,36591,1,10,0:3:0:0:
399,251,36932,2,0,P|394:204|355:154,1,100,10|8,0:3|0:3,0:0:0:0:
342,139,37443,1,0,0:0:0:0:
342,139,37614,2,0,L|235:154,1,100,6|8,0:3|0:3,0:0:0:0:
218,55,38296,2,0,L|111:40,1,100,10|8,0:3|0:3,0:0:0:0:
37,99,38977,6,0,B|50:157|50:157|42:171|42:171|63:263,1,150,6|0,0:0|0:0,0:0:0:0:
70,278,39659,1,8,0:3:0:0:
154,221,40000,1,8,0:0:0:0:
231,285,40341,6,0,P|303:266|339:268,1,100,6|8,0:3|0:0,0:0:0:0:
343,168,41023,2,0,P|415:187|451:185,1,100,8|8,0:3|0:0,0:0:0:0:
486,96,41705,5,12,0:3:0:0:
389,86,42046,1,12,0:3:0:0:
292,76,42386,1,12,0:3:0:0:
195,66,42728,1,12,0:3:0:0:
98,56,43068,5,8,0:0:0:0:
98,56,43750,2,0,P|125:64|151:173,1,150,12|0,0:0|0:0,0:0:0:0:
129,194,44432,6,0,L|242:178,1,100,6|8,0:0|0:0,0:0:0:0:
251,154,44943,1,0,0:0:0:0:
251,154,45114,2,0,L|364:170,1,100,10|8,0:3|0:0,0:0:0:0:
437,219,45796,2,0,P|451:186|441:119,2,100,6|8|10,0:3|0:0|0:3,0:0:0:0:
348,263,46818,1,8,0:0:0:0:
391,352,47159,6,0,P|314:368|287:374,1,100,6|8,0:3|0:0,0:0:0:0:
276,347,47671,1,0,0:0:0:0:
276,347,47841,2,0,P|199:331|172:325,1,100,10|8,0:3|0:0,0:0:0:0:
148,344,48352,1,0,0:0:0:0:
148,344,48523,2,0,P|132:303|155:237,1,100,6|8,0:3|0:0,0:0:0:0:
233,206,49205,2,0,P|246:158|229:112,1,100,10|8,0:3|0:0,0:0:0:0:
168,35,49886,6,0,P|102:41|62:46,1,100,6|8,0:0|0:0,0:0:0:0:
41,33,50398,1,0,0:0:0:0:
41,33,50568,2,0,P|59:82|49:137,1,100,10|8,0:3|0:0,0:0:0:0:
37,226,51250,2,0,L|144:209,2,100,6|8|10,0:3|0:0|0:3,0:0:0:0:
3,320,52273,1,8,0:0:0:0:
88,372,52614,6,0,L|195:355,1,100,6|8,0:3|0:0,0:0:0:0:
231,265,53296,2,0,L|338:282,1,100,10|8,0:3|0:0,0:0:0:0:
421,323,53977,1,6,0:3:0:0:
444,227,54318,1,8,0:0:0:0:
377,153,54659,2,0,P|371:108|373:86,1,50,10|8,0:3|0:0,0:0:0:0:
389,73,55000,1,8,0:3:0:0:
300,23,55341,6,0,P|254:18|205:62,1,100,6|8,0:0|0:0,0:0:0:0:
205,86,55852,1,0,0:0:0:0:
205,86,56023,2,0,P|159:91|110:47,1,100,10|8,0:3|0:0,0:0:0:0:
25,98,56705,2,0,L|14:-2,2,100,6|8|10,0:3|0:0|0:3,0:0:0:0:
36,197,57727,1,8,0:0:0:0:
47,296,58068,6,0,P|97:272|148:282,1,100,6|8,0:3|0:0,0:0:0:0:
168,308,58580,1,0,0:0:0:0:
168,308,58750,2,0,P|218:332|269:322,1,100,10|8,0:3|0:0,0:0:0:0:
288,302,59261,1,0,0:0:0:0:
288,302,59432,2,0,L|281:199,1,100,6|8,0:3|0:0,0:0:0:0:
183,203,60114,2,0,L|189:103,1,100,10|8,0:3|0:0,0:0:0:0:
263,33,60796,5,6,0:0:0:0:
353,82,61136,1,8,0:0:0:0:
334,182,61477,1,10,0:3:0:0:
232,195,61818,1,8,0:0:0:0:
188,103,62159,2,0,P|156:112|127:121,1,50,6|0,0:3|0:0,0:0:0:0:
127,148,62500,2,0,P|95:139|66:130,1,50,8|0,0:0|0:0,0:0:0:0:
46,122,62841,2,0,P|62:174|40:235,1,100,10|8,0:3|0:0,0:0:0:0:
86,318,63523,5,6,0:0:0:0:
86,318,63693,2,0,B|131:291|131:291|190:300,1,100,0|10,0:0|0:3,0:0:0:0:
204,324,64205,2,0,B|249:351|249:351|308:342,1,100,0|10,0:0|0:0,0:0:0:0:
378,288,64886,1,10,0:0:0:0:
422,199,65227,1,10,0:0:0:0:
333,155,65568,1,10,0:0:0:0:
289,244,65909,1,8,0:0:0:0:
295,343,66250,5,12,0:0:0:0:
99,103,87046,5,4,0:3:0:0:
99,103,87216,2,0,P|129:86|212:97,1,100,8|8,0:0|0:0,0:0:0:0:
219,112,87727,1,8,0:3:0:0:
310,67,88068,6,0,P|332:200|336:233,1,150,6|0,0:0|0:0,0:0:0:0:
326,251,88750,2,0,B|242:225|273:279|161:250,1,150,10|0,0:3|0:0,0:0:0:0:
157,228,89432,1,6,0:3:0:0:
74,286,89773,1,10,0:3:0:0:
2,218,90114,2,0,P|0:174|-2:116,1,100,10|8,0:3|0:3,0:0:0:0:
97,137,90796,6,0,P|75:270|71:303,1,150,6|0,0:3|0:0,0:0:0:0:
81,321,91478,2,0,B|165:295|134:349|246:320,1,150,10|0,0:3|0:0,0:0:0:0:
250,298,92160,1,6,0:3:0:0:
333,356,92501,1,10,0:3:0:0:
405,288,92842,2,0,P|407:244|409:186,1,100,10|8,0:3|0:3,0:0:0:0:
417,89,93523,6,0,P|376:84|317:178,1,150,6|0,0:0|0:0,0:0:0:0:
303,193,94205,2,0,P|295:152|187:125,1,150,10|0,0:3|0:0,0:0:0:0:
174,137,94886,1,6,0:3:0:0:
94,80,95227,1,10,0:3:0:0:
11,136,95568,2,0,P|29:199|38:246,1,100,10|8,0:3|0:3,0:0:0:0:
82,324,96250,6,0,P|123:329|182:235,1,150,6|0,0:3|0:0,0:0:0:0:
196,220,96932,2,0,P|203:260|311:287,1,150,10|0,0:3|0:0,0:0:0:0:
325,276,97613,1,6,0:3:0:0:
405,333,97954,1,10,0:3:0:0:
488,277,98295,2,0,P|470:214|461:167,1,100,10|8,0:3|0:3,0:0:0:0:
460,79,98977,6,0,L|289:55,1,150,6|0,0:0|0:0,0:0:0:0:
301,25,99659,2,0,L|130:49,1,150,10|0,0:3|0:0,0:0:0:0:
121,29,100341,1,6,0:3:0:0:
121,130,100682,1,10,0:3:0:0:
23,149,101023,2,0,P|35:206|43:252,1,100,10|8,0:3|0:3,0:0:0:0:
104,328,101705,5,6,0:3:0:0:
175,257,102046,1,8,0:3:0:0:
249,321,102386,2,0,L|365:302,1,100,10|8,0:3|0:3,0:0:0:0:
367,206,103068,2,0,L|251:225,1,100,6|10,0:3|0:3,0:0:0:0:
175,257,103750,1,10,0:3:0:0:
46,109,104432,6,0,P|32:69|50:11,1,100,6|8,0:0|0:3,0:0:0:0:
135,61,105114,2,0,P|175:47|233:65,1,100,10|8,0:3|0:3,0:0:0:0:
183,150,105796,2,0,P|197:190|179:248,1,100,6|10,0:3|0:3,0:0:0:0:
94,198,106477,2,0,P|54:212|-4:194,1,100,10|10,0:3|0:3,0:0:0:0:
46,109,107159,6,0,L|165:97,1,100,6|8,0:0|0:0,0:0:0:0:
154,63,107671,2,0,L|273:75,1,100,10|8,0:0|0:3,0:0:0:0:
276,100,108182,1,10,0:0:0:0:
361,43,108523,2,0,P|373:106|380:148,1,100,6|8,0:3|0:0,0:0:0:0:
405,172,109034,1,10,0:0:0:0:
405,172,109205,2,0,P|397:215|392:233,1,50,8|8,0:3|0:0,0:0:0:0:
387,255,109546,1,6,0:3:0:0:
299,212,109886,5,6,0:0:0:0:
235,285,110227,1,8,0:3:0:0:
150,237,110568,2,0,P|142:197|165:128,1,100,10|8,0:3|0:3,0:0:0:0:
177,112,111080,2,0,P|249:132|286:122,1,100,2|0,0:0|0:0,0:0:0:0:
300,109,111591,1,10,0:3:0:0:
384,59,111932,1,10,0:3:0:0:
385,156,112273,1,10,0:3:0:0:
298,206,112614,6,0,P|305:280|312:324,1,100,14|8,0:0|0:0,0:0:0:0:
231,372,113296,2,0,P|201:359|171:354,1,50,10|8,0:3|0:3,0:0:0:0:
150,365,113636,1,8,0:0:0:0:
69,303,113977,2,0,P|75:253|79:203,1,100,2|8,0:0|0:0,0:0:0:0:
142,128,114659,2,0,P|172:141|202:146,1,50,10|8,0:3|0:3,0:0:0:0:
223,135,114999,1,8,0:0:0:0:
298,206,115341,5,6,0:0:0:0:
361,126,115682,1,8,0:3:0:0:
450,171,116023,2,0,P|447:221|440:284,1,100,10|8,0:3|0:3,0:0:0:0:
423,302,116534,2,0,P|382:284|317:291,1,100,2|0,0:0|0:0,0:0:0:0:
305,313,117046,1,10,0:3:0:0:
226,370,117386,1,10,0:3:0:0:
156,299,117727,1,10,0:3:0:0:
66,340,118068,6,0,P|53:286|37:223,1,100,14|8,0:0|0:0,0:0:0:0:
89,152,118750,2,0,P|93:118|97:88,1,50,10|8,0:3|0:3,0:0:0:0:
106,68,119091,1,8,0:0:0:0:
196,27,119432,2,0,P|209:81|225:144,1,100,2|8,0:0|0:0,0:0:0:0:
173,215,120114,2,0,P|169:249|165:279,1,50,10|8,0:3|0:3,0:0:0:0:
156,299,120455,1,8,0:0:0:0:
240,354,120796,6,0,P|280:360|339:318,1,100,6|8,0:0|0:3,0:0:0:0:
384,249,121477,1,10,0:3:0:0:
291,209,121818,1,10,0:3:0:0:
344,126,122159,2,0,P|350:50|352:18,1,100,6|8,0:3|0:3,0:0:0:0:
333,3,122671,1,0,0:0:0:0:
333,3,122841,2,0,P|289:24|234:26,1,100,10|8,0:3|0:3,0:0:0:0:
138,10,123523,5,6,0:3:0:0:
157,107,123864,1,10,0:3:0:0:
70,156,124205,2,0,P|80:199|88:261,1,100,10|8,0:3|0:3,0:0:0:0:
151,338,124886,1,6,0:3:0:0:
151,338,125057,2,0,P|184:323|258:330,1,100,0|0,0:0|0:0,0:0:0:0:
277,344,125568,1,10,0:3:0:0:
343,269,125909,1,8,0:3:0:0:
434,310,126250,6,0,B|441:261|441:261|436:255|436:255|444:204,1,100,6|8,0:0|0:0,0:0:0:0:
451,114,126932,2,0,P|420:113|396:120,1,50,8|10,0:3|0:3,0:0:0:0:
375,137,127273,1,8,0:0:0:0:
307,64,127614,2,0,P|249:56|196:85,1,100,6|8,0:3|0:0,0:0:0:0:
196,105,128125,1,2,0:0:0:0:
196,105,128296,2,0,L|136:95,1,50,8|10,0:3|0:3,0:0:0:0:
114,102,128636,1,8,0:0:0:0:
115,202,128977,5,12,0:3:0:0:
214,194,129318,1,12,0:3:0:0:
313,186,129659,1,12,0:3:0:0:
412,178,130000,1,12,0:3:0:0:
511,170,130341,6,0,P|496:210|489:288,1,100,8|4,0:0|0:3,0:0:0:0:
456,365,131023,2,0,P|446:355|400:337,1,50,12|10,0:0|0:0,0:0:0:0:
386,318,131364,2,0,P|376:328|330:346,1,50,8|10,0:0|0:0,0:0:0:0:
309,351,131705,6,0,L|318:244,1,100,6|8,0:0|0:0,0:0:0:0:
300,225,132216,1,0,0:0:0:0:
300,225,132386,2,0,L|291:118,1,100,10|8,0:3|0:0,0:0:0:0:
285,27,133068,1,6,0:3:0:0:
198,80,133409,1,8,0:0:0:0:
104,55,133750,2,0,P|74:61|38:80,2,50,10|8|8,0:3|0:3|0:0,0:0:0:0:
86,150,134432,6,0,P|86:215|81:269,1,100,6|8,0:3|0:0,0:0:0:0:
60,275,134943,1,0,0:0:0:0:
60,275,135114,2,0,P|130:272|169:297,1,100,10|8,0:3|0:0,0:0:0:0:
182,315,135625,1,0,0:0:0:0:
182,315,135796,1,6,0:3:0:0:
254,247,136136,1,8,0:0:0:0:
339,302,136477,2,0,P|383:293|408:285,2,50,10|8|8,0:3|0:3|0:0,0:0:0:0:
254,247,137159,6,0,P|244:197|245:141,1,100,6|8,0:0|0:0,0:0:0:0:
262,120,137671,1,0,0:0:0:0:
262,120,137841,2,0,P|213:125|139:130,1,100,10|8,0:3|0:0,0:0:0:0:
79,76,138523,1,6,0:3:0:0:
16,153,138864,1,8,0:0:0:0:
99,209,139205,2,0,P|106:249|99:281,2,50,10|8|8,0:3|0:3|0:0,0:0:0:0:
162,128,139886,5,6,0:3:0:0:
259,106,140227,1,8,0:0:0:0:
310,192,140568,1,10,0:3:0:0:
244,266,140909,1,8,0:0:0:0:
152,227,141250,2,0,P|116:230|85:247,2,50,6|0|8,0:3|0:0|0:0,0:0:0:0:
244,266,141932,2,0,P|240:308|236:330,1,50,10|8,0:3|0:0,0:0:0:0:
225,347,142273,1,8,0:3:0:0:
325,360,142614,6,0,P|369:341|423:349,1,100,6|8,0:0|0:0,0:0:0:0:
456,367,143125,1,0,0:0:0:0:
456,367,143296,2,0,L|467:256,1,100,10|8,0:3|0:0,0:0:0:0:
478,169,143977,1,6,0:3:0:0:
380,195,144318,1,8,0:0:0:0:
307,125,144659,2,0,P|299:94|293:58,2,50,10|8|8,0:3|0:3|0:0,0:0:0:0:
283,225,145341,6,0,P|237:194|179:204,1,100,6|8,0:3|0:0,0:0:0:0:
190,166,145852,1,0,0:0:0:0:
190,166,146023,2,0,P|144:197|86:187,1,100,10|8,0:3|0:0,0:0:0:0:
87,168,146534,1,0,0:0:0:0:
87,168,146705,1,6,0:3:0:0:
75,266,147046,1,8,0:0:0:0:
63,364,147386,2,0,P|131:349|176:371,1,100,10|8,0:3|0:0,0:0:0:0:
196,265,148068,5,6,0:0:0:0:
277,323,148409,1,8,0:0:0:0:
357,263,148750,1,10,0:3:0:0:
326,169,149091,1,8,0:0:0:0:
226,169,149432,2,0,P|194:158|158:154,1,50,6|0,0:3|0:0,0:0:0:0:
162,123,149773,2,0,P|130:134|94:138,1,50,8|0,0:0|0:0,0:0:0:0:
81,150,150114,2,0,P|54:108|65:46,1,100,10|8,0:3|0:0,0:0:0:0:
145,9,150796,5,6,0:0:0:0:
145,9,150966,2,0,B|195:-3|195:-3|251:31,1,100,0|10,0:0|0:3,0:0:0:0:
260,49,151477,2,0,L|249:106,1,50,0|8,0:0|0:3,0:0:0:0:
245,132,151818,1,10,0:0:0:0:
344,137,152159,5,10,0:0:0:0:
371,232,152500,1,10,0:0:0:0:
289,286,152841,1,10,0:0:0:0:
211,225,153182,1,10,0:0:0:0:
245,132,153523,6,0,P|212:133|137:102,1,100,6|8,0:0|0:0,0:0:0:0:
59,67,154205,2,0,P|52:32|45:3,2,50,10|10|10,0:3|0:3|0:0,0:0:0:0:
5,149,154886,2,0,P|20:231|25:259,1,100,6|8,0:3|0:0,0:0:0:0:
85,323,155568,2,0,P|132:324|156:324,1,50,10|10,0:3|0:3,0:0:0:0:
154,294,155909,2,0,P|201:295|225:295,1,50,10|0,0:0|0:0,0:0:0:0:
224,324,156250,6,0,P|280:311|340:321,1,100,6|8,0:3|0:0,0:0:0:0:
411,360,156932,2,0,P|420:315|422:296,1,50,10|10,0:3|0:3,0:0:0:0:
412,276,157273,1,10,0:0:0:0:
328,223,157614,2,0,L|318:115,1,100,6|8,0:3|0:0,0:0:0:0:
333,90,158125,1,0,0:0:0:0:
253,32,158466,2,0,P|196:20|194:19,1,50,10|10,0:3|0:0,0:0:0:0:
173,30,158807,1,0,0:0:0:0:
173,30,158977,6,0,P|205:61|205:127,1,100,6|10,0:0|3:2,0:0:0:0:
132,175,159659,2,0,P|143:211|150:232,1,50,10|10,3:3|3:3,0:0:0:0:
176,241,160000,2,0,P|165:277|158:298,1,50,10|0,3:2|0:0,0:0:0:0:
145,320,160341,2,0,P|191:315|248:352,1,100,6|8,0:3|0:0,0:0:0:0:
248,374,160852,2,0,P|294:379|351:342,1,100,2|8,0:0|0:3,0:0:0:0:
351,321,161364,1,10,0:0:0:0:
420,246,161705,5,14,0:0:0:0:
420,246,161875,2,0,P|431:195|448:132,2,100,8|10|10,0:3|0:3|0:3,0:0:0:0:
424,287,162727,1,0,0:0:0:0:
424,287,162898,1,14,0:0:0:0:
256,192,163068,12,0,164432,0:0:0:0:
460,107,175341,6,0,P|426:84|340:78,1,110.000003356934,6|8,0:0|0:0,0:0:0:0:
338,46,175852,1,0,0:0:0:0:
338,46,176023,2,0,P|304:69|218:75,1,110.000003356934,10|8,0:3|0:0,0:0:0:0:
139,27,176705,1,6,0:3:0:0:
142,136,177046,1,8,0:0:0:0:
31,138,177386,2,0,P|46:189|53:213,1,55.0000016784668,10|8,0:3|0:3,0:0:0:0:
42,231,177727,1,8,0:0:0:0:
116,312,178068,6,0,P|147:289|223:295,1,110.000003356934,6|8,0:3|0:0,0:0:0:0:
248,269,178580,1,0,0:0:0:0:
248,269,178750,2,0,P|279:292|355:286,1,110.000003356934,10|8,0:3|0:0,0:0:0:0:
381,266,179261,1,0,0:0:0:0:
381,266,179432,1,6,0:3:0:0:
332,170,179773,1,8,0:0:0:0:
422,106,180114,2,0,P|430:91|437:52,1,55.0000016784668,10|8,0:3|0:3,0:0:0:0:
419,21,180455,1,8,0:0:0:0:
312,48,180796,6,0,P|242:56|191:69,1,110.000003356934,6|8,0:0|0:0,0:0:0:0:
170,57,181307,1,0,0:0:0:0:
170,57,181477,2,0,P|189:103|177:161,1,110.000003356934,10|8,0:3|0:0,0:0:0:0:
90,227,182159,1,6,0:3:0:0:
139,326,182500,1,8,0:0:0:0:
228,262,182841,2,0,P|266:265|300:278,1,55.0000016784668,10|8,0:3|0:3,0:0:0:0:
310,296,183182,1,8,0:0:0:0:
347,193,183523,5,6,0:3:0:0:
343,85,183864,1,8,0:0:0:0:
446,49,184204,1,10,0:3:0:0:
512,134,184545,1,8,0:0:0:0:
451,224,184886,2,0,P|460:320|465:347,1,110.000003356934,6|8,0:3|0:0,0:0:0:0:
363,379,185568,2,0,P|328:361|298:359,1,55.0000016784668,10|4,0:3|0:3,0:0:0:0:
278,376,185909,1,8,0:0:0:0:
204,294,186250,6,0,P|163:326|91:313,1,110.000003356934,6|8,0:0|0:0,0:0:0:0:
86,297,186761,1,0,0:0:0:0:
86,297,186932,2,0,L|96:180,1,110.000003356934,10|8,0:3|0:0,0:0:0:0:
77,77,187614,1,6,0:3:0:0:
169,16,187955,1,8,0:0:0:0:
185,125,188296,2,0,P|248:116|256:115,1,55.0000016784668,10|8,0:3|0:3,0:0:0:0:
276,130,188636,1,8,0:0:0:0:
380,163,188977,6,0,P|376:100|414:62,1,110.000003356934,6|8,0:3|0:0,0:0:0:0:
512,101,189659,2,0,P|516:164|478:202,1,110.000003356934,10|8,0:3|0:0,0:0:0:0:
406,272,190341,1,6,0:3:0:0:
302,233,190682,1,8,0:0:0:0:
206,281,191023,2,0,P|215:321|218:355,1,55.0000016784668,10|8,0:3|0:3,0:0:0:0:
207,371,191364,1,8,0:0:0:0:
106,326,191705,5,6,0:0:0:0:
5,281,192046,1,8,0:0:0:0:
16,171,192386,1,10,0:3:0:0:
124,148,192728,1,8,0:0:0:0:
179,243,193068,2,0,P|212:240|239:238,1,55.0000016784668,6|0,0:3|0:0,0:0:0:0:
250,206,193409,2,0,P|283:209|310:211,1,55.0000016784668,8|8,0:0|0:0,0:0:0:0:
341,219,193750,2,0,P|310:250|317:327,1,110.000003356934,10|8,0:3|0:0,0:0:0:0:
406,358,194432,6,0,P|442:349|481:338,1,55.0000016784668,6|8,0:0|0:0,0:0:0:0:
499,355,194773,2,0,P|504:309|509:283,1,55.0000016784668,8|10,0:0|0:3,0:0:0:0:
504,261,195114,2,0,P|480:229|466:138,1,110.000003356934,8|10,0:0|0:0,0:0:0:0:
493,56,195796,2,0,P|459:48|418:43,1,55.0000016784668,10|0,0:0|0:0,0:0:0:0:
417,13,196136,2,0,P|383:21|342:26,1,55.0000016784668,10|0,0:0|0:0,0:0:0:0:
327,8,196477,1,10,0:0:0:0:
241,73,196818,1,8,0:0:0:0:
161,18,197159,5,4,0:0:0:0:
161,18,197330,2,0,P|94:18|55:54,1,100,2|0,0:0|0:0,0:0:0:0:
35,44,197841,2,0,L|58:162,1,100,2|2,0:0|0:0,0:0:0:0:
155,171,198523,1,4,0:3:0:0:
155,171,198694,2,0,P|222:171|261:207,1,100,2|0,0:0|0:0,0:0:0:0:
281,197,199205,2,0,L|258:315,1,100,2|2,0:0|0:0,0:0:0:0:
342,363,199886,5,4,0:3:0:0:
342,363,200057,2,0,P|404:348|451:337,1,100,2|0,0:0|0:0,0:0:0:0:
471,355,200568,2,0,P|460:313|483:241,1,100,2|2,0:0|0:0,0:0:0:0:
511,167,201250,1,4,0:3:0:0:
511,167,201421,2,0,P|449:152|402:141,1,100,2|0,0:0|0:0,0:0:0:0:
382,159,201932,2,0,P|393:117|370:45,1,100,2|2,0:0|0:0,0:0:0:0:
302,9,202614,5,4,0:3:0:0:
302,9,202784,2,0,P|244:32|159:6,1,150,2|2,0:0|0:0,0:0:0:0:
74,62,203636,1,0,0:0:0:0:
146,136,203977,1,2,0:0:0:0:
146,136,204147,2,0,P|169:194|143:279,1,150,2|2,0:0|0:0,0:0:0:0:
199,364,204999,1,2,0:0:0:0:
273,292,205341,5,2,0:0:0:0:
273,292,205511,2,0,P|331:269|416:295,1,150,2|2,0:0|0:0,0:0:0:0:
501,239,206363,1,0,0:0:0:0:
429,165,206705,1,2,0:0:0:0:
429,165,206875,2,0,P|406:107|432:22,1,150,2|2,0:0|0:0,0:0:0:0:
510,88,207727,2,0,L|516:148,1,50,2|0,0:0|0:0,0:0:0:0:
