osu file format v14

[General]
AudioFilename: audio.mp3
AudioLeadIn: 0
PreviewTime: 44347
Countdown: 0
SampleSet: Soft
StackLeniency: 0.7
Mode: 0
LetterboxInBreaks: 0
WidescreenStoryboard: 1

[Editor]
Bookmarks: 64682
DistanceSpacing: 0.9
BeatDivisor: 4
GridSize: 16
TimelineZoom: 1.6

[Metadata]
Title:Toosenbou
TitleUnicode:とおせんぼう
Artist:mafumafu
ArtistUnicode:まふまふ
Creator:William K
Version:Insane
Source:
Tags:keep out kagurairo artifact 神楽色アーティファクト
BeatmapID:1868096
BeatmapSetID:873264

[Difficulty]
HPDrainRate:5.5
CircleSize:4
OverallDifficulty:8
ApproachRate:8.4
SliderMultiplier:1.6
SliderTickRate:1

[Events]
//Background and Video events
Video,-648,"vid.mp4"
0,0,"toosenbou.jpg",0,0
//Break Periods
2,66450,86356
2,164632,174651
//Storyboard Layer 0 (Background)
//Storyboard Layer 1 (Fail)
//Storyboard Layer 2 (Pass)
//Storyboard Layer 3 (Foreground)
//Storyboard Layer 4 (Overlay)
//Storyboard Sound Samples

[TimingPoints]
796,340.909090909091,4,2,1,28,1,0
796,-133.333333333333,4,2,1,28,0,0
11705,-121.951219512195,4,2,1,36,0,0
19886,-111.111111111111,4,2,1,55,0,0
22614,-121.951219512195,4,2,1,40,0,0
25341,-111.111111111111,4,2,1,55,0,0
28068,-121.951219512195,4,2,1,40,0,0
30796,-111.111111111111,4,2,1,55,0,0
33523,-121.951219512195,4,2,1,40,0,0
38977,-107.52688172043,4,2,1,60,0,0
41705,-88.4955752212389,4,2,1,60,0,0
41960,-88.4955752212389,4,2,1,5,0,0
42046,-81.3008130081301,4,2,1,65,0,0
42301,-81.3008130081301,4,2,1,5,0,0
42386,-75.187969924812,4,2,1,70,0,0
42642,-75.187969924812,4,2,1,5,0,0
42727,-107.52688172043,4,2,1,70,0,0
44432,-97.0873786407767,4,2,1,75,0,1
66250,-97.0873786407767,4,2,1,50,0,0
87046,-97.0873786407767,4,2,1,75,0,0
88068,-117.647058823529,4,2,1,35,0,0
107159,-107.52688172043,4,2,1,55,0,0
109886,-120.481927710843,4,2,1,40,0,0
112614,-107.52688172043,4,2,1,55,0,0
115341,-120.481927710843,4,2,1,40,0,0
118068,-107.52688172043,4,2,1,55,0,0
120796,-117.647058823529,4,2,1,40,0,0
126250,-105.263157894737,4,2,1,60,0,0
128977,-86.9565217391304,4,2,1,60,0,0
129233,-86.9565217391304,4,2,1,5,0,0
129318,-80,4,2,1,65,0,0
129574,-80,4,2,1,5,0,0
129659,-74.0740740740741,4,2,1,70,0,0
129915,-74.0740740740741,4,2,1,5,0,0
130000,-105.263157894737,4,2,1,70,0,0
131705,-95.2380952380952,4,2,1,75,0,1
153523,-95.2380952380952,4,2,1,70,0,0
164432,-95.2380952380952,4,2,1,30,0,0
175341,-86.9565217391304,4,2,1,80,0,1
197159,-117.647058823529,4,2,1,40,0,0
202614,-133.333333333333,4,2,1,40,0,0

[Colours]
Combo1 : 138,217,255
Combo2 : 255,209,164
Combo3 : 255,168,168
Combo4 : 219,219,219

[HitObjects]
73,82,796,6,0,L|91:211,1,120.000004577637,2|0,0:0|0:0,0:0:0:0:
168,203,1307,1,0,0:0:0:0:
168,203,1477,2,0,L|151:84,1,120.000004577637,2|0,0:0|0:0,0:0:0:0:
212,32,1989,1,0,0:0:0:0:
212,32,2159,6,0,L|294:43,1,60.0000022888184,2|0,0:0|0:0,0:0:0:0:
279,118,2500,2,0,L|361:107,1,60.0000022888184,2|0,0:0|0:0,0:0:0:0:
404,75,2841,2,0,P|369:127|383:191,1,120.000004577637,2|0,0:0|0:0,0:0:0:0:
336,330,3523,6,0,P|342:271|308:223,1,120.000004577637,2|0,0:0|0:0,0:0:0:0:
240,184,4034,1,0,0:0:0:0:
240,184,4205,2,0,P|233:242|267:290,1,120.000004577637,2|0,0:0|0:0,0:0:0:0:
265,371,4716,1,0,0:0:0:0:
265,371,4886,6,0,P|213:359|186:357,1,60.0000022888184,2|0,0:0|0:0,0:0:0:0:
169,289,5227,2,0,P|117:301|90:303,1,60.0000022888184,2|0,0:0|0:0,0:0:0:0:
60,361,5568,2,0,P|34:321|68:237,1,120.000004577637,2|0,0:0|0:0,0:0:0:0:
109,115,6250,6,0,P|135:155|101:239,1,120.000004577637,2|0,0:0|0:0,0:0:0:0:
61,175,6761,1,0,0:0:0:0:
61,175,6932,2,0,P|35:135|69:51,1,120.000004577637,2|0,0:0|0:0,0:0:0:0:
124,38,7443,1,0,0:0:0:0:
124,38,7614,6,0,L|202:52,1,60.0000022888184,2|0,0:0|0:0,0:0:0:0:
216,120,7955,2,0,L|138:134,1,60.0000022888184,2|0,0:0|0:0,0:0:0:0:
150,210,8296,2,0,L|279:186,1,120.000004577637,2|0,0:0|0:0,0:0:0:0:
287,343,8977,6,0,L|157:366,1,120.000004577637,2|0,0:0|0:0,0:0:0:0:
144,292,9489,1,0,0:0:0:0:
144,292,9659,2,0,L|262:270,1,120.000004577637,2|0,0:0|0:0,0:0:0:0:
308,207,10171,1,0,0:0:0:0:
308,207,10341,6,0,P|270:193|232:198,1,60.0000022888184,2|0,0:0|0:0,0:0:0:0:
205,129,10682,2,0,P|243:115|281:120,1,60.0000022888184,2|0,0:0|0:0,0:0:0:0:
360,149,11023,2,0,P|341:186|376:279,1,120.000004577637,2|0,0:0|0:0,0:0:0:0:
309,323,11534,1,2,0:0:0:0:
250,193,11705,6,0,P|203:170|102:171,1,131.200002001953,6|8,0:0|0:3,0:0:0:0:
141,247,12216,1,0,0:0:0:0:
141,247,12386,2,0,P|89:250|1:301,1,131.200002001953,10|8,0:3|0:3,0:0:0:0:
49,360,12898,1,0,0:0:0:0:
172,320,13068,6,0,P|209:314|261:321,1,65.6000010009766,6|0,0:3|0:0,0:0:0:0:
294,259,13409,2,0,P|329:272|370:304,1,65.6000010009766,10|0,0:3|0:0,0:0:0:0:
407,346,13750,2,0,P|394:283|402:200,1,131.200002001953,10|8,0:3|0:3,0:0:0:0:
347,67,14432,6,0,L|269:52,1,65.6000010009766,6|0,0:3|0:0,0:0:0:0:
228,113,14773,2,0,P|208:83|205:38,1,65.6000010009766,8|0,0:3|0:0,0:0:0:0:
302,135,15114,2,0,P|322:165|325:210,1,65.6000010009766,10|0,0:3|0:0,0:0:0:0:
247,194,15455,2,0,L|169:179,1,65.6000010009766,8|0,0:3|0:0,0:0:0:0:
347,268,15796,6,0,L|425:253,1,65.6000010009766,6|0,0:3|0:0,0:0:0:0:
440,327,16136,2,0,L|362:342,1,65.6000010009766,10|0,0:3|0:0,0:0:0:0:
273,297,16477,2,0,P|276:233|326:193,1,131.200002001953,10|8,0:3|0:3,0:0:0:0:
216,346,17159,6,0,P|161:351|131:334,1,65.6000010009766,6|0,0:0|0:0,0:0:0:0:
182,273,17500,2,0,P|131:249|114:220,1,65.6000010009766,8|0,0:3|0:0,0:0:0:0:
187,131,17841,2,0,P|195:163|189:195,1,65.6000010009766,10|0,0:3|0:0,0:0:0:0:
115,166,18182,2,0,P|107:134|113:102,1,65.6000010009766,8|0,0:3|0:0,0:0:0:0:
245,76,18523,6,0,L|321:86,1,65.6000010009766,6|0,0:3|0:0,0:0:0:0:
336,160,18864,2,0,L|270:168,1,65.6000010009766,10|0,0:3|0:0,0:0:0:0:
328,69,19205,2,0,L|404:79,1,65.6000010009766,10|0,0:3|0:0,0:0:0:0:
419,153,19546,2,0,L|353:161,1,65.6000010009766,10|0,0:3|0:0,0:0:0:0:
189,195,19886,6,0,P|244:205|291:280,1,143.999995605469,6|8,0:0|0:0,0:0:0:0:
205,280,20398,1,10,0:0:0:0:
126,256,20568,2,0,L|36:272,1,71.9999978027344,8|8,0:3|0:3,0:0:0:0:
189,195,20909,2,0,P|203:155|196:114,1,71.9999978027344,10|0,0:0|0:0,0:0:0:0:
105,76,21250,6,0,L|125:169,1,71.9999978027344,6|0,0:3|0:0,0:0:0:0:
185,55,21591,1,8,0:0:0:0:
185,55,21761,2,0,L|205:148,1,71.9999978027344,10|8,0:0|0:3,0:0:0:0:
327,85,22102,1,8,0:0:0:0:
280,156,22273,1,6,0:3:0:0:
280,156,22614,6,0,P|320:173|352:169,1,65.6000010009766,6|0,0:0|0:0,0:0:0:0:
332,251,22955,2,0,P|375:245|400:226,1,65.6000010009766,8|0,0:3|0:0,0:0:0:0:
463,195,23296,2,0,P|439:238|422:344,1,131.200002001953,10|8,0:3|0:3,0:0:0:0:
477,372,23807,6,0,B|400:401|432:336|340:360,1,131.200002001953,2|0,0:0|0:0,0:0:0:0:
283,320,24318,2,0,P|310:290|351:278,1,65.6000010009766,10|0,0:3|0:0,0:0:0:0:
201,302,24659,2,0,P|213:340|203:381,1,65.6000010009766,10|0,0:3|0:0,0:0:0:0:
257,239,25000,2,0,P|217:230|186:201,1,65.6000010009766,10|0,0:3|0:0,0:0:0:0:
244,95,25341,6,0,L|259:263,1,143.999995605469,14|8,0:0|0:0,0:0:0:0:
459,227,26023,2,0,L|445:318,1,71.9999978027344,10|8,0:3|0:3,0:0:0:0:
411,157,26364,2,0,P|440:144|506:153,1,71.9999978027344,8|8,0:0|0:3,0:0:0:0:
320,110,26705,5,2,0:0:0:0:
332,195,26875,1,8,0:3:0:0:
244,95,27046,2,0,P|207:86|150:108,1,71.9999978027344,8|0,0:0|0:0,0:0:0:0:
141,224,27386,1,10,0:3:0:0:
141,224,27557,1,8,0:3:0:0:
93,108,27727,1,8,0:0:0:0:
93,108,28068,6,0,L|76:192,1,65.6000010009766,6|0,0:0|0:0,0:0:0:0:
141,224,28409,2,0,L|127:288,1,65.6000010009766,8|0,0:3|0:0,0:0:0:0:
68,339,28750,2,0,P|131:322|196:334,1,131.200002001953,10|8,0:3|0:3,0:0:0:0:
300,285,29261,6,0,P|259:333|196:334,1,131.200002001953,2|0,0:0|0:0,0:0:0:0:
225,259,29773,2,0,P|219:218|206:191,1,65.6000010009766,10|0,0:3|0:0,0:0:0:0:
347,240,30114,2,0,P|320:259|300:285,1,65.6000010009766,10|0,0:3|0:0,0:0:0:0:
270,144,30455,2,0,P|308:159|338:161,1,65.6000010009766,10|0,0:3|0:0,0:0:0:0:
164,135,30796,6,0,P|120:137|64:224,1,143.999995605469,14|8,0:0|0:0,0:0:0:0:
247,317,31477,2,0,P|240:258|227:232,1,71.9999978027344,10|8,0:3|0:3,0:0:0:0:
149,216,31818,2,0,P|156:275|169:301,1,71.9999978027344,8|8,0:0|0:3,0:0:0:0:
352,252,32159,5,2,0:0:0:0:
316,173,32330,1,8,0:3:0:0:
247,317,32500,2,0,P|201:307|152:297,1,71.9999978027344,8|0,0:0|0:0,0:0:0:0:
336,334,32841,1,10,0:3:0:0:
336,334,33011,1,8,0:3:0:0:
402,181,33182,2,0,P|394:140|375:85,1,71.9999978027344,8|0,0:0|0:0,0:0:0:0:
227,162,33523,6,0,P|121:135|82:131,1,131.200002001953,6|8,0:0|0:3,0:0:0:0:
47,193,34034,1,0,0:0:0:0:
103,247,34205,2,0,P|114:277|121:325,1,65.6000010009766,10|0,0:3|0:0,0:0:0:0:
186,357,34546,2,0,P|197:327|204:279,1,65.6000010009766,10|0,0:3|0:0,0:0:0:0:
253,234,34886,6,0,P|318:216|394:242,1,131.200002001953,6|8,0:3|0:3,0:0:0:0:
459,255,35398,1,0,0:0:0:0:
459,255,35568,2,0,P|410:207|395:128,1,131.200002001953,10|8,0:3|0:3,0:0:0:0:
394,147,36250,6,0,P|410:89|405:54,1,65.6000010009766,6|0,0:3|0:0,0:0:0:0:
357,23,36591,2,0,P|333:16|275:17,1,65.6000010009766,10|0,0:3|0:0,0:0:0:0:
216,26,36932,2,0,P|260:42|290:128,1,131.200002001953,10|8,0:3|0:3,0:0:0:0:
244,178,37443,1,0,0:0:0:0:
154,79,37614,6,0,P|138:45|137:10,2,65.6000010009766,6|0|8,0:3|0:0|0:3,0:0:0:0:
171,156,38125,1,0,0:0:0:0:
94,137,38296,2,0,L|29:121,1,65.6000010009766,10|0,0:3|0:0,0:0:0:0:
27,201,38636,2,0,L|92:217,1,65.6000010009766,8|0,0:3|0:0,0:0:0:0:
231,103,38977,6,0,B|316:87|276:146|372:126,1,148.800004654541,6|8,0:0|0:0,0:0:0:0:
346,47,39489,1,0,0:0:0:0:
450,118,39659,1,8,0:3:0:0:
472,38,39830,1,10,0:3:0:0:
371,126,40000,2,0,P|377:183|398:229,1,74.4000023272706,8|0,0:0|0:0,0:0:0:0:
448,333,40341,6,0,P|394:311|359:298,1,74.4000023272706,6|0,0:3|0:0,0:0:0:0:
357,223,40682,2,0,P|303:245|268:258,1,74.4000023272706,8|2,0:0|0:0,0:0:0:0:
190,349,41023,1,8,0:3:0:0:
272,334,41193,1,10,0:3:0:0:
144,277,41364,2,0,P|90:255|55:242,1,74.4000023272706,8|0,0:0|0:0,0:0:0:0:
128,142,41705,6,0,L|147:311,1,135.600000413818,12|0,0:3|0:0,0:0:0:0:
163,280,42046,6,0,L|144:111,1,147.600002252197,12|0,0:3|0:0,0:0:0:0:
170,124,42386,6,0,L|189:293,1,159.599993424683,12|0,0:3|0:0,0:0:0:0:
225,357,42727,6,0,P|263:316|268:269,1,74.4000023272706,12|0,0:3|0:0,0:0:0:0:
267,177,43068,5,8,0:0:0:0:
327,233,43239,2,0,L|338:276,2,37.2000011636353,2|0|0,0:0|0:0|0:0,0:0:0:0:
347,153,43580,1,2,0:0:0:0:
267,299,43750,6,0,B|198:273|198:273|115:340,1,148.800004654541,12|0,0:0|0:0,0:0:0:0:
37,88,44432,6,0,P|88:57|201:93,1,164.799998616943,6|8,0:0|0:0,0:0:0:0:
225,152,44943,1,0,0:0:0:0:
180,222,45114,2,0,P|151:193|141:153,1,82.3999993084717,10|4,0:3|0:3,0:0:0:0:
274,85,45455,2,0,P|302:113|312:153,1,82.3999993084717,8|0,0:0|0:0,0:0:0:0:
247,270,45796,6,0,P|275:241|315:231,1,82.3999993084717,6|0,0:3|0:0,0:0:0:0:
362,384,46136,2,0,L|321:312,1,82.3999993084717,8|0,0:0|0:0,0:0:0:0:
384,187,46477,2,0,P|386:267|321:312,1,164.799998616943,10|8,0:3|0:0,0:0:0:0:
247,270,46989,1,0,0:0:0:0:
157,384,47159,6,0,B|184:327|184:327|143:210,1,164.799998616943,6|8,0:3|0:0,0:0:0:0:
122,153,47671,1,0,0:0:0:0:
62,97,47841,2,0,B|35:154|35:154|76:271,1,164.799998616943,10|8,0:3|0:0,0:0:0:0:
150,230,48352,1,0,0:0:0:0:
185,95,48523,6,0,P|206:80|285:86,1,82.3999993084717,6|0,0:3|0:0,0:0:0:0:
320,135,48864,2,0,P|299:150|220:144,1,82.3999993084717,8|0,0:0|0:0,0:0:0:0:
343,54,49205,1,10,0:3:0:0:
343,54,49375,1,0,0:0:0:0:
400,114,49546,2,0,L|388:216,1,82.3999993084717,8|0,0:0|0:0,0:0:0:0:
493,322,49886,6,0,P|413:277|310:275,1,164.799998616943,6|8,0:0|0:0,0:0:0:0:
275,321,50398,1,0,0:0:0:0:
200,287,50568,2,0,L|214:200,1,82.3999993084717,10|8,0:3|0:3,0:0:0:0:
140,167,50909,2,0,L|126:254,1,82.3999993084717,8|0,0:0|0:0,0:0:0:0:
211,127,51250,6,0,P|188:100|113:95,1,82.3999993084717,6|0,0:3|0:0,0:0:0:0:
24,65,51591,2,0,P|63:54|90:24,1,82.3999993084717,8|0,0:0|0:0,0:0:0:0:
211,127,51932,2,0,P|234:59|322:38,1,164.799998616943,10|8,0:3|0:0,0:0:0:0:
296,116,52443,1,0,0:0:0:0:
185,207,52614,6,0,P|132:188|93:185,1,82.3999993084717,6|0,0:3|0:0,0:0:0:0:
167,293,52955,2,0,P|207:286|245:271,1,82.3999993084717,8|0,0:0|0:0,0:0:0:0:
293,204,53296,2,0,P|240:185|201:182,1,82.3999993084717,10|8,0:3|0:3,0:0:0:0:
275,290,53637,2,0,P|315:283|353:268,1,82.3999993084717,8|0,0:0|0:0,0:0:0:0:
372,186,53977,5,6,0:3:0:0:
293,204,54148,1,0,0:0:0:0:
432,248,54318,1,8,0:0:0:0:
456,168,54489,1,0,0:0:0:0:
353,268,54659,1,10,0:3:0:0:
317,127,54830,1,8,0:0:0:0:
432,248,55000,2,0,P|477:249|523:212,1,82.3999993084717,8|0,0:3|0:0,0:0:0:0:
275,290,55341,6,0,B|215:276|215:276|171:293|171:293|92:276,1,164.799998616943,6|8,0:0|0:0,0:0:0:0:
159,211,55852,1,0,0:0:0:0:
97,155,56023,2,0,P|144:126|175:129,1,82.3999993084717,10|8,0:3|0:3,0:0:0:0:
213,53,56364,2,0,P|172:50|140:25,1,82.3999993084717,8|0,0:0|0:0,0:0:0:0:
252,134,56705,6,0,L|391:118,1,123.599998962708,6|0,0:3|0:0,0:0:0:0:
413,105,57046,2,0,L|398:208,1,82.3999993084717,8|0,0:0|0:0,0:0:0:0:
474,225,57386,2,0,L|489:122,1,82.3999993084717,10|8,0:3|0:3,0:0:0:0:
406,266,57727,2,0,L|391:369,1,82.3999993084717,8|0,0:0|0:0,0:0:0:0:
334,239,58068,6,0,P|290:277|193:233,1,164.799998616943,6|8,0:3|0:0,0:0:0:0:
133,195,58580,1,0,0:0:0:0:
63,238,58750,2,0,P|107:276|204:232,1,164.799998616943,10|8,0:3|0:0,0:0:0:0:
209,161,59261,1,0,0:0:0:0:
122,113,59432,6,0,L|134:205,1,82.3999993084717,6|0,0:3|0:0,0:0:0:0:
195,78,59773,2,0,P|235:80|278:114,1,82.3999993084717,8|0,0:0|0:0,0:0:0:0:
358,163,60114,2,0,P|318:165|275:199,1,82.3999993084717,10|8,0:3|0:3,0:0:0:0:
335,326,60455,2,0,L|345:244,1,82.3999993084717,8|0,0:0|0:0,0:0:0:0:
176,370,60796,6,0,P|165:323|52:261,1,164.799998616943,6|8,0:0|0:0,0:0:0:0:
12,204,61307,1,0,0:0:0:0:
58,135,61477,2,0,L|159:152,1,82.3999993084717,10|8,0:3|0:3,0:0:0:0:
125,64,61818,2,0,L|226:81,1,82.3999993084717,8|0,0:0|0:0,0:0:0:0:
263,213,62159,5,6,0:3:0:0:
268,130,62330,1,0,0:0:0:0:
336,258,62500,1,8,0:0:0:0:
341,175,62671,1,0,0:0:0:0:
258,295,62841,2,0,P|212:277|186:240,1,82.3999993084717,10|8,0:3|0:3,0:0:0:0:
341,175,63182,2,0,P|387:193|417:228,1,82.3999993084717,8|0,0:0|0:0,0:0:0:0:
196,170,63523,5,6,0:0:0:0:
268,130,63693,1,0,0:0:0:0:
116,165,63864,1,8,0:0:0:0:
263,213,64034,2,0,L|258:315,1,82.3999993084717,10|0,0:3|0:0,0:0:0:0:
196,170,64375,1,8,0:3:0:0:
341,175,64546,2,0,L|345:257,1,82.3999993084717,10|0,0:0|0:0,0:0:0:0:
268,130,64886,5,10,0:0:0:0:
192,251,65057,1,0,0:0:0:0:
198,92,65227,5,10,0:0:0:0:
263,213,65398,1,0,0:0:0:0:
266,50,65568,5,10,0:0:0:0:
192,251,65909,1,8,0:0:0:0:
401,209,66250,5,12,0:0:0:0:
169,243,87046,5,4,0:3:0:0:
145,86,87216,2,0,L|137:183,1,82.3999993084717,8|0,0:0|0:0,0:0:0:0:
169,243,87557,1,8,0:0:0:0:
221,105,87727,1,8,0:3:0:0:
221,105,88068,6,0,B|296:86|271:147|365:124,1,136.000002593994,6|8,0:0|0:3,0:0:0:0:
330,52,88580,1,0,0:0:0:0:
330,52,88750,2,0,B|385:-1|394:63|464:-3,1,136.000002593994,10|8,0:3|0:3,0:0:0:0:
512,62,89261,1,0,0:0:0:0:
430,134,89432,6,0,P|421:189|419:223,1,68.0000012969971,6|0,0:3|0:0,0:0:0:0:
340,215,89773,2,0,P|349:270|351:304,1,68.0000012969971,10|0,0:3|0:0,0:0:0:0:
304,347,90114,2,0,P|366:320|466:320,1,136.000002593994,10|8,0:3|0:3,0:0:0:0:
226,297,90796,6,0,P|158:291|96:264,1,136.000002593994,6|8,0:3|0:3,0:0:0:0:
145,200,91307,1,0,0:0:0:0:
145,200,91477,2,0,P|89:161|49:107,1,136.000002593994,10|8,0:3|0:3,0:0:0:0:
114,55,91989,1,0,0:0:0:0:
207,148,92159,6,0,P|261:131|282:128,1,68.0000012969971,6|0,0:3|0:0,0:0:0:0:
266,47,92500,2,0,P|321:59|340:67,1,68.0000012969971,10|0,0:3|0:0,0:0:0:0:
413,77,92841,2,0,P|396:197|395:233,1,136.000002593994,10|8,0:3|0:3,0:0:0:0:
443,280,93352,1,0,0:0:0:0:
316,228,93523,6,0,P|260:209|165:227,1,136.000002593994,6|8,0:0|0:3,0:0:0:0:
141,150,94034,1,0,0:0:0:0:
141,150,94205,2,0,P|83:161|9:224,1,136.000002593994,10|8,0:3|0:3,0:0:0:0:
55,282,94716,1,0,0:0:0:0:
184,217,94886,6,0,L|167:309,1,68.0000012969971,6|0,0:3|0:0,0:0:0:0:
245,325,95227,2,0,L|262:233,1,68.0000012969971,10|0,0:3|0:0,0:0:0:0:
308,193,95568,2,0,P|297:244|358:325,1,136.000002593994,10|8,0:3|0:3,0:0:0:0:
481,132,96250,6,0,L|324:114,1,136.000002593994,6|8,0:3|0:3,0:0:0:0:
320,42,96761,1,0,0:0:0:0:
320,42,96932,2,0,L|184:57,1,136.000002593994,10|8,0:3|0:3,0:0:0:0:
132,122,97443,1,0,0:0:0:0:
43,20,97614,6,0,P|57:69|61:104,1,68.0000012969971,6|0,0:3|0:0,0:0:0:0:
132,122,97955,2,0,P|118:171|114:206,1,68.0000012969971,10|0,0:3|0:0,0:0:0:0:
178,244,98296,2,0,P|133:228|34:247,1,136.000002593994,10|8,0:3|0:3,0:0:0:0:
83,316,98807,1,0,0:0:0:0:
221,320,98977,6,0,P|254:282|247:197,1,136.000002593994,6|8,0:0|0:3,0:0:0:0:
242,121,99489,1,0,0:0:0:0:
242,121,99659,2,0,P|258:168|335:205,1,136.000002593994,10|8,0:3|0:3,0:0:0:0:
327,121,100171,1,0,0:0:0:0:
247,38,100341,6,0,L|160:35,1,68.0000012969971,6|0,0:3|0:0,0:0:0:0:
327,121,100682,2,0,L|414:118,1,68.0000012969971,10|0,0:3|0:0,0:0:0:0:
242,121,101023,2,0,L|237:256,1,136.000002593994,10|8,0:3|0:3,0:0:0:0:
398,334,101705,6,0,P|361:310|318:310,1,68.0000012969971,6|0,0:3|0:0,0:0:0:0:
250,265,102046,2,0,P|289:244|310:207,1,68.0000012969971,8|0,0:3|0:0,0:0:0:0:
221,116,102386,2,0,P|230:171|233:215,1,68.0000012969971,10|0,0:3|0:0,0:0:0:0:
158,234,102727,2,0,P|149:179|146:135,1,68.0000012969971,8|0,0:3|0:0,0:0:0:0:
179,43,103068,6,0,P|218:32|248:35,1,68.0000012969971,6|0,0:3|0:0,0:0:0:0:
286,107,103409,2,0,P|247:118|217:115,1,68.0000012969971,10|0,0:3|0:0,0:0:0:0:
96,64,103750,2,0,P|112:120|119:210,1,136.000002593994,10|8,0:3|0:3,0:0:0:0:
200,224,104261,1,0,0:0:0:0:
286,107,104432,6,0,P|341:88|378:95,1,68.0000012969971,6|0,0:0|0:0,0:0:0:0:
340,6,104773,2,0,P|397:17|425:41,1,68.0000012969971,8|0,0:3|0:0,0:0:0:0:
488,113,105114,2,0,P|444:151|431:186,1,68.0000012969971,10|0,0:3|0:0,0:0:0:0:
353,172,105455,2,0,P|356:139|372:109,1,68.0000012969971,8|0,0:3|0:0,0:0:0:0:
410,238,105796,6,0,L|403:324,1,68.0000012969971,6|0,0:3|0:0,0:0:0:0:
320,283,106136,2,0,L|327:369,1,68.0000012969971,10|0,0:3|0:0,0:0:0:0:
243,242,106477,2,0,L|236:328,1,68.0000012969971,10|0,0:3|0:0,0:0:0:0:
153,287,106818,2,0,L|160:373,1,68.0000012969971,10|0,0:3|0:0,0:0:0:0:
29,179,107159,6,0,P|78:206|175:185,1,148.800004654541,6|8,0:0|0:0,0:0:0:0:
192,43,107671,1,10,0:0:0:0:
134,113,107841,2,0,P|105:80|103:29,1,74.4000023272706,8|8,0:3|0:3,0:0:0:0:
245,157,108182,2,0,P|288:148|333:172,1,74.4000023272706,10|0,0:0|0:0,0:0:0:0:
296,309,108523,6,0,L|275:201,1,74.4000023272706,6|0,0:3|0:0,0:0:0:0:
395,125,108864,1,8,0:0:0:0:
467,178,109034,2,0,L|488:70,1,74.4000023272706,10|8,0:0|0:3,0:0:0:0:
316,157,109375,1,8,0:0:0:0:
472,260,109546,1,6,0:3:0:0:
472,260,109886,6,0,P|417:262|383:277,1,66.4000009625244,6|0,0:0|0:0,0:0:0:0:
335,233,110227,2,0,P|288:262|266:292,1,66.4000009625244,8|0,0:3|0:0,0:0:0:0:
266,349,110568,2,0,P|251:281|210:223,1,132.800001925049,10|8,0:3|0:3,0:0:0:0:
195,149,111080,6,0,P|180:217|139:275,1,132.800001925049,2|0,0:0|0:0,0:0:0:0:
112,138,111591,2,0,P|126:100|154:77,1,66.4000009625244,10|0,0:3|0:0,0:0:0:0:
258,149,111932,2,0,P|226:156|194:148,1,66.4000009625244,10|0,0:3|0:0,0:0:0:0:
196,17,112273,2,0,P|221:48|227:83,1,66.4000009625244,10|0,0:3|0:0,0:0:0:0:
344,197,112614,6,0,P|335:137|332:115,1,74.4000023272706,14|0,0:0|0:0,0:0:0:0:
436,81,112955,2,0,P|430:117|425:154,1,74.4000023272706,8|0,0:0|0:0,0:0:0:0:
502,308,113296,1,10,0:3:0:0:
502,308,113466,1,8,0:3:0:0:
415,295,113636,2,0,P|434:249|471:228,1,74.4000023272706,8|8,0:0|0:3,0:0:0:0:
456,384,113977,5,2,0:0:0:0:
502,308,114148,1,8,0:3:0:0:
364,383,114318,2,0,P|305:360|270:360,1,74.4000023272706,8|0,0:0|0:0,0:0:0:0:
174,374,114659,1,10,0:3:0:0:
174,374,114830,1,8,0:3:0:0:
235,245,115000,1,8,0:0:0:0:
235,245,115341,6,0,L|224:162,1,66.4000009625244,6|0,0:0|0:0,0:0:0:0:
147,164,115682,2,0,L|158:247,1,66.4000009625244,8|0,0:3|0:0,0:0:0:0:
197,105,116023,2,0,P|237:99|304:167,1,132.800001925049,10|8,0:3|0:3,0:0:0:0:
406,207,116534,6,0,P|366:213|299:145,1,132.800001925049,2|0,0:0|0:0,0:0:0:0:
459,148,117046,2,0,P|479:169|488:208,1,66.4000009625244,10|0,0:3|0:0,0:0:0:0:
371,260,117386,2,0,P|379:232|408:204,1,66.4000009625244,10|0,0:3|0:0,0:0:0:0:
512,281,117727,2,0,P|483:287|445:276,1,66.4000009625244,10|0,0:3|0:0,0:0:0:0:
308,365,118068,6,0,L|218:347,1,74.4000023272706,14|0,0:0|0:0,0:0:0:0:
173,279,118409,2,0,L|245:264,1,74.4000023272706,8|0,0:0|0:0,0:0:0:0:
94,374,118750,1,10,0:3:0:0:
94,374,118921,1,8,0:3:0:0:
24,319,119091,2,0,P|51:295|115:295,1,74.4000023272706,8|8,0:0|0:3,0:0:0:0:
112,166,119432,5,2,0:0:0:0:
156,241,119602,1,8,0:3:0:0:
180,108,119773,2,0,P|153:84|89:84,1,74.4000023272706,8|0,0:0|0:0,0:0:0:0:
228,186,120114,1,10,0:3:0:0:
228,186,120284,1,8,0:3:0:0:
297,35,120455,1,8,0:0:0:0:
297,35,120796,6,0,B|369:18|338:80|428:66,1,136.000002593994,6|8,0:0|0:3,0:0:0:0:
483,122,121307,1,0,0:0:0:0:
419,174,121477,2,0,P|408:216|407:262,1,68.0000012969971,10|0,0:3|0:0,0:0:0:0:
473,291,121818,2,0,P|484:249|485:203,1,68.0000012969971,10|0,0:3|0:0,0:0:0:0:
347,292,122159,6,0,P|282:273|215:272,1,136.000002593994,6|8,0:3|0:3,0:0:0:0:
141,243,122671,1,0,0:0:0:0:
102,317,122841,2,0,P|168:319|215:272,1,136.000002593994,10|8,0:3|0:3,0:0:0:0:
126,176,123523,6,0,P|143:259|144:266,1,68.0000012969971,6|0,0:3|0:0,0:0:0:0:
50,132,123864,2,0,P|33:215|32:222,1,68.0000012969971,10|0,0:3|0:0,0:0:0:0:
177,104,124205,2,0,P|255:116|338:138,1,136.000002593994,10|8,0:3|0:3,0:0:0:0:
373,74,124716,1,0,0:0:0:0:
433,193,124886,5,6,0:3:0:0:
447,112,125057,2,0,L|459:29,1,68.0000012969971,0|8,0:0|0:3,0:0:0:0:
512,163,125398,1,0,0:0:0:0:
351,207,125568,2,0,L|266:182,1,68.0000012969971,10|0,0:3|0:0,0:0:0:0:
325,322,125909,2,0,L|390:302,1,68.0000012969971,8|0,0:3|0:0,0:0:0:0:
201,206,126250,6,0,P|226:272|225:361,1,151.999995941162,6|8,0:0|0:0,0:0:0:0:
126,255,126761,1,0,0:0:0:0:
47,294,126932,1,8,0:3:0:0:
123,166,127102,1,10,0:3:0:0:
44,205,127273,2,0,P|36:158|44:113,1,75.9999979705811,8|0,0:0|0:0,0:0:0:0:
196,121,127614,6,0,P|232:90|275:75,1,75.9999979705811,6|0,0:3|0:0,0:0:0:0:
378,58,127955,2,0,P|343:41|315:16,1,75.9999979705811,8|2,0:0|0:0,0:0:0:0:
301,189,128296,1,8,0:3:0:0:
372,141,128466,1,10,0:3:0:0:
459,272,128636,2,0,P|475:318|468:359,1,75.9999979705811,8|0,0:0|0:0,0:0:0:0:
376,252,128977,6,0,P|315:266|222:314,1,138.000002632141,12|0,0:3|0:0,0:0:0:0:
236,279,129318,6,0,P|303:246|376:228,1,150,12|0,0:3|0:0,0:0:0:0:
374,206,129659,6,0,P|296:228|224:266,1,162.000000617981,12|0,0:3|0:0,0:0:0:0:
153,302,130000,6,0,B|142:265|142:265|161:213,1,75.9999979705811,12|0,0:3|0:0,0:0:0:0:
229,71,130341,5,8,0:0:0:0:
195,153,130511,1,2,0:0:0:0:
195,153,130597,1,0,0:0:0:0:
195,153,130682,1,4,0:3:0:0:
111,119,130852,1,2,0:0:0:0:
288,148,131023,5,12,0:0:0:0:
118,208,131193,1,10,0:0:0:0:
118,208,131278,1,8,0:0:0:0:
118,208,131364,1,8,0:0:0:0:
247,326,131534,1,10,0:0:0:0:
195,153,131705,6,0,P|142:230|117:314,1,167.999994873047,6|8,0:0|0:0,0:0:0:0:
171,369,132216,1,0,0:0:0:0:
246,325,132386,2,0,P|298:320|339:346,1,83.9999974365235,10|8,0:3|0:3,0:0:0:0:
456,273,132727,2,0,P|404:278|363:252,1,83.9999974365235,8|0,0:0|0:0,0:0:0:0:
433,114,133068,6,0,P|438:166|412:207,1,83.9999974365235,6|0,0:3|0:0,0:0:0:0:
360,61,133409,2,0,P|318:67|286:93,1,83.9999974365235,8|0,0:0|0:0,0:0:0:0:
277,178,133750,1,10,0:3:0:0:
355,148,133921,1,8,0:3:0:0:
207,125,134091,2,0,L|114:112,1,83.9999974365235,8|0,0:0|0:0,0:0:0:0:
195,210,134432,6,0,L|222:377,1,167.999994873047,6|8,0:3|0:0,0:0:0:0:
293,329,134943,1,0,0:0:0:0:
377,343,135114,2,0,L|479:346,1,83.9999974365235,10|8,0:3|0:3,0:0:0:0:
350,264,135455,1,8,0:0:0:0:
293,329,135625,1,0,0:0:0:0:
285,208,135796,6,0,P|320:181|412:209,1,125.999996154785,6|0,0:3|0:0,0:0:0:0:
425,223,136136,2,0,L|438:127,1,83.9999974365235,8|0,0:0|0:0,0:0:0:0:
401,62,136477,1,10,0:3:0:0:
401,62,136648,1,8,0:3:0:0:
273,117,136818,2,0,P|293:129|361:124,1,83.9999974365235,8|0,0:0|0:0,0:0:0:0:
182,12,137159,6,0,L|204:191,1,167.999994873047,6|8,0:0|0:0,0:0:0:0:
138,238,137671,1,0,0:0:0:0:
69,191,137841,2,0,L|74:100,1,83.9999974365235,10|8,0:3|0:3,0:0:0:0:
138,238,138182,2,0,P|186:268|241:258,1,83.9999974365235,8|0,0:0|0:0,0:0:0:0:
286,183,138523,6,0,L|195:178,1,83.9999974365235,6|0,0:3|0:0,0:0:0:0:
285,314,138864,2,0,L|376:319,1,83.9999974365235,8|0,0:0|0:0,0:0:0:0:
458,222,139205,1,10,0:3:0:0:
449,304,139375,1,8,0:3:0:0:
373,206,139546,2,0,P|385:171|439:143,1,83.9999974365235,8|0,0:0|0:0,0:0:0:0:
313,26,139886,6,0,L|335:143,1,83.9999974365235,6|0,0:3|0:0,0:0:0:0:
229,197,140227,2,0,L|244:114,1,83.9999974365235,8|0,0:0|0:0,0:0:0:0:
96,161,140568,2,0,L|74:278,1,83.9999974365235,10|8,0:3|0:3,0:0:0:0:
179,331,140909,2,0,L|164:249,1,83.9999974365235,8|0,0:0|0:0,0:0:0:0:
296,250,141250,5,6,0:3:0:0:
229,197,141421,1,0,0:0:0:0:
284,334,141591,1,8,0:0:0:0:
308,166,141761,1,0,0:0:0:0:
241,113,141932,1,10,0:3:0:0:
296,250,142102,1,8,0:0:0:0:
320,82,142273,2,0,L|332:-8,1,83.9999974365235,8|0,0:3|0:0,0:0:0:0:
229,197,142614,6,0,B|127:227|167:154|51:195,1,167.999994873047,6|8,0:0|0:0,0:0:0:0:
103,266,143125,1,0,0:0:0:0:
143,340,143296,2,0,P|95:349|43:323,1,83.9999974365235,10|8,0:3|0:3,0:0:0:0:
207,286,143636,2,0,P|255:277|307:303,1,83.9999974365235,8|0,0:0|0:0,0:0:0:0:
443,250,143977,6,0,P|428:304|419:350,1,83.9999974365235,6|0,0:3|0:0,0:0:0:0:
339,170,144318,2,0,P|354:224|363:270,1,83.9999974365235,8|0,0:0|0:0,0:0:0:0:
481,149,144659,1,10,0:3:0:0:
443,226,144830,1,8,0:3:0:0:
390,102,145000,2,0,P|351:87|293:94,1,83.9999974365235,8|0,0:0|0:0,0:0:0:0:
218,199,145341,6,0,P|272:185|304:74,1,167.999994873047,6|8,0:3|0:0,0:0:0:0:
228,112,145852,1,0,0:0:0:0:
129,229,146023,2,0,P|153:328|152:346,1,83.9999974365235,10|8,0:3|0:3,0:0:0:0:
67,167,146364,1,8,0:0:0:0:
47,250,146534,1,0,0:0:0:0:
151,147,146705,6,0,P|143:105|127:66,1,83.9999974365235,6|0,0:3|0:0,0:0:0:0:
218,199,147046,2,0,P|257:213|299:218,1,83.9999974365235,8|0,0:0|0:0,0:0:0:0:
232,119,147386,2,0,P|263:91|289:58,1,83.9999974365235,10|8,0:3|0:3,0:0:0:0:
375,187,147727,2,0,P|377:249|350:286,1,83.9999974365235,8|0,0:0|0:0,0:0:0:0:
200,313,148068,6,0,L|283:301,1,83.9999974365235,6|0,0:0|0:0,0:0:0:0:
143,214,148409,2,0,L|226:225,1,83.9999974365235,8|0,0:0|0:0,0:0:0:0:
100,317,148750,2,0,L|183:305,1,83.9999974365235,10|8,0:3|0:3,0:0:0:0:
43,218,149091,2,0,L|126:229,1,83.9999974365235,8|0,0:0|0:0,0:0:0:0:
164,67,149432,5,6,0:3:0:0:
119,140,149602,1,0,0:0:0:0:
246,106,149773,1,8,0:0:0:0:
241,21,149943,1,0,0:0:0:0:
202,186,150114,2,0,P|224:234|234:295,1,83.9999974365235,10|8,0:3|0:3,0:0:0:0:
327,128,150455,2,0,P|349:80|359:19,1,83.9999974365235,8|0,0:0|0:0,0:0:0:0:
315,269,150796,5,6,0:0:0:0:
272,340,150966,1,0,0:0:0:0:
399,272,151136,1,8,0:0:0:0:
231,264,151307,1,10,0:3:0:0:
359,344,151477,1,0,0:0:0:0:
278,196,151648,1,8,0:3:0:0:
184,335,151818,2,0,L|101:311,1,83.9999974365235,10|0,0:0|0:0,0:0:0:0:
315,269,152159,5,10,0:0:0:0:
194,191,152330,1,0,0:0:0:0:
362,202,152500,5,10,0:0:0:0:
272,340,152671,1,0,0:0:0:0:
440,341,152841,5,10,0:0:0:0:
315,269,153011,1,0,0:0:0:0:
445,205,153182,1,10,0:0:0:0:
399,272,153352,1,0,0:0:0:0:
240,123,153523,6,0,L|253:11,1,83.9999974365235,6|0,0:0|0:0,0:0:0:0:
160,179,153864,2,0,L|147:67,1,83.9999974365235,8|0,0:0|0:0,0:0:0:0:
240,235,154205,2,0,L|253:123,1,83.9999974365235,10|10,0:3|0:3,0:0:0:0:
160,291,154546,2,0,L|147:179,1,83.9999974365235,10|0,0:0|0:0,0:0:0:0:
304,296,154886,6,0,P|343:284|420:292,1,83.9999974365235,6|0,0:3|0:0,0:0:0:0:
377,198,155227,2,0,P|416:207|479:252,1,83.9999974365235,8|0,0:0|0:0,0:0:0:0:
360,114,155568,1,10,0:3:0:0:
436,74,155739,1,10,0:3:0:0:
320,39,155909,2,0,P|277:33|203:36,1,83.9999974365235,10|0,0:0|0:0,0:0:0:0:
140,145,156250,6,0,P|125:78|111:43,1,83.9999974365235,6|0,0:3|0:0,0:0:0:0:
250,194,156591,2,0,P|265:127|279:92,1,83.9999974365235,8|0,0:0|0:0,0:0:0:0:
93,219,156932,2,0,P|51:203|-14:203,1,83.9999974365235,10|10,0:3|0:3,0:0:0:0:
287,267,157273,2,0,P|328:262|367:247,1,83.9999974365235,10|0,0:0|0:0,0:0:0:0:
178,227,157614,5,6,0:3:0:0:
151,308,157784,2,0,P|192:312|231:327,1,83.9999974365235,0|8,0:0|0:0,0:0:0:0:
93,219,158125,1,0,0:0:0:0:
59,361,158296,2,0,P|44:325|31:263,1,83.9999974365235,10|10,0:3|0:3,0:0:0:0:
209,152,158636,1,10,0:0:0:0:
151,308,158807,1,0,0:0:0:0:
74,110,158977,6,0,P|65:71|47:13,1,83.9999974365235,6|0,0:0|0:0,0:0:0:0:
152,89,159318,1,10,3:2:0:0:
165,79,159403,1,0,3:0:0:0:
180,72,159488,1,0,3:0:0:0:
197,68,159573,1,0,3:0:0:0:
214,68,159659,2,0,L|268:61,1,41.9999987182618,10|0,3:3|3:0,0:0:0:0:
280,139,159830,2,0,L|334:146,1,41.9999987182618,10|0,3:3|0:0,0:0:0:0:
373,84,160000,2,0,P|375:58|365:19,2,41.9999987182618,10|0|0,3:2|0:0|0:0,0:0:0:0:
456,192,160341,6,0,P|408:198|375:324,1,167.999994873047,6|8,0:3|0:0,0:0:0:0:
180,376,160852,2,0,P|198:331|106:239,1,167.999994873047,2|8,0:0|0:3,0:0:0:0:
281,300,161364,2,0,P|331:308|384:280,1,83.9999974365235,10|0,0:0|0:0,0:0:0:0:
110,324,161705,5,14,0:0:0:0:
213,188,161875,2,0,P|205:144|182:97,1,83.9999974365235,8|8,0:3|0:0,0:0:0:0:
129,226,162216,2,0,P|100:191|56:162,1,83.9999974365235,10|0,0:3|0:0,0:0:0:0:
100,313,162557,2,0,P|57:297|5:294,1,83.9999974365235,10|0,0:3|0:0,0:0:0:0:
208,292,162898,5,14,0:0:0:0:
256,192,162983,12,0,164432,0:0:0:0:
61,137,175341,6,0,B|171:145|92:215|216:224,1,184.000003509522,6|8,0:0|0:0,0:0:0:0:
210,138,175852,1,0,0:0:0:0:
64,220,176023,2,0,P|61:261|97:318,1,92.0000017547608,10|8,0:3|0:3,0:0:0:0:
290,163,176364,2,0,P|293:122|257:65,1,92.0000017547608,8|0,0:0|0:0,0:0:0:0:
240,302,176705,6,0,P|303:282|355:280,1,92.0000017547608,6|0,0:3|0:0,0:0:0:0:
455,226,177046,2,0,P|407:216|361:200,1,92.0000017547608,8|0,0:0|0:0,0:0:0:0:
271,77,177386,1,10,0:3:0:0:
210,138,177557,1,8,0:3:0:0:
359,111,177727,2,0,P|406:101|454:101,1,92.0000017547608,8|0,0:0|0:0,0:0:0:0:
210,138,178068,6,0,P|162:138|115:129,1,92.0000017547608,6|0,0:3|0:0,0:0:0:0:
45,235,178409,1,8,0:0:0:0:
33,149,178580,1,0,0:0:0:0:
163,234,178750,2,0,P|215:223|268:223,1,92.0000017547608,10|8,0:3|0:3,0:0:0:0:
336,333,179091,1,8,0:0:0:0:
348,246,179262,1,0,0:0:0:0:
229,356,179432,6,0,L|136:340,1,92.0000017547608,6|0,0:3|0:0,0:0:0:0:
16,252,179773,2,0,L|37:344,1,92.0000017547608,8|0,0:0|0:0,0:0:0:0:
155,176,180114,1,10,0:3:0:0:
125,259,180284,1,8,0:3:0:0:
46,101,180455,2,0,L|67:193,1,92.0000017547608,8|0,0:0|0:0,0:0:0:0:
234,59,180796,6,0,P|208:140|213:238,1,184.000003509522,6|8,0:0|0:0,0:0:0:0:
288,277,181307,1,0,0:0:0:0:
314,119,181477,2,0,P|336:175|347:227,1,92.0000017547608,10|8,0:3|0:3,0:0:0:0:
398,323,181818,2,0,P|411:274|429:228,1,92.0000017547608,8|0,0:0|0:0,0:0:0:0:
303,362,182159,6,0,P|267:359|217:325,1,92.0000017547608,6|0,0:3|0:0,0:0:0:0:
62,326,182500,2,0,P|98:323|148:289,1,92.0000017547608,8|0,0:0|0:0,0:0:0:0:
224,161,182841,1,10,0:3:0:0:
213,245,183011,1,8,0:3:0:0:
100,116,183182,2,0,P|132:175|144:226,1,92.0000017547608,8|0,0:0|0:0,0:0:0:0:
336,38,183523,6,0,P|304:97|292:148,1,92.0000017547608,6|0,0:3|0:0,0:0:0:0:
140,12,183864,2,0,P|172:71|184:122,1,92.0000017547608,8|0,0:0|0:0,0:0:0:0:
355,181,184205,2,0,P|411:163|448:163,1,92.0000017547608,10|8,0:3|0:3,0:0:0:0:
139,198,184546,2,0,P|92:193|49:177,1,92.0000017547608,8|0,0:0|0:0,0:0:0:0:
327,261,184886,6,0,P|323:313|316:378,1,92.0000017547608,6|0,0:3|0:0,0:0:0:0:
189,278,185227,2,0,P|193:330|200:395,1,92.0000017547608,8|0,0:0|0:0,0:0:0:0:
253,222,185568,1,10,0:3:0:0:
109,332,185739,1,4,0:3:0:0:
208,149,185909,2,0,L|322:127,1,92.0000017547608,8|0,0:0|0:0,0:0:0:0:
458,291,186250,6,0,P|389:277|381:164,1,184.000003509522,6|8,0:0|0:0,0:0:0:0:
450,206,186761,1,0,0:0:0:0:
328,106,186932,2,0,P|313:111|225:148,1,92.0000017547608,10|8,0:3|0:3,0:0:0:0:
138,185,187273,2,0,P|153:190|241:227,1,92.0000017547608,8|0,0:0|0:0,0:0:0:0:
316,358,187614,6,0,P|300:310|295:253,1,92.0000017547608,6|0,0:3|0:0,0:0:0:0:
114,161,187955,2,0,P|105:210|88:257,1,92.0000017547608,8|0,0:0|0:0,0:0:0:0:
104,339,188296,2,0,P|181:317|224:318,1,92.0000017547608,10|8,0:3|0:3,0:0:0:0:
307,179,188636,2,0,P|252:169|201:149,1,92.0000017547608,8|0,0:0|0:0,0:0:0:0:
403,347,188977,6,0,P|446:328|493:321,1,92.0000017547608,6|0,0:3|0:0,0:0:0:0:
279,257,189318,2,0,P|295:305|300:362,1,92.0000017547608,8|0,0:0|0:0,0:0:0:0:
442,166,189659,2,0,P|426:214|421:271,1,92.0000017547608,10|8,0:3|0:3,0:0:0:0:
256,164,190000,2,0,P|306:183|360:192,1,92.0000017547608,8|0,0:0|0:0,0:0:0:0:
164,28,190341,6,0,L|189:138,1,92.0000017547608,6|0,0:3|0:0,0:0:0:0:
47,235,190682,2,0,L|67:141,1,92.0000017547608,8|0,0:0|0:0,0:0:0:0:
161,270,191023,1,10,0:3:0:0:
138,190,191193,1,8,0:3:0:0:
105,337,191364,2,0,P|147:360|206:346,1,92.0000017547608,8|0,0:0|0:0,0:0:0:0:
258,190,191705,6,0,P|248:263|249:308,1,92.0000017547608,6|0,0:0|0:0,0:0:0:0:
387,168,192046,2,0,P|397:241|396:286,1,92.0000017547608,8|0,0:0|0:0,0:0:0:0:
245,89,192386,2,0,P|235:162|236:207,1,92.0000017547608,10|8,0:3|0:3,0:0:0:0:
397,60,192727,2,0,P|407:133|406:178,1,92.0000017547608,8|0,0:0|0:0,0:0:0:0:
317,39,193068,5,6,0:3:0:0:
394,1,193239,1,0,0:0:0:0:
241,4,193409,1,8,0:0:0:0:
387,85,193580,1,8,0:0:0:0:
245,89,193750,2,0,P|175:68|147:69,1,92.0000017547608,10|8,0:3|0:3,0:0:0:0:
362,171,194091,2,0,P|408:164|453:145,1,92.0000017547608,8|0,0:0|0:0,0:0:0:0:
160,164,194432,5,6,0:0:0:0:
193,315,194602,1,8,0:0:0:0:
218,106,194773,5,8,0:0:0:0:
196,234,194943,1,10,0:3:0:0:
137,84,195114,5,8,0:0:0:0:
298,129,195284,1,8,0:3:0:0:
112,241,195455,5,10,0:0:0:0:
280,230,195625,1,8,0:3:0:0:
160,164,195796,5,10,0:0:0:0:
283,317,195966,1,0,0:0:0:0:
298,129,196136,5,10,0:0:0:0:
196,234,196307,1,0,0:0:0:0:
358,272,196477,5,10,0:0:0:0:
201,26,196818,5,8,0:0:0:0:
201,26,197159,5,4,0:0:0:0:
132,71,197330,2,0,P|168:104|264:78,1,136.000002593994,2|0,0:0|0:0,0:0:0:0:
327,63,197841,2,0,L|317:163,1,68.0000012969971,2|8,0:0|0:3,0:0:0:0:
315,212,198182,1,2,0:0:0:0:
315,212,198523,5,4,0:3:0:0:
243,252,198693,2,0,L|87:242,1,136.000002593994,2|0,0:0|0:0,0:0:0:0:
47,187,199205,1,2,0:0:0:0:
29,267,199375,1,8,0:3:0:0:
107,243,199546,1,2,0:0:0:0:
107,243,199886,5,4,0:3:0:0:
159,307,200057,2,0,B|235:296|201:354|298:340,1,136.000002593994,2|0,0:0|0:0,0:0:0:0:
276,261,200568,2,0,P|275:226|283:187,1,68.0000012969971,2|8,0:0|0:3,0:0:0:0:
340,137,200909,1,2,0:0:0:0:
340,137,201250,5,4,0:3:0:0:
299,66,201421,2,0,L|139:62,1,136.000002593994,2|0,0:0|0:0,0:0:0:0:
89,98,201932,1,2,0:0:0:0:
157,143,202102,1,8,0:3:0:0:
163,62,202273,1,2,0:0:0:0:
90,187,202443,1,8,0:3:0:0:
90,187,202528,1,8,0:3:0:0:
90,187,202614,5,4,0:3:0:0:
136,251,202784,2,0,L|272:243,1,120.000004577637,2|0,0:0|0:0,0:0:0:0:
279,321,203296,2,0,L|143:329,1,120.000004577637,2|0,0:0|0:0,0:0:0:0:
28,234,203977,5,2,0:0:0:0:
28,234,204148,2,0,P|12:186|52:111,1,120.000004577637,2|0,0:0|0:0,0:0:0:0:
100,77,204659,2,0,P|110:101|112:148,2,60.0000022888184,2|0|2,0:0|0:0|0:0,0:0:0:0:
302,29,205341,5,2,0:0:0:0:
302,29,205511,2,0,L|292:158,1,120.000004577637,2|0,0:0|0:0,0:0:0:0:
367,178,206023,2,0,L|377:49,1,120.000004577637,2|0,0:0|0:0,0:0:0:0:
220,174,206705,5,2,0:0:0:0:
220,174,206875,2,0,P|196:216|223:300,1,120.000004577637,2|0,0:0|0:0,0:0:0:0:
273,330,207386,2,0,P|326:336|359:338,1,60.0000022888184,2|0,0:0|0:0,0:0:0:0:
369,265,207727,2,0,P|316:259|283:257,1,60.0000022888184,2|0,0:0|0:0,0:0:0:0:
