osu file format v14

[General]
AudioFilename: audio.mp3
AudioLeadIn: 0
PreviewTime: 44347
Countdown: 0
SampleSet: Soft
StackLeniency: 0.7
Mode: 0
LetterboxInBreaks: 0
WidescreenStoryboard: 1

[Editor]
Bookmarks: 64682
DistanceSpacing: 1.2
BeatDivisor: 4
GridSize: 32
TimelineZoom: 1.6

[Metadata]
Title:Toosenbou
TitleUnicode:とおせんぼう
Artist:mafumafu
ArtistUnicode:まふまふ
Creator:William K
Version:Hard
Source:
Tags:keep out kagurairo artifact 神楽色アーティファクト
BeatmapID:2226201
BeatmapSetID:873264

[Difficulty]
HPDrainRate:5
CircleSize:3.8
OverallDifficulty:7
ApproachRate:7.5
SliderMultiplier:1.4
SliderTickRate:1

[Events]
//Background and Video events
Video,-648,"vid.mp4"
0,0,"toosenbou.jpg",0,0
//Break Periods
2,66450,86221
2,164632,174516
//Storyboard Layer 0 (Background)
//Storyboard Layer 1 (Fail)
//Storyboard Layer 2 (Pass)
//Storyboard Layer 3 (Foreground)
//Storyboard Layer 4 (Overlay)
//Storyboard Sound Samples

[TimingPoints]
796,340.909090909091,4,2,1,28,1,0
796,-133.333333333333,4,2,1,28,0,0
11705,-121.951219512195,4,2,1,36,0,0
19886,-111.111111111111,4,2,1,55,0,0
22614,-121.951219512195,4,2,1,40,0,0
25341,-111.111111111111,4,2,1,55,0,0
28068,-121.951219512195,4,2,1,40,0,0
30796,-111.111111111111,4,2,1,55,0,0
33523,-121.951219512195,4,2,1,40,0,0
38977,-107.52688172043,4,2,1,60,0,0
41705,-100,4,2,1,60,0,0
41960,-100,4,2,1,5,0,0
42046,-100,4,2,1,65,0,0
42301,-100,4,2,1,5,0,0
42386,-100,4,2,1,70,0,0
42642,-100,4,2,1,5,0,0
42727,-107.52688172043,4,2,1,70,0,0
44432,-97.0873786407767,4,2,1,75,0,1
66250,-97.0873786407767,4,2,1,50,0,0
87046,-97.0873786407767,4,2,1,75,0,0
88068,-117.647058823529,4,2,1,35,0,0
107159,-107.52688172043,4,2,1,55,0,0
109886,-120.481927710843,4,2,1,40,0,0
112614,-107.52688172043,4,2,1,55,0,0
115341,-120.481927710843,4,2,1,40,0,0
118068,-107.52688172043,4,2,1,55,0,0
120796,-117.647058823529,4,2,1,40,0,0
126250,-105.263157894737,4,2,1,60,0,0
128977,-100,4,2,1,60,0,0
129233,-100,4,2,1,5,0,0
129318,-100,4,2,1,65,0,0
129574,-100,4,2,1,5,0,0
129659,-100,4,2,1,70,0,0
129915,-100,4,2,1,5,0,0
130000,-105.263157894737,4,2,1,70,0,0
131705,-95.2380952380952,4,2,1,75,0,1
153523,-95.2380952380952,4,2,1,70,0,0
164432,-95.2380952380952,4,2,1,30,0,0
175341,-86.9565217391304,4,2,1,80,0,1
197159,-117.647058823529,4,2,1,40,0,0
202614,-133.333333333333,4,2,1,40,0,0

[Colours]
Combo1 : 138,217,255
Combo2 : 255,209,164
Combo3 : 255,168,168
Combo4 : 219,219,219

[HitObjects]
75,113,796,6,0,P|52:153|98:260,1,157.500006008148,2|0,0:0|0:0,0:0:0:0:
165,247,1477,2,0,P|188:207|142:100,1,157.500006008148,2|0,0:0|0:0,0:0:0:0:
210,52,2159,2,0,L|337:61,2,105.000004005432,2|2|2,0:0|0:0|0:0,0:0:0:0:
410,121,3523,6,0,L|403:292,1,157.500006008148,2|0,0:0|0:0,0:0:0:0:
326,292,4205,2,0,L|333:121,1,157.500006008148,2|0,0:0|0:0,0:0:0:0:
265,92,4886,2,0,P|194:108|152:80,2,105.000004005432,2|2|2,0:0|0:0|0:0,0:0:0:0:
58,69,6250,6,0,B|92:145|12:142|59:241,1,157.500006008148,2|0,0:0|0:0,0:0:0:0:
6,286,6932,2,0,P|62:300|126:216,1,157.500006008148,2|0,0:0|0:0,0:0:0:0:
203,249,7614,2,0,P|242:222|313:227,2,105.000004005432,2|2|2,0:0|0:0|0:0,0:0:0:0:
401,302,8977,6,0,L|416:135,1,157.500006008148,2|0,0:0|0:0,0:0:0:0:
468,85,9659,2,0,P|420:103|316:60,1,157.500006008148,2|0,0:0|0:0,0:0:0:0:
273,9,10341,2,0,P|248:46|261:119,1,105.000004005432,2|2,0:0|0:0,0:0:0:0:
122,146,11023,2,0,P|97:100|50:80,1,105.000004005432,2|0,0:0|0:0,0:0:0:0:
48,270,11705,6,0,L|186:266,1,114.800001751709,6|8,0:0|0:3,0:0:0:0:
202,198,12216,1,0,0:0:0:0:
202,198,12386,2,0,L|340:202,1,114.800001751709,10|8,0:3|0:3,0:0:0:0:
378,251,12898,1,0,0:0:0:0:
380,147,13068,6,0,P|380:110|394:24,2,114.800001751709,6|10|10,0:3|0:3|0:3,0:0:0:0:
451,288,14091,2,0,P|454:324|439:364,1,57.4000008758545,8|0,0:3|0:0,0:0:0:0:
378,251,14432,6,0,L|254:244,1,114.800001751709,6|8,0:3|0:3,0:0:0:0:
110,224,15114,2,0,P|111:262|132:303,1,57.4000008758545,10|0,0:3|0:0,0:0:0:0:
187,242,15455,2,0,P|186:204|165:163,1,57.4000008758545,8|0,0:3|0:0,0:0:0:0:
118,88,15796,6,0,P|73:104|-3:77,2,114.800001751709,6|10|10,0:3|0:3|0:3,0:0:0:0:
253,15,16818,1,8,0:3:0:0:
342,143,17159,6,0,P|349:200|351:281,1,114.800001751709,6|8,0:0|0:3,0:0:0:0:
260,382,17841,2,0,P|227:385|179:376,1,57.4000008758545,10|0,0:3|0:0,0:0:0:0:
164,313,18182,2,0,P|135:310|106:313,1,57.4000008758545,8|0,0:3|0:0,0:0:0:0:
0,364,18523,6,0,P|27:314|29:258,1,114.800001751709,6|10,0:3|0:3,0:0:0:0:
23,103,19205,2,0,P|53:108|97:104,1,57.4000008758545,10|0,0:3|0:0,0:0:0:0:
147,148,19546,2,0,P|177:143|221:147,1,57.4000008758545,10|0,0:3|0:0,0:0:0:0:
195,20,19886,6,0,L|344:26,1,125.999996154785,6|8,0:0|0:0,0:0:0:0:
397,0,20398,1,10,0:0:0:0:
459,50,20568,2,0,P|450:105|448:142,1,62.9999980773926,8|8,0:3|0:3,0:0:0:0:
456,233,20909,1,10,0:0:0:0:
456,233,21250,6,0,P|389:204|317:213,1,125.999996154785,6|8,0:3|0:0,0:0:0:0:
276,257,21761,1,10,0:0:0:0:
209,212,21932,2,0,P|144:214|119:206,1,62.9999980773926,8|8,0:3|0:0,0:0:0:0:
58,178,22273,1,6,0:3:0:0:
58,178,22614,6,0,P|65:97|52:46,2,114.800001751709,6|8|10,0:0|0:3|0:3,0:0:0:0:
22,328,23636,1,8,0:3:0:0:
85,281,23807,6,0,L|205:279,1,114.800001751709,2|0,0:0|0:0,0:0:0:0:
247,216,24318,2,0,P|274:253|274:290,1,57.4000008758545,10|0,0:3|0:0,0:0:0:0:
252,339,24659,2,0,P|290:303|374:306,1,114.800001751709,10|10,0:3|0:3,0:0:0:0:
512,184,25341,6,0,P|450:184|403:144,1,125.999996154785,14|8,0:0|0:0,0:0:0:0:
414,66,25852,1,0,0:0:0:0:
492,47,26023,2,0,P|481:109|476:136,1,62.9999980773926,10|8,0:3|0:3,0:0:0:0:
338,102,26364,1,8,0:0:0:0:
338,102,26705,5,2,0:0:0:0:
281,46,26875,1,8,0:3:0:0:
213,87,27046,2,0,P|202:133|258:213,1,125.999996154785,8|10,0:0|0:3,0:0:0:0:
296,252,27557,1,8,0:3:0:0:
190,314,27727,1,8,0:0:0:0:
190,314,28068,6,0,P|85:303|51:307,2,114.800001751709,6|8|10,0:0|0:3|0:3,0:0:0:0:
342,348,29091,1,8,0:3:0:0:
293,287,29261,6,0,B|280:217|323:241|302:166,1,114.800001751709,2|0,0:0|0:0,0:0:0:0:
246,123,29773,2,0,P|210:121|182:103,1,57.4000008758545,10|0,0:3|0:0,0:0:0:0:
233,46,30114,2,0,P|288:54|321:98,1,114.800001751709,10|10,0:3|0:3,0:0:0:0:
477,207,30796,6,0,P|412:215|374:267,1,125.999996154785,14|8,0:0|0:0,0:0:0:0:
362,340,31307,1,0,0:0:0:0:
302,286,31477,2,0,P|260:281|212:277,1,62.9999980773926,10|8,0:3|0:3,0:0:0:0:
128,330,31818,1,8,0:0:0:0:
128,330,32159,5,2,0:0:0:0:
166,260,32330,1,8,0:3:0:0:
109,204,32500,2,0,P|92:168|89:84,1,125.999996154785,8|10,0:0|0:3,0:0:0:0:
142,24,33011,1,8,0:3:0:0:
233,104,33182,1,8,0:0:0:0:
233,104,33523,6,0,B|328:85|305:153|407:123,1,172.200002627564,6|0,0:0|0:0,0:0:0:0:
459,75,34205,2,0,P|476:114|477:140,1,57.4000008758545,10|0,0:3|0:0,0:0:0:0:
512,199,34546,2,0,P|495:238|494:264,1,57.4000008758545,10|0,0:3|0:0,0:0:0:0:
481,352,34886,6,0,P|417:329|355:320,1,114.800001751709,6|8,0:3|0:3,0:0:0:0:
302,290,35398,1,0,0:0:0:0:
302,290,35568,2,0,P|358:279|411:259,1,114.800001751709,10|8,0:3|0:3,0:0:0:0:
307,97,36250,6,0,P|294:124|326:212,1,114.800001751709,6|10,0:3|0:3,0:0:0:0:
210,352,36932,2,0,P|223:325|191:237,1,114.800001751709,10|8,0:3|0:3,0:0:0:0:
148,305,37443,1,0,0:0:0:0:
54,243,37614,6,0,P|45:211|44:176,1,57.4000008758545,6|0,0:3|0:0,0:0:0:0:
121,198,37955,2,0,P|130:166|131:131,1,57.4000008758545,8|0,0:3|0:0,0:0:0:0:
79,84,38296,2,0,P|107:94|203:71,1,114.800001751709,10|8,0:3|0:3,0:0:0:0:
369,14,38977,6,0,L|361:171,1,130.200004072724,6|8,0:0|0:0,0:0:0:0:
422,203,39489,1,0,0:0:0:0:
421,120,39659,2,0,P|389:127|362:144,1,65.1000020363618,8|10,0:3|0:3,0:0:0:0:
265,191,40000,2,0,P|296:198|324:214,1,65.1000020363618,8|0,0:0|0:0,0:0:0:0:
389,309,40341,6,0,P|335:290|259:341,1,130.200004072724,6|8,0:3|0:0,0:0:0:0:
209,376,40852,1,2,0:0:0:0:
139,326,41023,2,0,P|144:278|143:255,1,65.1000020363618,8|10,0:3|0:3,0:0:0:0:
58,215,41364,2,0,P|58:247|62:279,1,65.1000020363618,8|0,0:0|0:0,0:0:0:0:
195,195,41705,6,0,L|325:201,1,105,12|0,0:3|0:0,0:0:0:0:
301,182,42046,6,0,L|196:177,1,105,12|0,0:3|0:0,0:0:0:0:
197,159,42386,6,0,L|302:164,1,105,12|0,0:3|0:0,0:0:0:0:
303,146,42727,6,0,L|305:62,1,65.1000020363618,12|0,0:3|0:0,0:0:0:0:
308,0,43068,5,8,0:0:0:0:
74,136,43750,1,12,0:0:0:0:
74,136,44432,6,0,L|231:127,1,144.199998789825,6|8,0:0|0:0,0:0:0:0:
290,82,44943,1,0,0:0:0:0:
359,130,45114,2,0,P|374:169|368:228,1,72.0999993949127,10|4,0:3|0:3,0:0:0:0:
427,316,45455,2,0,P|429:280|443:247,1,72.0999993949127,8|0,0:0|0:0,0:0:0:0:
311,253,45796,6,0,L|167:244,2,144.199998789825,6|8|10,0:3|0:0|0:3,0:0:0:0:
375,198,46648,1,0,0:0:0:0:
334,337,46818,2,0,L|246:333,1,72.0999993949127,8|0,0:0|0:0,0:0:0:0:
81,254,47159,6,0,P|56:217|89:108,1,144.199998789825,6|8,0:3|0:0,0:0:0:0:
158,114,47671,1,0,0:0:0:0:
158,114,47841,2,0,P|183:151|150:260,1,144.199998789825,10|8,0:3|0:0,0:0:0:0:
81,254,48352,1,0,0:0:0:0:
205,318,48523,6,0,L|361:289,2,144.199998789825,6|8|10,0:3|0:0|0:3,0:0:0:0:
120,332,49375,1,0,0:0:0:0:
208,232,49546,2,0,L|279:219,1,72.0999993949127,8|0,0:0|0:0,0:0:0:0:
308,98,49886,6,0,P|263:151|279:219,1,144.199998789825,6|8,0:0|0:0,0:0:0:0:
367,246,50398,1,0,0:0:0:0:
374,332,50568,2,0,P|339:319|287:312,1,72.0999993949127,10|8,0:3|0:3,0:0:0:0:
210,381,50909,2,0,P|204:345|192:311,1,72.0999993949127,8|0,0:0|0:0,0:0:0:0:
98,231,51250,6,0,L|119:393,2,144.199998789825,6|8|10,0:3|0:0|0:3,0:0:0:0:
177,194,52102,1,0,0:0:0:0:
46,166,52273,2,0,L|-57:157,1,72.0999993949127,8|0,0:0|0:0,0:0:0:0:
172,108,52614,6,0,L|275:99,1,72.0999993949127,6|0,0:3|0:0,0:0:0:0:
248,187,52955,2,0,L|176:193,1,72.0999993949127,8|0,0:0|0:0,0:0:0:0:
321,140,53296,2,0,L|424:131,1,72.0999993949127,10|8,0:3|0:3,0:0:0:0:
397,219,53637,2,0,L|325:225,1,72.0999993949127,8|0,0:0|0:0,0:0:0:0:
222,267,53977,6,0,P|214:310|230:360,1,72.0999993949127,6|0,0:3|0:0,0:0:0:0:
296,376,54318,2,0,P|304:333|288:283,1,72.0999993949127,8|0,0:0|0:0,0:0:0:0:
325,224,54659,1,10,0:3:0:0:
383,288,54830,1,8,0:0:0:0:
417,160,55000,1,8,0:3:0:0:
417,160,55341,6,0,P|328:142|266:155,1,144.199998789825,6|8,0:0|0:0,0:0:0:0:
208,102,55852,1,0,0:0:0:0:
148,163,56023,2,0,P|123:112|125:80,1,72.0999993949127,10|8,0:3|0:3,0:0:0:0:
64,238,56364,2,0,P|58:273|38:303,1,72.0999993949127,8|0,0:0|0:0,0:0:0:0:
144,246,56705,6,0,B|236:238|190:303|299:283,2,144.199998789825,6|8|10,0:3|0:0|0:3,0:0:0:0:
151,331,57557,1,8,0:3:0:0:
64,238,57727,2,0,P|59:204|66:150,1,72.0999993949127,8|0,0:0|0:0,0:0:0:0:
137,71,58068,6,0,P|197:105|263:81,1,144.199998789825,6|8,0:3|0:0,0:0:0:0:
331,28,58580,1,0,0:0:0:0:
390,92,58750,2,0,P|324:115|263:81,1,144.199998789825,10|8,0:3|0:0,0:0:0:0:
331,28,59261,1,0,0:0:0:0:
464,51,59432,6,0,P|475:97|462:141,1,72.0999993949127,6|0,0:3|0:0,0:0:0:0:
396,161,59773,2,0,P|385:127|389:92,1,72.0999993949127,8|0,0:0|0:0,0:0:0:0:
469,205,60114,2,0,P|381:197|307:203,1,144.199998789825,10|8,0:3|0:0,0:0:0:0:
115,249,60796,6,0,P|105:302|123:347,1,72.0999993949127,6|0,0:0|0:0,0:0:0:0:
189,290,61136,2,0,P|199:237|181:192,1,72.0999993949127,8|0,0:0|0:0,0:0:0:0:
107,149,61477,2,0,P|117:202|99:247,1,72.0999993949127,10|8,0:3|0:3,0:0:0:0:
33,190,61818,2,0,P|23:137|41:92,1,72.0999993949127,8|0,0:0|0:0,0:0:0:0:
152,75,62159,5,6,0:3:0:0:
219,124,62330,1,0,0:0:0:0:
275,58,62500,2,0,P|322:45|365:52,1,72.0999993949127,8|0,0:0|0:0,0:0:0:0:
429,63,62841,2,0,P|383:64|320:139,1,144.199998789825,10|8,0:3|0:0,0:0:0:0:
176,294,63523,6,0,P|189:257|180:209,1,72.0999993949127,6|0,0:0|0:0,0:0:0:0:
102,247,63864,1,8,0:0:0:0:
79,331,64034,2,0,P|46:315|35:195,1,144.199998789825,10|8,0:3|0:3,0:0:0:0:
131,135,64546,2,0,P|194:142|211:145,1,72.0999993949127,10|0,0:0|0:0,0:0:0:0:
304,43,64886,6,0,B|288:79|288:79|294:122,1,72.0999993949127,10|0,0:0|0:0,0:0:0:0:
362,163,65227,2,0,B|378:127|378:127|372:84,1,72.0999993949127,10|0,0:0|0:0,0:0:0:0:
389,11,65568,1,10,0:0:0:0:
285,194,65909,1,8,0:0:0:0:
496,193,66250,1,12,0:0:0:0:
125,97,87046,5,4,0:3:0:0:
83,171,87216,2,0,P|133:183|207:118,1,144.199998789825,8|8,0:0|0:0,0:0:0:0:
240,13,87727,1,8,0:3:0:0:
240,13,88068,6,0,P|319:17|363:48,1,119.000002269745,6|8,0:0|0:3,0:0:0:0:
420,89,88580,1,0,0:0:0:0:
420,89,88750,2,0,P|341:93|297:124,1,119.000002269745,10|8,0:3|0:3,0:0:0:0:
267,182,89261,1,0,0:0:0:0:
357,243,89432,6,0,P|354:213|347:185,1,59.5000011348725,6|0,0:3|0:0,0:0:0:0:
278,261,89773,2,0,P|274:290|267:319,1,59.5000011348725,10|0,0:3|0:0,0:0:0:0:
210,373,90114,2,0,P|148:334|82:335,1,119.000002269745,10|8,0:3|0:3,0:0:0:0:
0,204,90796,6,0,P|58:195|106:161,1,119.000002269745,6|8,0:3|0:3,0:0:0:0:
74,93,91307,1,0,0:0:0:0:
74,93,91477,2,0,P|121:127|180:135,1,119.000002269745,10|8,0:3|0:3,0:0:0:0:
237,79,91989,1,0,0:0:0:0:
336,147,92159,6,0,P|384:149|416:142,1,59.5000011348725,6|0,0:3|0:0,0:0:0:0:
374,70,92500,2,0,P|326:68|294:75,1,59.5000011348725,10|0,0:3|0:0,0:0:0:0:
259,128,92841,2,0,P|289:164|301:257,1,119.000002269745,10|8,0:3|0:3,0:0:0:0:
392,366,93523,6,0,P|422:330|434:237,1,119.000002269745,6|8,0:0|0:3,0:0:0:0:
497,207,94034,1,0,0:0:0:0:
497,207,94205,2,0,P|467:171|455:78,1,119.000002269745,10|8,0:3|0:3,0:0:0:0:
486,29,94716,1,0,0:0:0:0:
379,65,94886,6,0,P|331:63|295:62,1,59.5000011348725,6|0,0:3|0:0,0:0:0:0:
269,0,95227,2,0,P|221:2|185:3,1,59.5000011348725,10|0,0:3|0:0,0:0:0:0:
131,15,95568,2,0,P|178:38|209:121,1,119.000002269745,10|8,0:3|0:3,0:0:0:0:
316,218,96250,6,0,P|269:241|238:324,1,119.000002269745,6|8,0:3|0:3,0:0:0:0:
228,381,96761,1,0,0:0:0:0:
228,381,96932,2,0,P|202:328|150:300,1,119.000002269745,10|8,0:3|0:3,0:0:0:0:
74,326,97443,1,0,0:0:0:0:
13,235,97614,6,0,P|16:190|20:155,1,59.5000011348725,6|0,0:3|0:0,0:0:0:0:
89,141,97955,2,0,P|91:170|93:200,1,59.5000011348725,10|0,0:3|0:0,0:0:0:0:
171,222,98296,2,0,P|190:154|222:90,1,119.000002269745,10|8,0:3|0:3,0:0:0:0:
352,154,98977,6,0,P|411:160|468:112,1,119.000002269745,6|8,0:0|0:3,0:0:0:0:
495,59,99489,1,0,0:0:0:0:
495,59,99659,2,0,P|436:53|379:101,1,119.000002269745,10|8,0:3|0:3,0:0:0:0:
343,18,100171,1,0,0:0:0:0:
283,116,100341,6,0,P|242:117|205:96,1,59.5000011348725,6|0,0:3|0:0,0:0:0:0:
243,32,100682,2,0,P|202:31|165:52,1,59.5000011348725,10|0,0:3|0:0,0:0:0:0:
106,27,101023,2,0,P|115:79|119:160,1,119.000002269745,10|8,0:3|0:3,0:0:0:0:
141,318,101705,6,0,P|95:325|59:310,1,59.5000011348725,6|0,0:3|0:0,0:0:0:0:
111,247,102046,2,0,P|157:240|193:255,1,59.5000011348725,8|0,0:3|0:0,0:0:0:0:
244,215,102386,2,0,P|290:222|326:207,1,59.5000011348725,10|0,0:3|0:0,0:0:0:0:
274,144,102727,2,0,P|228:137|192:152,1,59.5000011348725,8|0,0:3|0:0,0:0:0:0:
326,86,103068,6,0,P|336:56|328:12,1,59.5000011348725,6|0,0:3|0:0,0:0:0:0:
409,0,103409,2,0,P|419:30|411:74,1,59.5000011348725,10|0,0:3|0:0,0:0:0:0:
399,135,103750,2,0,P|438:92|496:85,1,119.000002269745,10|8,0:3|0:3,0:0:0:0:
456,288,104432,6,0,P|414:283|388:281,1,59.5000011348725,6|0,0:0|0:0,0:0:0:0:
371,208,104773,2,0,P|329:213|303:215,1,59.5000011348725,8|0,0:3|0:0,0:0:0:0:
248,261,105114,2,0,P|229:214|227:195,1,59.5000011348725,10|0,0:3|0:0,0:0:0:0:
172,148,105455,2,0,P|153:195|151:214,1,59.5000011348725,8|0,0:3|0:0,0:0:0:0:
191,316,105796,6,0,P|247:341|316:303,1,119.000002269745,6|10,0:3|0:3,0:0:0:0:
248,261,106307,1,0,0:0:0:0:
311,214,106477,2,0,P|341:211|371:208,1,59.5000011348725,10|0,0:3|0:0,0:0:0:0:
396,281,106818,2,0,P|426:284|456:288,1,59.5000011348725,10|0,0:3|0:0,0:0:0:0:
426,149,107159,6,0,B|408:107|408:107|434:18,1,130.200004072724,6|8,0:0|0:0,0:0:0:0:
350,11,107671,1,10,0:0:0:0:
298,74,107841,2,0,L|207:64,1,65.1000020363618,8|8,0:3|0:3,0:0:0:0:
103,27,108182,1,10,0:0:0:0:
103,27,108523,6,0,P|128:100|128:167,1,130.200004072724,6|8,0:3|0:0,0:0:0:0:
96,229,109034,1,10,0:0:0:0:
159,282,109205,2,0,P|209:273|248:262,1,65.1000020363618,8|8,0:3|0:0,0:0:0:0:
339,188,109546,1,6,0:3:0:0:
339,188,109886,6,0,P|322:237|357:310,2,116.200001684418,6|8|10,0:0|0:3|0:3,0:0:0:0:
417,171,110739,2,0,P|397:136|375:118,1,58.1000008422089,0|8,0:0|0:3,0:0:0:0:
385,45,111080,6,0,P|358:81|268:89,1,116.200001684418,2|0,0:0|0:0,0:0:0:0:
226,52,111591,2,0,P|192:42|161:45,1,58.1000008422089,10|0,0:3|0:0,0:0:0:0:
119,105,111932,2,0,P|127:139|145:164,1,58.1000008422089,10|0,0:3|0:0,0:0:0:0:
214,132,112273,1,10,0:3:0:0:
235,298,112614,6,0,P|205:253|115:244,1,130.200004072724,14|8,0:0|0:0,0:0:0:0:
154,318,113125,1,0,0:0:0:0:
207,382,113296,2,0,P|259:376|297:368,1,65.1000020363618,10|8,0:3|0:3,0:0:0:0:
400,295,113636,1,8,0:0:0:0:
400,295,113977,5,2,0:0:0:0:
350,229,114148,1,8,0:3:0:0:
397,162,114318,2,0,P|400:123|396:81,1,65.1000020363618,8|0,0:0|0:0,0:0:0:0:
312,29,114659,1,10,0:3:0:0:
258,91,114830,1,8,0:3:0:0:
187,51,115000,1,8,0:0:0:0:
187,51,115341,6,0,P|96:43|54:55,2,116.200001684418,6|8|10,0:0|0:3|0:3,0:0:0:0:
184,130,116193,2,0,P|175:174|177:204,1,58.1000008422089,0|8,0:0|0:3,0:0:0:0:
148,260,116534,2,0,P|174:233|269:224,1,116.200001684418,2|0,0:0|0:0,0:0:0:0:
316,260,117046,2,0,P|323:302|333:330,1,58.1000008422089,10|0,0:3|0:0,0:0:0:0:
402,342,117386,2,0,P|434:314|454:292,1,58.1000008422089,10|0,0:3|0:0,0:0:0:0:
395,243,117727,1,10,0:3:0:0:
262,363,118068,6,0,P|194:353|116:349,1,130.200004072724,14|8,0:0|0:0,0:0:0:0:
49,350,118580,1,0,0:0:0:0:
10,278,118750,2,0,P|5:249|15:203,1,65.1000020363618,10|8,0:3|0:3,0:0:0:0:
74,105,119091,1,8,0:0:0:0:
74,105,119432,5,2,0:0:0:0:
142,151,119602,1,8,0:3:0:0:
188,81,119773,2,0,P|186:49|168:2,1,65.1000020363618,8|0,0:0|0:0,0:0:0:0:
298,62,120114,1,10,0:3:0:0:
256,134,120284,1,8,0:3:0:0:
317,191,120455,1,8,0:0:0:0:
317,191,120796,6,0,B|411:165|392:248|510:204,1,178.500003404617,6|0,0:0|0:0,0:0:0:0:
485,290,121477,2,0,P|482:335|483:360,1,59.5000011348725,10|0,0:3|0:0,0:0:0:0:
401,351,121818,2,0,P|401:321|398:291,1,59.5000011348725,10|0,0:3|0:0,0:0:0:0:
292,321,122159,6,0,P|245:347|163:322,1,119.000002269745,6|8,0:3|0:3,0:0:0:0:
172,260,122671,1,0,0:0:0:0:
172,260,122841,2,0,P|219:234|301:259,1,119.000002269745,10|8,0:3|0:3,0:0:0:0:
386,119,123523,6,0,P|356:110|316:74,1,59.5000011348725,6|0,0:3|0:0,0:0:0:0:
393,40,123864,2,0,P|421:48|446:64,1,59.5000011348725,10|0,0:3|0:0,0:0:0:0:
465,172,124205,2,0,P|436:180|395:271,1,119.000002269745,10|8,0:3|0:3,0:0:0:0:
415,330,124716,1,0,0:0:0:0:
320,284,124886,6,0,P|264:269|236:269,1,59.5000011348725,6|0,0:3|0:0,0:0:0:0:
223,197,125227,2,0,P|252:192|280:181,1,59.5000011348725,8|0,0:3|0:0,0:0:0:0:
233,115,125568,2,0,P|202:118|139:197,1,119.000002269745,10|8,0:3|0:3,0:0:0:0:
279,12,126250,6,0,P|313:59|386:77,1,132.999996448517,6|8,0:0|0:0,0:0:0:0:
452,30,126761,1,0,0:0:0:0:
510,91,126932,2,0,P|503:162|503:176,1,66.4999982242585,8|10,0:3|0:3,0:0:0:0:
428,216,127273,2,0,P|425:182|421:149,1,66.4999982242585,8|0,0:0|0:0,0:0:0:0:
359,265,127614,6,0,P|305:255|273:249,1,66.4999982242585,6|0,0:3|0:0,0:0:0:0:
244,183,127955,2,0,P|276:176|309:170,1,66.4999982242585,8|2,0:0|0:0,0:0:0:0:
213,103,128296,2,0,P|159:113|127:119,1,66.4999982242585,8|10,0:3|0:3,0:0:0:0:
98,185,128637,2,0,P|130:191|163:197,1,66.4999982242585,8|0,0:0|0:0,0:0:0:0:
190,342,128977,6,0,P|138:332|73:331,1,105,12|0,0:3|0:0,0:0:0:0:
74,317,129318,6,0,P|126:307|191:306,1,105,12|0,0:3|0:0,0:0:0:0:
190,292,129659,6,0,P|138:282|73:281,1,105,12|0,0:3|0:0,0:0:0:0:
74,267,130000,6,0,L|69:195,1,66.4999982242585,12|0,0:3|0:0,0:0:0:0:
66,119,130341,6,0,L|151:124,1,66.4999982242585,8|2,0:0|0:0,0:0:0:0:
137,46,130682,2,0,L|52:41,1,66.4999982242585,4|2,0:3|0:0,0:0:0:0:
202,89,131023,5,12,0:0:0:0:
262,37,131193,1,10,0:0:0:0:
262,37,131278,1,8,0:0:0:0:
262,37,131364,2,0,L|347:32,1,66.4999982242585,8|10,0:0|0:0,0:0:0:0:
469,49,131705,6,0,P|421:56|378:151,1,146.999995513916,6|8,0:0|0:0,0:0:0:0:
424,209,132216,1,0,0:0:0:0:
379,284,132386,2,0,P|332:262|297:250,1,73.4999977569581,10|8,0:3|0:3,0:0:0:0:
196,216,132727,2,0,P|230:202|263:186,1,73.4999977569581,8|0,0:0|0:0,0:0:0:0:
270,327,133068,6,0,L|120:308,2,146.999995513916,6|8|10,0:3|0:0|0:3,0:0:0:0:
311,254,133921,1,8,0:3:0:0:
196,216,134091,2,0,L|92:231,1,73.4999977569581,8|0,0:0|0:0,0:0:0:0:
83,103,134432,6,0,B|176:94|130:143|236:133,1,146.999995513916,6|8,0:3|0:0,0:0:0:0:
255,56,134943,1,0,0:0:0:0:
255,56,135114,2,0,B|162:65|208:16|102:26,1,146.999995513916,10|8,0:3|0:0,0:0:0:0:
83,103,135625,1,0,0:0:0:0:
134,222,135796,6,0,P|108:239|53:233,1,73.4999977569581,6|0,0:3|0:0,0:0:0:0:
160,136,136136,2,0,P|196:134|227:153,1,73.4999977569581,8|0,0:0|0:0,0:0:0:0:
239,240,136477,1,10,0:3:0:0:
309,186,136648,1,8,0:3:0:0:
291,312,136818,2,0,P|278:347|269:389,1,73.4999977569581,8|0,0:0|0:0,0:0:0:0:
386,284,137159,6,0,P|383:215|462:162,1,146.999995513916,6|8,0:0|0:0,0:0:0:0:
468,248,137671,1,0,0:0:0:0:
457,335,137841,2,0,P|401:321|361:321,1,73.4999977569581,10|8,0:3|0:3,0:0:0:0:
242,348,138182,2,0,P|186:362|146:362,1,73.4999977569581,8|0,0:0|0:0,0:0:0:0:
302,286,138523,6,0,L|308:126,2,146.999995513916,6|8|10,0:3|0:0|0:3,0:0:0:0:
216,267,139375,1,8,0:3:0:0:
119,204,139546,2,0,P|72:215|26:232,1,73.4999977569581,8|0,0:0|0:0,0:0:0:0:
200,186,139886,6,0,P|208:128|212:92,1,73.4999977569581,6|0,0:3|0:0,0:0:0:0:
295,108,140227,2,0,P|290:144|285:180,1,73.4999977569581,8|0,0:0|0:0,0:0:0:0:
345,301,140568,2,0,P|353:243|357:207,1,73.4999977569581,10|8,0:3|0:3,0:0:0:0:
440,223,140909,2,0,P|435:259|430:295,1,73.4999977569581,8|0,0:0|0:0,0:0:0:0:
323,384,141250,5,6,0:3:0:0:
257,330,141421,1,0,0:0:0:0:
131,363,141591,2,0,P|91:357|57:310,1,73.4999977569581,8|0,0:0|0:0,0:0:0:0:
34,255,141932,1,10,0:3:0:0:
121,268,142102,1,8,0:0:0:0:
84,119,142273,1,8,0:3:0:0:
84,119,142614,6,0,B|170:125|133:173|229:173,1,146.999995513916,6|8,0:0|0:0,0:0:0:0:
268,106,143125,1,0,0:0:0:0:
303,187,143296,2,0,P|291:264|287:288,1,73.4999977569581,10|8,0:3|0:3,0:0:0:0:
360,362,143636,2,0,P|366:325|372:289,1,73.4999977569581,8|0,0:0|0:0,0:0:0:0:
230,326,143977,6,0,P|139:305|58:291,2,146.999995513916,6|8|10,0:3|0:0|0:3,0:0:0:0:
291,259,144830,1,8,0:3:0:0:
391,347,145000,2,0,P|444:334|481:324,1,73.4999977569581,8|0,0:0|0:0,0:0:0:0:
496,209,145341,6,0,P|456:217|386:134,1,146.999995513916,6|8,0:3|0:0,0:0:0:0:
362,64,145852,1,0,0:0:0:0:
362,64,146023,2,0,P|402:56|472:139,1,146.999995513916,10|8,0:3|0:0,0:0:0:0:
386,149,146534,1,0,0:0:0:0:
276,70,146705,6,0,P|219:72|178:72,1,73.4999977569581,6|0,0:3|0:0,0:0:0:0:
121,156,147046,2,0,P|157:156|194:158,1,73.4999977569581,8|0,0:0|0:0,0:0:0:0:
279,187,147386,1,10,0:3:0:0:
212,246,147557,1,8,0:3:0:0:
317,307,147727,2,0,P|353:306|390:304,1,73.4999977569581,8|0,0:0|0:0,0:0:0:0:
489,230,148068,6,0,P|502:165|506:144,1,73.4999977569581,6|0,0:0|0:0,0:0:0:0:
424,119,148409,2,0,P|411:184|407:205,1,73.4999977569581,8|0,0:0|0:0,0:0:0:0:
317,307,148750,2,0,P|330:242|334:221,1,73.4999977569581,10|8,0:3|0:3,0:0:0:0:
252,196,149091,2,0,P|239:261|235:282,1,73.4999977569581,8|0,0:0|0:0,0:0:0:0:
159,370,149432,5,6,0:3:0:0:
103,301,149602,1,0,0:0:0:0:
32,355,149773,2,0,P|17:307|7:271,1,73.4999977569581,8|0,0:0|0:0,0:0:0:0:
28,197,150114,2,0,P|71:216|165:155,1,146.999995513916,10|8,0:3|0:0,0:0:0:0:
309,63,150796,6,0,P|281:85|263:143,1,73.4999977569581,6|0,0:0|0:0,0:0:0:0:
348,140,151136,1,8,0:0:0:0:
397,67,151307,2,0,P|431:111|406:208,1,146.999995513916,10|8,0:3|0:3,0:0:0:0:
285,202,151818,2,0,L|204:185,1,73.4999977569581,10|0,0:0|0:0,0:0:0:0:
74,174,152159,6,0,B|56:142|56:142|61:95,1,73.4999977569581,10|0,0:0|0:0,0:0:0:0:
132,57,152500,2,0,B|150:89|150:89|145:136,1,73.4999977569581,10|0,0:0|0:0,0:0:0:0:
109,251,152841,2,0,B|140:232|140:232|187:236,1,73.4999977569581,10|0,0:0|0:0,0:0:0:0:
201,354,153182,2,0,B|169:372|169:372|122:368,1,73.4999977569581,10|0,0:0|0:0,0:0:0:0:
26,268,153523,6,0,L|42:96,1,146.999995513916,6|8,0:0|0:0,0:0:0:0:
19,37,154034,1,0,0:0:0:0:
103,60,154205,2,0,P|148:44|181:37,1,73.4999977569581,10|10,0:3|0:3,0:0:0:0:
193,166,154546,2,0,P|157:157|122:144,1,73.4999977569581,10|0,0:0|0:0,0:0:0:0:
240,93,154886,6,0,B|331:78|285:133|408:113,1,146.999995513916,6|8,0:3|0:0,0:0:0:0:
452,64,155398,1,0,0:0:0:0:
505,132,155568,2,0,P|493:201|490:224,1,73.4999977569581,10|10,0:3|0:3,0:0:0:0:
422,273,155909,2,0,P|416:236|409:200,1,73.4999977569581,10|0,0:0|0:0,0:0:0:0:
301,149,156250,6,0,P|267:141|202:219,1,146.999995513916,6|8,0:3|0:0,0:0:0:0:
229,300,156761,1,0,0:0:0:0:
289,237,156932,2,0,P|367:246|388:251,1,73.4999977569581,10|10,0:3|0:3,0:0:0:0:
494,308,157273,2,0,P|501:264|505:224,1,73.4999977569581,10|0,0:0|0:0,0:0:0:0:
412,315,157614,6,0,P|404:272|387:151,1,146.999995513916,6|8,0:3|0:0,0:0:0:0:
421,90,158125,1,0,0:0:0:0:
356,31,158296,2,0,B|302:40|301:40|257:46,1,73.4999977569581,10|10,0:3|0:3,0:0:0:0:
194,126,158636,1,10,0:0:0:0:
112,100,158807,1,0,0:0:0:0:
19,191,158977,6,0,B|73:200|74:200|118:206,1,73.4999977569581,6|0,0:0|0:0,0:0:0:0:
142,276,159318,2,0,L|198:265,3,36.749998878479,10|0|0|0,3:2|3:0|3:0|3:0,0:0:0:0:
208,237,159659,2,0,L|264:248,3,36.749998878479,10|0|10|0,3:3|3:0|3:3|3:0,0:0:0:0:
277,275,160000,2,0,L|333:264,2,36.749998878479,10|0|0,3:2|0:0|0:0,0:0:0:0:
337,341,160341,6,0,P|345:269|373:169,1,146.999995513916,6|8,0:3|0:0,0:0:0:0:
435,89,160852,2,0,B|384:99|384:99|350:86|350:86|274:100,1,146.999995513916,2|8,0:0|0:3,0:0:0:0:
180,165,161364,2,0,P|112:152|88:148,1,73.4999977569581,10|0,0:0|0:0,0:0:0:0:
8,44,161705,5,14,0:0:0:0:
102,55,161875,2,0,B|136:70|136:70|196:63,1,73.4999977569581,8|8,0:3|0:0,0:0:0:0:
258,109,162216,2,0,B|227:130|227:130|203:186,1,73.4999977569581,10|0,0:3|0:0,0:0:0:0:
133,217,162557,2,0,B|129:180|129:180|93:130,1,73.4999977569581,10|0,0:3|0:0,0:0:0:0:
8,44,162898,5,14,0:0:0:0:
256,192,162983,12,0,164432,0:0:0:0:
46,267,175341,6,0,B|144:268|89:323|225:323,1,161.000003070831,6|8,0:0|0:0,0:0:0:0:
240,249,175852,1,0,0:0:0:0:
178,186,176023,2,0,P|171:131|167:78,1,80.5000015354157,10|8,0:3|0:3,0:0:0:0:
263,29,176364,2,0,P|258:69|252:110,1,80.5000015354157,8|0,0:0|0:0,0:0:0:0:
314,214,176705,6,0,P|395:204|405:204,1,80.5000015354157,6|0,0:3|0:0,0:0:0:0:
483,121,177046,2,0,P|494:201|494:211,1,80.5000015354157,8|0,0:0|0:0,0:0:0:0:
441,270,177386,2,0,P|412:236|296:239,1,161.000003070831,10|8,0:3|0:0,0:0:0:0:
264,314,177898,1,0,0:0:0:0:
140,249,178068,6,0,P|132:204|127:160,1,80.5000015354157,6|0,0:3|0:0,0:0:0:0:
156,67,178409,1,8,0:0:0:0:
235,104,178580,1,0,0:0:0:0:
319,77,178750,2,0,P|327:32|332:-12,1,80.5000015354157,10|8,0:3|0:3,0:0:0:0:
232,114,179091,1,8,0:0:0:0:
153,77,179262,1,0,0:0:0:0:
117,177,179432,6,0,P|121:219|130:262,1,80.5000015354157,6|0,0:3|0:0,0:0:0:0:
156,378,179773,2,0,P|176:333|204:316,1,80.5000015354157,8|0,0:0|0:0,0:0:0:0:
255,232,180114,2,0,P|280:277|386:285,1,161.000003070831,10|8,0:3|0:0,0:0:0:0:
337,213,180625,1,0,0:0:0:0:
197,171,180796,6,0,B|102:164|148:220|23:201,1,161.000003070831,6|8,0:0|0:0,0:0:0:0:
71,117,181307,1,0,0:0:0:0:
134,58,181477,2,0,P|180:66|213:74,1,80.5000015354157,10|8,0:3|0:3,0:0:0:0:
267,176,181818,2,0,P|216:187|164:195,1,80.5000015354157,8|0,0:0|0:0,0:0:0:0:
290,94,182159,6,0,P|330:83|373:76,1,80.5000015354157,6|0,0:3|0:0,0:0:0:0:
484,104,182500,2,0,P|475:175|474:203,1,80.5000015354157,8|0,0:0|0:0,0:0:0:0:
384,164,182841,2,0,P|401:245|412:323,1,161.000003070831,10|8,0:3|0:0,0:0:0:0:
338,372,183352,1,0,0:0:0:0:
257,261,183523,6,0,P|226:265|182:310,1,80.5000015354157,6|0,0:3|0:0,0:0:0:0:
188,384,183864,2,0,P|219:380|263:335,1,80.5000015354157,8|0,0:0|0:0,0:0:0:0:
319,202,184205,2,0,P|290:179|247:175,1,80.5000015354157,10|8,0:3|0:3,0:0:0:0:
118,264,184546,2,0,P|149:288|189:295,1,80.5000015354157,8|0,0:0|0:0,0:0:0:0:
104,178,184886,6,0,P|67:192|41:222,1,80.5000015354157,6|0,0:3|0:0,0:0:0:0:
189,210,185227,2,0,P|201:156|207:122,1,80.5000015354157,8|0,0:0|0:0,0:0:0:0:
189,43,185568,1,10,0:3:0:0:
274,77,185739,1,4,0:3:0:0:
395,0,185909,1,8,0:0:0:0:
395,0,186250,6,0,B|362:84|430:67|386:164,1,161.000003070831,6|8,0:0|0:0,0:0:0:0:
345,232,186761,1,0,0:0:0:0:
277,172,186932,2,0,P|217:180|173:199,1,80.5000015354157,10|8,0:3|0:3,0:0:0:0:
98,253,187273,2,0,P|139:263|182:266,1,80.5000015354157,8|0,0:0|0:0,0:0:0:0:
127,143,187614,6,0,P|137:100|139:59,1,80.5000015354157,6|0,0:3|0:0,0:0:0:0:
245,0,187955,2,0,P|248:36|260:84,1,80.5000015354157,8|0,0:0|0:0,0:0:0:0:
340,108,188296,2,0,P|350:65|352:22,1,80.5000015354157,10|8,0:3|0:3,0:0:0:0:
470,84,188636,2,0,P|473:124|483:164,1,80.5000015354157,8|0,0:0|0:0,0:0:0:0:
502,292,188977,6,0,P|473:255|425:240,1,80.5000015354157,6|0,0:3|0:0,0:0:0:0:
321,196,189318,2,0,P|367:189|404:155,1,80.5000015354157,8|0,0:0|0:0,0:0:0:0:
334,110,189659,2,0,P|287:116|250:150,1,80.5000015354157,10|8,0:3|0:3,0:0:0:0:
219,261,190000,2,0,P|210:225|197:184,1,80.5000015354157,8|0,0:0|0:0,0:0:0:0:
143,72,190341,6,0,P|132:111|121:152,1,80.5000015354157,6|0,0:3|0:0,0:0:0:0:
20,225,190682,2,0,P|65:228|124:324,2,161.000003070831,8|10|8,0:0|0:3|0:0,0:0:0:0:
37,137,191534,1,0,0:0:0:0:
169,209,191705,6,0,P|233:195|253:195,1,80.5000015354157,6|0,0:0|0:0,0:0:0:0:
228,106,192046,2,0,P|290:125|307:135,1,80.5000015354157,8|0,0:0|0:0,0:0:0:0:
448,143,192386,2,0,P|463:105|473:65,1,80.5000015354157,10|8,0:3|0:3,0:0:0:0:
375,80,192727,2,0,P|370:38|358:0,1,80.5000015354157,8|0,0:0|0:0,0:0:0:0:
303,132,193068,5,6,0:3:0:0:
369,192,193239,1,0,0:0:0:0:
243,263,193409,1,8,0:0:0:0:
225,175,193580,1,8,0:0:0:0:
332,273,193750,2,0,P|393:279|437:288,1,80.5000015354157,10|8,0:3|0:3,0:0:0:0:
503,325,194091,2,0,P|509:264|518:220,1,80.5000015354157,8|0,0:0|0:0,0:0:0:0:
512,85,194432,6,0,P|467:107|448:146,1,80.5000015354157,6|8,0:0|0:0,0:0:0:0:
411,282,194773,2,0,P|414:232|390:196,1,80.5000015354157,8|10,0:0|0:3,0:0:0:0:
279,163,195114,1,8,0:0:0:0:
360,130,195284,1,8,0:3:0:0:
268,23,195455,1,10,0:0:0:0:
223,97,195625,1,8,0:3:0:0:
353,42,195796,6,0,B|391:40|391:40|439:64,1,80.5000015354157,10|0,0:0|0:0,0:0:0:0:
447,141,196136,2,0,B|409:143|409:143|361:119,1,80.5000015354157,10|0,0:0|0:0,0:0:0:0:
294,103,196477,5,10,0:0:0:0:
458,261,196818,1,8,0:0:0:0:
240,328,197159,5,4,0:0:0:0:
302,278,197330,2,0,P|264:252|183:272,1,119.000002269745,2|0,0:0|0:0,0:0:0:0:
132,312,197841,2,0,P|170:338|251:318,1,119.000002269745,2|2,0:0|0:0,0:0:0:0:
364,226,198523,5,4,0:3:0:0:
364,226,198693,2,0,P|357:154|352:95,1,119.000002269745,2|0,0:0|0:0,0:0:0:0:
430,89,199205,2,0,P|433:119|436:149,2,59.5000011348725,2|8|2,0:0|0:3|0:0,0:0:0:0:
276,129,199886,5,4,0:3:0:0:
353,107,200057,2,0,P|334:74|241:56,1,119.000002269745,2|0,0:0|0:0,0:0:0:0:
183,71,200568,2,0,P|202:104|295:122,1,119.000002269745,2|2,0:0|0:0,0:0:0:0:
350,270,201250,5,4,0:3:0:0:
354,274,201421,2,0,P|263:286|220:296,1,119.000002269745,2|0,0:0|0:0,0:0:0:0:
219,215,201932,2,0,P|248:209|277:206,2,59.5000011348725,2|8|2,0:0|0:3|0:0,0:0:0:0:
162,271,202443,1,8,0:3:0:0:
103,218,202614,5,4,0:3:0:0:
103,218,202784,2,0,P|106:166|111:100,1,105.000004005432,2|0,0:0|0:0,0:0:0:0:
187,90,203296,2,0,P|184:142|179:208,1,105.000004005432,2|0,0:0|0:0,0:0:0:0:
345,248,203977,5,2,0:0:0:0:
345,248,204148,2,0,P|342:196|337:130,1,105.000004005432,2|0,0:0|0:0,0:0:0:0:
261,120,204659,2,0,P|264:172|269:238,1,105.000004005432,2|2,0:0|0:0,0:0:0:0:
366,350,205341,5,2,0:0:0:0:
366,350,205511,2,0,P|413:353|459:314,1,105.000004005432,2|0,0:0|0:0,0:0:0:0:
390,275,206023,2,0,P|343:272|297:311,1,105.000004005432,2|0,0:0|0:0,0:0:0:0:
153,259,206705,5,2,0:0:0:0:
153,259,206875,2,0,P|106:262|60:223,1,105.000004005432,2|0,0:0|0:0,0:0:0:0:
125,184,207386,2,0,B|117:124,1,52.5000020027161,2|0,0:0|0:0,0:0:0:0:
197,141,207727,2,0,B|205:201,1,52.5000020027161,2|0,0:0|0:0,0:0:0:0:
