osu file format v14

[General]
AudioFilename: supernuko.mp3
AudioLeadIn: 0
PreviewTime: 27957
Countdown: 0
SampleSet: Normal
StackLeniency: 0.7
Mode: 3
LetterboxInBreaks: 0
SpecialStyle: 0
WidescreenStoryboard: 1

[Editor]
DistanceSpacing: 1
BeatDivisor: 4
GridSize: 32
TimelineZoom: 2

[Metadata]
Title:Super Nuko ni Narenkatta
TitleUnicode:すーぱーぬこになれんかった
Artist:mafumafu
ArtistUnicode:まふまふ
Creator:ExNeko
Version:Normal
Source:
Tags:まふてる mafuteru ぬこシリーズ nuko series vocaloid 鏡音レン Kagamine Len japanese novelty
BeatmapID:2056450
BeatmapSetID:982643

[Difficulty]
HPDrainRate:7
CircleSize:4
OverallDifficulty:7
ApproachRate:5
SliderMultiplier:1.4
SliderTickRate:1

[Events]
//Background and Video events
0,0,"74075129_p0.jpg",0,0
//Break Periods
//Storyboard Layer 0 (Background)
//Storyboard Layer 1 (Fail)
//Storyboard Layer 2 (Pass)
//Storyboard Layer 3 (Foreground)
//Storyboard Layer 4 (Overlay)
//Storyboard Sound Samples

[TimingPoints]
168,315.789473684211,4,1,1,70,1,0
15325,-100,4,1,1,70,0,1
22904,-100,4,1,1,70,0,0
86062,-100,4,1,1,70,0,1
103746,-100,4,1,1,70,0,0

[HitObjects]
448,192,168,5,8,2:0:0:0:
448,192,483,1,8,2:0:0:0:
448,192,799,1,8,2:0:0:0:
192,192,957,1,8,2:0:0:0:
448,192,1115,1,8,2:0:0:0:
448,192,1431,1,8,2:0:0:0:
192,192,1589,1,8,2:0:0:0:
448,192,1746,1,8,2:0:0:0:
192,192,1904,1,8,2:0:0:0:
448,192,2062,1,8,2:0:0:0:
320,192,2378,128,8,2457:2:0:0:0:
64,192,2694,1,8,2:0:0:0:
64,192,3010,1,8,2:0:0:0:
64,192,3325,1,8,2:0:0:0:
320,192,3483,1,8,2:0:0:0:
64,192,3641,1,8,2:0:0:0:
64,192,3957,1,8,2:0:0:0:
320,192,4115,1,8,2:0:0:0:
64,192,4273,1,8,2:0:0:0:
320,192,4431,1,8,2:0:0:0:
64,192,4589,1,8,2:0:0:0:
192,192,4904,128,8,4983:2:0:0:0:
320,192,5220,1,8,0:0:0:0:
448,192,5220,1,4,0:0:0:0:
64,192,5536,1,8,0:0:0:0:
192,192,5536,1,0,0:0:0:0:
320,192,5852,1,8,0:0:0:0:
448,192,5852,1,0,0:0:0:0:
192,192,6010,1,8,0:0:0:0:
64,192,6168,1,8,0:0:0:0:
448,192,6168,1,0,0:0:0:0:
64,192,6483,1,8,0:0:0:0:
192,192,6483,1,0,0:0:0:0:
320,192,6641,1,8,0:0:0:0:
64,192,6799,1,8,0:0:0:0:
448,192,6799,1,0,0:0:0:0:
192,192,6957,1,8,0:0:0:0:
320,192,7115,1,8,0:0:0:0:
448,192,7115,1,0,0:0:0:0:
64,192,7431,1,2,0:0:0:0:
192,192,7746,1,8,0:0:0:0:
320,192,7746,1,4,0:0:0:0:
64,192,9010,1,10,0:0:0:0:
192,192,9010,1,4,0:0:0:0:
448,192,9325,1,12,0:0:0:0:
320,192,9325,1,2,0:0:0:0:
192,192,9641,1,12,0:0:0:0:
64,192,9641,1,2,0:0:0:0:
64,192,10273,1,2,0:0:0:0:
192,192,10589,1,2,0:0:0:0:
320,192,10904,1,2,0:0:0:0:
448,192,11220,1,2,0:0:0:0:
192,192,11536,1,2,0:0:0:0:
64,192,11852,1,2,0:0:0:0:
320,192,12168,1,2,0:0:0:0:
448,192,12483,1,2,0:0:0:0:
192,192,12799,1,2,0:0:0:0:
320,192,13115,1,2,0:0:0:0:
64,192,13431,1,2,0:0:0:0:
192,192,13746,1,2,0:0:0:0:
448,192,14062,1,2,0:0:0:0:
320,192,14378,1,2,0:0:0:0:
192,192,14694,128,8,15010:0:0:0:0:
448,192,15010,1,8,0:0:0:0:
64,192,15325,1,2,0:0:0:0:
448,192,15325,1,4,0:0:0:0:
320,192,15483,1,0,0:0:0:0:
192,192,15562,1,0,0:0:0:0:
64,192,15641,1,2,0:0:0:0:
320,192,15799,1,0,0:0:0:0:
448,192,15957,1,2,0:0:0:0:
320,192,16115,1,0,0:0:0:0:
192,192,16194,1,0,0:0:0:0:
64,192,16273,1,2,0:0:0:0:
320,192,16431,1,0,0:0:0:0:
64,192,16589,1,2,0:0:0:0:
192,192,16746,1,0,0:0:0:0:
320,192,16825,1,0,0:0:0:0:
448,192,16904,1,2,0:0:0:0:
192,192,17062,1,0,0:0:0:0:
64,192,17220,1,2,0:0:0:0:
320,192,17378,1,0,0:0:0:0:
192,192,17536,128,2,17852:0:0:0:0:
64,192,17852,1,2,0:0:0:0:
320,192,18010,1,0,0:0:0:0:
192,192,18089,1,0,0:0:0:0:
64,192,18168,1,2,0:0:0:0:
448,192,18325,1,0,0:0:0:0:
192,192,18483,1,2,0:0:0:0:
448,192,18641,1,0,0:0:0:0:
320,192,18720,1,0,0:0:0:0:
192,192,18799,1,2,0:0:0:0:
64,192,18957,1,0,0:0:0:0:
320,192,19115,1,2,0:0:0:0:
448,192,19273,1,0,0:0:0:0:
64,192,19431,1,2,0:0:0:0:
448,192,19589,1,0,0:0:0:0:
64,192,19746,1,2,0:0:0:0:
448,192,19904,1,0,0:0:0:0:
320,192,20062,128,2,20220:0:0:0:0:
192,192,20220,128,0,20378:0:0:0:0:
64,192,20378,1,2,0:0:0:0:
448,192,20378,1,4,0:0:0:0:
192,192,20536,1,0,0:0:0:0:
320,192,20615,1,0,0:0:0:0:
448,192,20694,1,2,0:0:0:0:
192,192,20852,1,0,0:0:0:0:
64,192,21010,1,2,0:0:0:0:
192,192,21168,1,0,0:0:0:0:
320,192,21246,1,0,0:0:0:0:
448,192,21325,1,2,0:0:0:0:
192,192,21483,1,0,0:0:0:0:
448,192,21641,1,2,0:0:0:0:
64,192,21641,1,4,0:0:0:0:
320,192,21799,1,0,0:0:0:0:
192,192,21878,1,0,0:0:0:0:
64,192,21957,1,6,0:0:0:0:
448,192,22115,1,0,0:0:0:0:
192,192,22273,1,2,0:0:0:0:
320,192,22431,1,2,0:0:0:0:
448,192,22589,128,2,22904:0:0:0:0:
320,192,22904,1,2,0:0:0:0:
192,192,22904,1,4,0:0:0:0:
64,192,23220,1,2,0:0:0:0:
320,192,23536,1,2,0:0:0:0:
64,192,23852,1,2,0:0:0:0:
192,192,24168,1,2,0:0:0:0:
448,192,24483,1,2,0:0:0:0:
192,192,24799,1,2,0:0:0:0:
448,192,25115,1,2,0:0:0:0:
64,192,25431,1,8,2:0:0:0:
192,192,25431,1,0,0:0:0:0:
320,192,25746,1,2,0:0:0:0:
64,192,26062,1,2,0:0:0:0:
320,192,26378,1,8,2:0:0:0:
448,192,26694,1,2,0:0:0:0:
192,192,27010,1,2,0:0:0:0:
448,192,27325,1,2,0:0:0:0:
192,192,27641,1,8,2:0:0:0:
320,192,27957,1,4,0:0:0:0:
448,192,27957,1,2,0:0:0:0:
64,192,28273,128,2,28589:0:0:0:0:
320,192,28589,1,2,0:0:0:0:
64,192,28904,128,2,29220:0:0:0:0:
448,192,29220,1,2,0:0:0:0:
192,192,29536,128,2,29852:0:0:0:0:
448,192,29852,1,2,0:0:0:0:
192,192,30168,128,2,30483:0:0:0:0:
64,192,30483,1,2,0:0:0:0:
320,192,30799,128,2,31115:0:0:0:0:
64,192,31115,1,2,0:0:0:0:
320,192,31431,128,2,31746:0:0:0:0:
192,192,31746,1,2,0:0:0:0:
448,192,32062,128,2,32378:0:0:0:0:
192,192,32378,1,2,0:0:0:0:
448,192,32694,128,2,33010:0:0:0:0:
64,192,33010,1,6,0:0:0:0:
192,192,33010,1,8,2:0:0:0:
448,192,33246,1,10,2:0:0:0:
64,192,33325,1,2,0:0:0:0:
192,192,33325,1,8,2:0:0:0:
320,192,33483,1,8,2:0:0:0:
448,192,33641,1,2,0:0:0:0:
192,192,33799,1,2,0:0:0:0:
64,192,33957,1,2,0:0:0:0:
320,192,34273,1,6,0:0:0:0:
448,192,34273,1,8,0:0:0:0:
64,192,34510,1,10,2:0:0:0:
320,192,34589,1,2,0:0:0:0:
448,192,34589,1,8,2:0:0:0:
192,192,34746,1,8,2:0:0:0:
64,192,34904,1,2,0:0:0:0:
320,192,35062,1,2,0:0:0:0:
192,192,35220,1,2,0:0:0:0:
320,192,35378,1,2,0:0:0:0:
64,192,35536,1,4,0:0:0:0:
448,192,35536,128,2,35852:0:0:0:0:
192,192,35852,128,8,36168:0:0:0:0:
448,192,36168,128,2,36483:0:0:0:0:
192,192,36483,1,8,0:0:0:0:
64,192,36641,128,0,36957:0:0:0:0:
448,192,36799,1,2,0:0:0:0:
320,192,36957,128,0,37273:0:0:0:0:
64,192,37115,1,8,0:0:0:0:
192,192,37273,1,0,0:0:0:0:
320,192,37431,128,2,37746:0:0:0:0:
64,192,37746,1,8,0:0:0:0:
320,192,38062,1,4,0:0:0:0:
448,192,38062,1,2,0:0:0:0:
192,192,38378,128,2,38694:0:0:0:0:
448,192,38694,1,2,0:0:0:0:
192,192,39010,128,2,39325:0:0:0:0:
64,192,39325,1,2,0:0:0:0:
320,192,39641,128,2,39957:0:0:0:0:
64,192,39957,1,2,0:0:0:0:
320,192,40273,128,2,40589:0:0:0:0:
448,192,40589,1,2,0:0:0:0:
64,192,40904,128,2,41220:0:0:0:0:
448,192,41220,1,2,0:0:0:0:
64,192,41536,128,2,41852:0:0:0:0:
192,192,41852,1,2,0:0:0:0:
448,192,42168,128,2,42483:0:0:0:0:
192,192,42483,1,2,0:0:0:0:
448,192,42799,128,2,43115:0:0:0:0:
64,192,43115,1,6,0:0:0:0:
192,192,43115,1,8,2:0:0:0:
320,192,43352,1,10,2:0:0:0:
64,192,43431,1,2,0:0:0:0:
192,192,43431,1,8,2:0:0:0:
448,192,43589,1,8,2:0:0:0:
320,192,43746,1,2,0:0:0:0:
64,192,43904,1,0,0:0:0:0:
192,192,44062,1,2,0:0:0:0:
320,192,44378,1,6,0:0:0:0:
448,192,44378,1,8,2:0:0:0:
192,192,44615,1,10,2:0:0:0:
320,192,44694,1,2,0:0:0:0:
448,192,44694,1,8,2:0:0:0:
64,192,44852,1,8,2:0:0:0:
448,192,45010,1,2,0:0:0:0:
192,192,45168,1,2,0:0:0:0:
320,192,45325,1,2,0:0:0:0:
448,192,45483,1,2,0:0:0:0:
64,192,45641,1,4,0:0:0:0:
192,192,45641,1,2,0:0:0:0:
448,192,45957,1,8,0:0:0:0:
320,192,46273,1,2,0:0:0:0:
192,192,46589,1,8,0:0:0:0:
320,192,46904,1,6,0:0:0:0:
448,192,46904,1,8,0:0:0:0:
64,192,47220,1,8,0:0:0:0:
192,192,47220,1,2,0:0:0:0:
320,192,47536,1,8,0:0:0:0:
448,192,47536,1,0,0:0:0:0:
64,192,47694,1,2,0:0:0:0:
192,192,47852,1,8,0:0:0:0:
320,192,48010,1,2,0:0:0:0:
64,192,48168,1,2,0:0:0:0:
448,192,48168,1,4,0:0:0:0:
64,192,48483,1,2,0:0:0:0:
448,192,48799,1,2,0:0:0:0:
448,192,49115,1,2,0:0:0:0:
192,192,49431,1,2,0:0:0:0:
192,192,49746,1,2,0:0:0:0:
320,192,50062,1,2,0:0:0:0:
320,192,50378,1,2,0:0:0:0:
64,192,50694,1,8,0:0:0:0:
64,192,51010,1,8,0:0:0:0:
448,192,51325,1,8,0:0:0:0:
192,192,51483,1,8,0:0:0:0:
448,192,51641,1,8,0:0:0:0:
64,192,51957,1,8,0:0:0:0:
320,192,52115,1,8,0:0:0:0:
64,192,52273,1,8,0:0:0:0:
320,192,52431,1,8,0:0:0:0:
64,192,52589,1,8,0:0:0:0:
448,192,52904,1,2,0:0:0:0:
320,192,53062,1,2,0:0:0:0:
64,192,53220,1,4,0:0:0:0:
192,192,53220,1,8,0:0:0:0:
192,192,53536,1,2,0:0:0:0:
320,192,53852,1,2,0:0:0:0:
320,192,54168,1,2,0:0:0:0:
192,192,54483,1,8,0:0:0:0:
448,192,54641,1,2,0:0:0:0:
192,192,54799,1,8,0:0:0:0:
448,192,54957,1,2,0:0:0:0:
64,192,55115,1,8,0:0:0:0:
320,192,55273,1,2,0:0:0:0:
64,192,55431,1,8,0:0:0:0:
320,192,55589,1,2,0:0:0:0:
64,192,55746,1,2,0:0:0:0:
192,192,55746,1,4,0:0:0:0:
320,192,55904,1,0,0:0:0:0:
448,192,56062,128,0,56378:0:0:0:0:
320,192,56378,128,0,56694:0:0:0:0:
192,192,56694,128,0,57010:0:0:0:0:
64,192,57010,128,4,57641:0:0:0:0:
448,192,57010,128,8,57641:0:0:0:0:
320,192,57799,1,0,0:0:0:0:
192,192,57957,1,0,0:0:0:0:
320,192,58115,1,0,0:0:0:0:
64,192,58273,128,2,58589:0:0:0:0:
448,192,58273,1,4,0:0:0:0:
192,192,58431,1,0,0:0:0:0:
320,192,58589,1,2,0:0:0:0:
448,192,58746,1,8,0:0:0:0:
192,192,58904,128,2,59220:0:0:0:0:
320,192,59062,1,8,0:0:0:0:
448,192,59220,1,2,0:0:0:0:
320,192,59378,128,8,59694:0:0:0:0:
64,192,59536,1,2,0:0:0:0:
192,192,59694,1,8,0:0:0:0:
320,192,59852,1,2,0:0:0:0:
448,192,60010,1,8,0:0:0:0:
64,192,60168,128,2,60325:0:0:0:0:
320,192,60325,1,8,0:0:0:0:
192,192,60483,1,2,0:0:0:0:
320,192,60641,1,8,0:0:0:0:
448,192,60799,128,2,61115:0:0:0:0:
192,192,60957,1,8,0:0:0:0:
64,192,61115,1,2,0:0:0:0:
192,192,61273,1,8,0:0:0:0:
320,192,61431,128,2,61746:0:0:0:0:
64,192,61589,1,8,0:0:0:0:
192,192,61746,1,2,0:0:0:0:
320,192,61904,1,8,0:0:0:0:
448,192,62062,1,2,0:0:0:0:
192,192,62220,1,8,0:0:0:0:
320,192,62378,1,2,0:0:0:0:
192,192,62536,1,8,0:0:0:0:
64,192,62694,128,2,63010:0:0:0:0:
448,192,62852,1,8,0:0:0:0:
448,192,63010,128,10,63325:0:0:0:0:
64,192,63325,1,2,0:0:0:0:
192,192,63325,128,4,63641:0:0:0:0:
448,192,63483,1,0,0:0:0:0:
320,192,63641,1,2,0:0:0:0:
192,192,63799,1,8,0:0:0:0:
320,192,63957,128,2,64273:0:0:0:0:
64,192,64115,1,8,0:0:0:0:
448,192,64273,1,2,0:0:0:0:
64,192,64431,128,8,64746:0:0:0:0:
192,192,64589,1,2,0:0:0:0:
320,192,64746,1,8,0:0:0:0:
448,192,64904,1,2,0:0:0:0:
320,192,65062,1,8,0:0:0:0:
192,192,65220,128,2,65378:0:0:0:0:
448,192,65378,1,8,0:0:0:0:
320,192,65536,1,2,0:0:0:0:
192,192,65694,1,8,0:0:0:0:
320,192,65852,1,2,0:0:0:0:
320,192,66010,1,2,0:0:0:0:
64,192,66168,128,4,66483:0:0:0:0:
192,192,66168,1,8,0:0:0:0:
448,192,66483,1,2,0:0:0:0:
448,192,66641,1,2,0:0:0:0:
192,192,66799,128,4,67115:0:0:0:0:
320,192,66799,1,8,0:0:0:0:
64,192,67115,1,4,0:0:0:0:
448,192,67115,1,2,0:0:0:0:
320,192,67273,1,8,0:0:0:0:
192,192,67431,1,2,0:0:0:0:
320,192,67589,1,8,0:0:0:0:
64,192,67746,1,2,0:0:0:0:
448,192,67746,1,0,0:0:0:0:
192,192,68062,128,8,68378:0:0:0:0:
320,192,68378,1,2,0:0:0:0:
448,192,68378,128,4,68694:0:0:0:0:
192,192,68536,1,0,0:0:0:0:
64,192,68694,1,10,0:0:0:0:
320,192,68852,1,0,0:0:0:0:
192,192,69010,128,2,69325:0:0:0:0:
320,192,69168,1,0,0:0:0:0:
448,192,69325,1,10,0:0:0:0:
64,192,69483,128,0,69799:0:0:0:0:
320,192,69641,1,2,0:0:0:0:
448,192,69799,1,0,0:0:0:0:
192,192,69957,1,10,0:0:0:0:
320,192,70115,1,0,0:0:0:0:
448,192,70273,128,2,70431:0:0:0:0:
64,192,70431,1,0,0:0:0:0:
192,192,70589,1,10,0:0:0:0:
320,192,70746,1,0,0:0:0:0:
64,192,70904,128,2,71220:0:0:0:0:
192,192,71062,1,0,0:0:0:0:
448,192,71220,1,10,0:0:0:0:
320,192,71378,1,0,0:0:0:0:
192,192,71536,128,2,71852:0:0:0:0:
64,192,71694,1,0,0:0:0:0:
448,192,71852,1,10,0:0:0:0:
320,192,72010,1,0,0:0:0:0:
64,192,72168,1,6,0:0:0:0:
192,192,72325,1,0,0:0:0:0:
320,192,72483,1,10,0:0:0:0:
192,192,72641,1,0,0:0:0:0:
448,192,72799,128,2,73115:0:0:0:0:
64,192,72957,1,8,0:0:0:0:
64,192,73115,128,10,73431:0:0:0:0:
320,192,73431,128,2,73746:0:0:0:0:
448,192,73431,1,4,0:0:0:0:
192,192,73589,1,0,0:0:0:0:
64,192,73746,1,2,0:0:0:0:
320,192,73904,1,8,0:0:0:0:
192,192,74062,128,2,74378:0:0:0:0:
448,192,74220,1,8,0:0:0:0:
320,192,74378,1,2,0:0:0:0:
448,192,74536,128,8,74852:0:0:0:0:
64,192,74694,1,2,0:0:0:0:
192,192,74852,1,8,0:0:0:0:
320,192,75010,1,2,0:0:0:0:
64,192,75168,1,8,0:0:0:0:
320,192,75325,128,2,75483:0:0:0:0:
192,192,75483,1,8,0:0:0:0:
448,192,75641,1,2,0:0:0:0:
320,192,75799,1,8,0:0:0:0:
192,192,75957,1,2,0:0:0:0:
192,192,76115,1,2,0:0:0:0:
320,192,76273,1,4,0:0:0:0:
448,192,76273,128,8,76589:0:0:0:0:
64,192,76589,1,2,0:0:0:0:
64,192,76746,1,2,0:0:0:0:
192,192,76904,1,4,0:0:0:0:
320,192,76904,128,8,77220:0:0:0:0:
64,192,77220,1,4,0:0:0:0:
448,192,77220,1,2,0:0:0:0:
320,192,77378,1,8,0:0:0:0:
192,192,77536,1,2,0:0:0:0:
320,192,77694,1,8,0:0:0:0:
448,192,77852,1,2,0:0:0:0:
448,192,78168,1,8,0:0:0:0:
64,192,78483,1,2,0:0:0:0:
192,192,78483,1,8,0:0:0:0:
320,192,78799,1,8,0:0:0:0:
448,192,78799,1,2,0:0:0:0:
64,192,79115,1,2,0:0:0:0:
448,192,79115,1,8,0:0:0:0:
320,192,79273,1,2,0:0:0:0:
64,192,79431,1,8,0:0:0:0:
192,192,79431,1,4,0:0:0:0:
320,192,79746,1,2,0:0:0:0:
448,192,79746,1,4,0:0:0:0:
192,192,79904,1,2,0:0:0:0:
64,192,80062,1,2,0:0:0:0:
448,192,80062,1,0,0:0:0:0:
320,192,80220,1,2,0:0:0:0:
64,192,80378,1,2,0:0:0:0:
192,192,80378,1,0,0:0:0:0:
192,192,80694,1,8,0:0:0:0:
320,192,80694,1,4,0:0:0:0:
320,192,81010,128,4,82273:0:0:0:0:
448,192,81010,1,2,0:0:0:0:
192,192,82273,128,0,82589:0:0:0:0:
448,192,82589,128,0,82904:0:0:0:0:
64,192,82904,128,0,84483:0:0:0:0:
320,192,84799,1,0,0:0:0:0:
64,192,84957,1,0,0:0:0:0:
320,192,85115,1,0,0:0:0:0:
64,192,85273,1,0,0:0:0:0:
320,192,85431,1,0,0:0:0:0:
320,192,85589,1,0,0:0:0:0:
192,192,85746,128,0,86062:0:0:0:0:
64,192,86062,1,2,0:0:0:0:
320,192,86062,1,4,0:0:0:0:
448,192,86220,1,0,0:0:0:0:
320,192,86299,1,0,0:0:0:0:
192,192,86378,1,10,0:0:0:0:
448,192,86536,1,0,0:0:0:0:
320,192,86694,1,2,0:0:0:0:
64,192,86852,1,0,0:0:0:0:
192,192,86931,1,0,0:0:0:0:
320,192,87010,1,10,0:0:0:0:
64,192,87168,1,0,0:0:0:0:
192,192,87325,1,2,0:0:0:0:
448,192,87483,1,0,0:0:0:0:
320,192,87562,1,0,0:0:0:0:
192,192,87641,1,10,0:0:0:0:
448,192,87799,1,0,0:0:0:0:
64,192,87957,1,2,0:0:0:0:
192,192,88115,1,0,0:0:0:0:
448,192,88273,128,10,88589:0:0:0:0:
64,192,88589,1,2,0:0:0:0:
320,192,88746,1,0,0:0:0:0:
192,192,88825,1,0,0:0:0:0:
64,192,88904,1,10,0:0:0:0:
320,192,89062,1,0,0:0:0:0:
448,192,89220,1,2,0:0:0:0:
192,192,89378,1,0,0:0:0:0:
320,192,89457,1,0,0:0:0:0:
448,192,89536,1,10,0:0:0:0:
64,192,89694,1,0,0:0:0:0:
192,192,89852,1,2,0:0:0:0:
320,192,90010,1,0,0:0:0:0:
64,192,90168,1,10,0:0:0:0:
320,192,90325,1,0,0:0:0:0:
64,192,90483,1,2,0:0:0:0:
320,192,90641,1,8,2:0:0:0:
448,192,90799,128,10,90957:0:0:0:0:
192,192,90957,128,0,91115:0:0:0:0:
64,192,91115,1,2,0:0:0:0:
320,192,91115,1,4,0:0:0:0:
192,192,91273,1,0,0:0:0:0:
448,192,91352,1,0,0:0:0:0:
64,192,91431,1,10,0:0:0:0:
192,192,91589,1,0,0:0:0:0:
448,192,91746,1,2,0:0:0:0:
320,192,91904,1,0,0:0:0:0:
192,192,91983,1,0,0:0:0:0:
64,192,92062,1,10,0:0:0:0:
448,192,92220,1,0,0:0:0:0:
320,192,92378,1,2,0:0:0:0:
192,192,92536,1,0,0:0:0:0:
448,192,92615,1,0,0:0:0:0:
64,192,92694,1,10,0:0:0:0:
320,192,92852,1,0,0:0:0:0:
448,192,93010,1,2,0:0:0:0:
192,192,93168,1,0,0:0:0:0:
64,192,93325,128,10,93641:0:0:0:0:
192,192,93641,1,2,0:0:0:0:
448,192,93799,1,0,0:0:0:0:
64,192,93878,1,0,0:0:0:0:
320,192,93957,1,10,0:0:0:0:
192,192,94115,1,0,0:0:0:0:
448,192,94273,1,2,0:0:0:0:
64,192,94431,1,0,0:0:0:0:
192,192,94510,1,0,0:0:0:0:
320,192,94589,1,10,0:0:0:0:
448,192,94746,1,0,0:0:0:0:
64,192,94904,1,6,0:0:0:0:
192,192,95062,1,8,2:0:0:0:
448,192,95220,1,2,0:0:0:0:
192,192,95378,1,8,2:0:0:0:
448,192,95536,1,2,0:0:0:0:
192,192,95694,1,8,2:0:0:0:
320,192,95852,128,2,96010:0:0:0:0:
64,192,96010,128,2,96168:0:0:0:0:
192,192,96168,1,2,0:0:0:0:
448,192,96168,1,4,0:0:0:0:
64,192,96325,1,0,0:0:0:0:
448,192,96404,1,0,0:0:0:0:
192,192,96483,1,10,0:0:0:0:
320,192,96641,1,0,0:0:0:0:
192,192,96799,1,2,0:0:0:0:
448,192,96957,1,0,0:0:0:0:
64,192,97036,1,0,0:0:0:0:
320,192,97115,1,10,0:0:0:0:
192,192,97273,1,0,0:0:0:0:
320,192,97431,1,2,0:0:0:0:
64,192,97589,1,0,0:0:0:0:
448,192,97668,1,0,0:0:0:0:
192,192,97746,1,10,0:0:0:0:
320,192,97904,1,0,0:0:0:0:
448,192,98062,1,2,0:0:0:0:
192,192,98220,1,0,0:0:0:0:
320,192,98378,128,10,98694:0:0:0:0:
192,192,98694,1,2,0:0:0:0:
448,192,98852,1,0,0:0:0:0:
64,192,98931,1,0,0:0:0:0:
320,192,99010,1,10,0:0:0:0:
192,192,99168,1,0,0:0:0:0:
448,192,99325,1,2,0:0:0:0:
320,192,99483,1,0,0:0:0:0:
64,192,99562,1,0,0:0:0:0:
448,192,99641,1,10,0:0:0:0:
320,192,99799,1,0,0:0:0:0:
192,192,99957,1,2,0:0:0:0:
64,192,100115,1,0,0:0:0:0:
320,192,100273,1,10,0:0:0:0:
64,192,100431,1,0,0:0:0:0:
320,192,100589,1,2,0:0:0:0:
64,192,100746,1,8,2:0:0:0:
192,192,100904,128,10,101062:0:0:0:0:
448,192,101062,128,0,101220:0:0:0:0:
320,192,101220,1,2,0:0:0:0:
64,192,101220,1,4,0:0:0:0:
192,192,101378,1,0,0:0:0:0:
448,192,101457,1,0,0:0:0:0:
64,192,101536,1,10,0:0:0:0:
320,192,101694,1,0,0:0:0:0:
192,192,101852,1,2,0:0:0:0:
448,192,102010,1,0,0:0:0:0:
64,192,102089,1,0,0:0:0:0:
320,192,102168,1,10,0:0:0:0:
192,192,102325,1,0,0:0:0:0:
448,192,102483,1,6,0:0:0:0:
320,192,102641,1,0,0:0:0:0:
64,192,102720,1,0,0:0:0:0:
448,192,102799,1,10,0:0:0:0:
192,192,102957,1,2,0:0:0:0:
320,192,103115,1,2,0:0:0:0:
64,192,103273,1,0,0:0:0:0:
448,192,103431,128,10,103746:0:0:0:0:
64,192,103746,1,4,0:0:0:0:
320,192,103746,1,2,0:0:0:0:
192,192,104062,1,2,0:0:0:0:
320,192,104378,1,2,0:0:0:0:
192,192,104694,1,2,0:0:0:0:
448,192,105010,1,2,0:0:0:0:
64,192,105325,1,2,0:0:0:0:
448,192,105641,1,2,0:0:0:0:
320,192,105799,1,8,2:0:0:0:
64,192,105957,1,8,2:0:0:0:
192,192,106115,1,8,2:0:0:0:
320,192,106273,1,8,2:0:0:0:
448,192,106589,128,0,106746:0:0:0:0:
448,192,107062,128,0,107220:0:0:0:0:
448,192,107536,128,0,107694:0:0:0:0:
64,192,107694,1,8,2:0:0:0:
192,192,107852,1,2,0:0:0:0:
320,192,108010,1,2,0:0:0:0:
448,192,108168,1,2,0:0:0:0:
320,192,108325,1,8,2:0:0:0:
192,192,108483,1,8,2:0:0:0:
64,192,108641,1,8,2:0:0:0:
