osu file format v14

[General]
AudioFilename: audio.mp3
AudioLeadIn: 0
PreviewTime: 52523
Countdown: 0
SampleSet: Soft
StackLeniency: 0.3
Mode: 0
LetterboxInBreaks: 0
WidescreenStoryboard: 1

[Editor]
Bookmarks: 14262,27033,40208,53181,79127
DistanceSpacing: 1
BeatDivisor: 4
GridSize: 32
TimelineZoom: 2.699999

[Metadata]
Title:Seishun Kippu (TV Size)
TitleUnicode:青春切符 (TV Size)
Artist:mafumafu
ArtistUnicode:まふまふ
Creator:Ascended
Version:Normal
Source:クールドジ男子
Tags:cool doji danshi Play It Cool, Guys clumsy guys anime animation boys japanese pop jpop j-pop jp 0ppinosu kyouren gokugohan12468 kittyadventure Mononymous Addy2607 KaedeharaKazuha opening 1 one
BeatmapID:3853517
BeatmapSetID:1871489

[Difficulty]
HPDrainRate:4
CircleSize:3.5
OverallDifficulty:4
ApproachRate:5
SliderMultiplier:1.2
SliderTickRate:1

[Events]
//Background and Video events
0,0,"anime men give me life.jpg",0,0
Video,-207,"i love anime men.mp4"
//Break Periods
//Storyboard Layer 0 (Background)
//Storyboard Layer 1 (Fail)
//Storyboard Layer 2 (Pass)
//Storyboard Layer 3 (Foreground)
//Storyboard Layer 4 (Overlay)
//Storyboard Sound Samples

[TimingPoints]
480,405.405405405405,4,2,1,70,1,0
1290,405.405405405405,4,2,1,70,1,0
14060,-100,4,2,1,60,0,0
14465,-111.111111111111,4,2,1,60,0,0
27033,-111.111111111111,4,2,1,65,0,0
27438,-100,4,2,1,65,0,0
38789,-100,4,2,1,70,0,0
40208,-111.111111111111,4,2,1,65,0,0
45681,-111.111111111111,4,2,1,70,0,0
45884,-111.111111111111,4,2,1,65,0,0
46492,-100,4,2,1,70,0,0
50140,-100,4,2,1,65,0,0
51357,-100,4,2,1,70,0,0
53181,-90.9090909090909,4,2,1,70,0,1
79127,-100,4,2,1,70,0,0
85411,-100,4,2,1,60,0,0
85817,-111.111111111111,4,2,1,60,0,0
87033,-111.111111111111,4,2,1,70,0,0
88654,-111.111111111111,4,2,1,40,0,0

[Colours]
Combo1 : 98,130,204
Combo2 : 245,227,122

[HitObjects]
256,384,1290,6,0,P|273:327|332:318,1,120,6|8,3:2|2:2,0:0:0:0:
417,237,2100,2,0,P|450:244|475:248,2,60,2|2|10,3:2|3:2|2:2,0:0:0:0:
373,197,2708,1,2,2:2:0:0:
373,197,2911,2,0,P|365:163|361:138,1,60,2|2,3:2|2:2,0:0:0:0:
390,85,3317,1,10,2:2:0:0:
290,17,3722,2,0,P|256:24|231:28,1,60,2|2,3:2|3:2,0:0:0:0:
172,42,4128,1,8,2:2:0:0:
196,159,4533,6,0,P|251:170|267:225,1,120,2|8,3:2|2:2,0:0:0:0:
194,321,5344,2,0,P|160:313|135:309,1,60,2|2,3:2|3:2,0:0:0:0:
80,328,5749,1,10,2:2:0:0:
80,328,5952,2,0,P|65:261|56:210,1,120,6|2,3:2|3:2,0:0:0:0:
22,167,6560,1,10,2:2:0:0:
22,167,6762,1,2,2:2:0:0:
86,65,7168,2,0,P|91:35|97:6,2,60,0|8|0,3:3|2:2|3:3,0:0:0:0:
131,104,7776,6,0,P|182:96|200:35,1,120,6|8,3:2|2:2,0:0:0:0:
319,17,8587,2,0,P|352:10|377:6,2,60,2|2|10,3:2|3:2|2:2,0:0:0:0:
332,80,9195,1,2,2:2:0:0:
332,80,9398,2,0,P|324:114|320:139,1,60,2|2,3:2|2:2,0:0:0:0:
278,182,9804,1,10,2:2:0:0:
293,300,10209,2,0,P|327:307|352:311,1,60,2|2,3:2|3:2,0:0:0:0:
411,325,10615,1,8,2:2:0:0:
489,234,11020,6,0,P|474:178|418:167,1,120,2|8,3:2|2:2,0:0:0:0:
323,93,11831,2,0,P|289:101|264:105,1,60,2|0,3:2|0:0,0:0:0:0:
209,86,12235,1,8,2:2:0:0:
163,124,12438,1,6,3:2:0:0:
150,246,12844,1,2,3:2:0:0:
150,246,13046,2,0,P|116:238|91:234,1,60,8|0,2:2|3:3,0:0:0:0:
31,225,13452,2,0,B|4:186|4:186|17:143,2,90,2|0|4,3:2|3:3|3:2,0:0:0:0:
13,331,14465,6,0,P|5:363|1:386,2,53.9999983520508,2|2|2,2:2|3:2|2:2,0:0:0:0:
66,326,15073,2,0,P|118:338|140:389,1,107.999996704102,2|0,3:2|3:3,0:0:0:0:
190,365,15681,2,0,P|216:360|242:354,1,53.9999983520508,2|0,2:2|3:3,0:0:0:0:
285,254,16289,2,0,P|280:227|274:201,1,53.9999983520508,2|2,3:2|2:2,0:0:0:0:
224,179,16695,2,0,P|211:126|202:73,1,107.999996704102,0|2,3:3|3:2,0:0:0:0:
281,0,17506,6,0,P|337:-1|365:50,1,107.999996704102,0|2,3:3|3:2,0:0:0:0:
422,38,18114,1,2,2:2:0:0:
422,38,18317,2,0,P|448:33|474:27,2,53.9999983520508,2|2|2,3:2|2:2|3:2,0:0:0:0:
427,91,18925,2,0,P|433:117|437:143,1,53.9999983520508,2|2,2:2|3:2,0:0:0:0:
473,246,19533,2,0,P|446:250|420:257,1,53.9999983520508,2|2,3:2|2:2,0:0:0:0:
367,244,19938,2,0,B|345:206|345:206|359:165,2,80.9999975280763,2|2|2,3:2|2:2|2:2,0:0:0:0:
382,295,20749,5,0,3:3:0:0:
291,353,21154,2,0,P|264:346|238:342,1,53.9999983520508,2|2,3:2|2:2,0:0:0:0:
193,311,21560,2,0,P|189:255|230:231,1,107.999996704102,2|0,3:2|3:3,0:0:0:0:
261,187,22168,2,0,P|256:160|250:134,1,53.9999983520508,2|0,2:2|3:3,0:0:0:0:
233,27,22776,2,0,P|206:32|180:38,1,53.9999983520508,2|2,3:2|2:2,0:0:0:0:
134,8,23182,2,0,P|81:20|28:29,1,107.999996704102,0|2,3:3|3:2,0:0:0:0:
12,135,23992,6,0,P|13:188|63:209,1,107.999996704102,0|2,3:3|3:2,0:0:0:0:
85,261,24600,1,2,2:2:0:0:
85,261,24803,2,0,P|80:287|74:313,1,53.9999983520508,0|2,3:3|2:2,0:0:0:0:
104,358,25208,1,8,2:2:0:0:
157,347,25411,5,6,3:2:0:0:
221,259,25817,2,0,P|214:232|210:206,2,53.9999983520508,8|8|8,2:2|2:2|2:2,0:0:0:0:
261,295,26425,2,0,B|295:256|295:256|356:273,1,107.999996704102,10|10,2:2|2:2,0:0:0:0:
389,310,27033,1,6,3:2:0:0:
453,209,27438,6,0,P|479:213|516:224,2,60,2|10|2,2:2|2:2|2:2,0:0:0:0:
408,169,28046,2,0,P|384:122|321:115,1,120,2|10,3:2|2:2,0:0:0:0:
265,136,28654,2,0,P|258:165|252:194,2,60,2|0|2,2:2|3:3|2:2,0:0:0:0:
231,86,29262,1,10,2:2:0:0:
112,63,29668,2,0,P|105:33|100:4,2,60,0|2|8,3:3|2:2|2:2,0:0:0:0:
153,175,30479,6,0,P|101:187|78:254,1,120,2|10,3:2|2:2,0:0:0:0:
76,308,31087,1,2,2:2:0:0:
76,308,31290,2,0,P|49:312|15:322,2,60,0|2|10,3:3|2:2|2:2,0:0:0:0:
120,348,31898,2,0,P|156:339|193:332,1,60,2|2,2:2|3:2,0:0:0:0:
238,329,32303,2,0,P|229:292|222:255,1,60,2|10,2:2|2:2,0:0:0:0:
341,242,32911,2,0,B|384:238|384:238|416:272,2,90,2|10|6,3:2|2:2|3:2,0:0:0:0:
275,141,33925,6,0,P|248:136|212:126,2,60,2|10|2,2:2|2:2|2:2,0:0:0:0:
311,93,34533,1,2,3:2:0:0:
432,119,34938,1,10,2:2:0:0:
432,119,35141,2,0,P|437:92|447:56,2,60,2|0|2,2:2|3:3|2:2,0:0:0:0:
470,164,35749,1,10,2:2:0:0:
444,281,36154,2,0,P|448:310|455:339,2,60,0|2|8,3:3|2:2|2:2,0:0:0:0:
391,264,36762,5,2,2:2:0:0:
391,264,36965,2,0,P|328:279|265:289,1,120,2|10,3:2|2:2,0:0:0:0:
155,267,37776,2,0,P|128:271|94:281,2,60,0|2|8,3:3|2:2|2:2,0:0:0:0:
172,209,38384,5,6,3:2:0:0:
67,162,38789,1,8,2:2:0:0:
67,162,38992,2,0,P|63:135|53:101,1,60,8|8,2:2|2:2,0:0:0:0:
97,62,39398,1,10,2:2:0:0:
97,62,39600,1,2,3:2:0:0:
97,62,39803,2,0,P|124:58|158:48,1,60,10|10,2:2|2:2,0:0:0:0:
207,63,40208,6,0,B|222:40|222:40|218:13,2,53.9999983520508,6|2|8,3:2|2:2|2:2,0:0:0:0:
312,86,41019,2,0,B|361:98|361:98|393:71,2,80.9999975280763,2|2|6,3:2|3:2|3:2,0:0:0:0:
231,157,42033,1,2,3:2:0:0:
231,157,42235,2,0,P|239:185|244:215,1,53.9999983520508,8|2,2:2|2:2,0:0:0:0:
211,253,42641,2,0,P|184:257|158:265,2,53.9999983520508,2|2|10,3:2|3:2|2:2,0:0:0:0:
309,298,43452,6,0,B|323:242|352:267|365:207,2,107.999996704102,6|14|6,3:2|2:2|3:2,0:0:0:0:
396,361,44668,2,0,P|421:353|448:348,1,53.9999983520508,10|2,2:2|3:2,0:0:0:0:
492,317,45073,2,0,P|476:265|467:212,1,107.999996704102,6|14,3:2|2:2,0:0:0:0:
495,167,45681,1,2,0:0:0:0:
495,167,45884,1,6,3:2:0:0:
415,102,46289,5,10,2:2:0:0:
415,102,46492,2,0,P|360:113|338:181,1,120,4|2,3:2|3:2,0:0:0:0:
350,225,47100,1,10,2:2:0:0:
254,298,47506,2,0,P|245:326|240:356,2,60,2|2|10,3:2|3:2|2:2,0:0:0:0:
209,266,48114,1,2,2:2:0:0:
209,266,48317,2,0,P|179:270|150:279,1,60,0|2,3:3|3:2,0:0:0:0:
106,320,48722,1,10,2:2:0:0:
21,234,49127,2,0,P|16:204|7:175,1,60,0|2,3:3|3:2,0:0:0:0:
37,123,49532,1,10,2:2:0:0:
93,17,49938,6,0,L|159:34,1,60,6|0,3:2|3:3,0:0:0:0:
198,69,50344,2,0,B|226:103|226:103|213:151,2,90,8|8|8,2:2|2:2|2:2,0:0:0:0:
251,39,51154,1,0,3:3:0:0:
251,39,51357,1,4,2:2:0:0:
376,23,51762,1,8,2:2:0:0:
376,23,51965,1,8,2:2:0:0:
376,23,52168,1,8,2:2:0:0:
401,351,53181,6,0,P|461:334|475:272,1,132.00000402832,6|10,3:2|2:2,0:0:0:0:
382,177,53992,2,0,P|349:182|317:190,1,66.0000020141602,2|2,3:2|3:2,0:0:0:0:
280,143,54398,2,0,P|285:110|293:78,1,66.0000020141602,10|2,2:2|2:2,0:0:0:0:
267,17,54803,1,2,3:2:0:0:
135,2,55208,1,10,2:2:0:0:
99,129,55614,2,0,P|66:136|34:142,2,66.0000020141602,2|0|10,3:2|3:3|2:2,0:0:0:0:
112,260,56425,6,0,P|54:275|46:354,1,132.00000402832,2|10,3:2|2:2,0:0:0:0:
166,371,57236,2,0,P|198:376|230:384,1,66.0000020141602,2|2,3:2|3:2,0:0:0:0:
283,344,57642,2,0,P|315:336|347:330,1,66.0000020141602,10|2,2:2|2:2,0:0:0:0:
385,276,58046,2,0,P|379:243|371:211,2,66.0000020141602,2|0|10,3:2|3:3|2:2,0:0:0:0:
499,209,58858,2,0,P|504:176|512:144,1,66.0000020141602,2|0,3:2|3:3,0:0:0:0:
502,88,59262,5,10,2:2:0:0:
502,88,59465,1,0,3:3:0:0:
502,88,59668,2,0,P|485:34|413:19,1,132.00000402832,6|10,3:2|2:2,0:0:0:0:
299,76,60479,2,0,P|306:108|311:140,1,66.0000020141602,2|2,3:2|3:2,0:0:0:0:
364,180,60884,2,0,P|356:212|351:244,1,66.0000020141602,10|2,2:2|2:2,0:0:0:0:
305,291,61289,2,0,P|272:293|231:374,1,132.00000402832,2|10,3:2|2:2,0:0:0:0:
106,327,62100,2,0,P|113:294|118:262,1,66.0000020141602,2|0,3:2|3:3,0:0:0:0:
92,201,62506,1,8,2:2:0:0:
37,80,62911,6,0,B|109:65|71:37|153:23,1,132.00000402832,6|8,3:2|2:2,0:0:0:0:
215,57,63519,1,10,2:2:0:0:
215,57,63722,2,0,P|222:89|227:121,1,66.0000020141602,4|0,2:3|3:3,0:0:0:0:
247,189,64127,1,8,2:2:0:0:
247,189,64330,2,0,P|306:190|323:126,1,132.00000402832,4|0,3:2|3:3,0:0:0:0:
375,86,64938,2,0,B|388:39|388:39|351:1,2,99.0000030212403,8|8|2,2:2|2:2|3:2,0:0:0:0:
430,122,65749,2,0,P|462:126|494:134,1,66.0000020141602,10|2,2:2|3:2,0:0:0:0:
510,198,66154,6,0,P|452:213|444:292,1,132.00000402832,6|10,3:2|2:2,0:0:0:0:
337,364,66965,2,0,P|304:358|272:350,1,66.0000020141602,2|2,3:2|3:2,0:0:0:0:
206,345,67371,2,0,P|200:312|192:280,1,66.0000020141602,10|2,2:2|2:2,0:0:0:0:
180,215,67776,1,2,3:2:0:0:
51,246,68181,1,10,2:2:0:0:
71,115,68587,2,0,P|38:109|6:101,2,66.0000020141602,2|2|10,3:2|3:2|2:2,0:0:0:0:
165,22,69398,6,0,P|223:37|231:116,1,132.00000402832,2|10,3:2|2:2,0:0:0:0:
177,218,70209,2,0,P|182:250|190:282,1,66.0000020141602,2|2,3:2|3:2,0:0:0:0:
207,346,70615,2,0,P|239:351|271:359,1,66.0000020141602,10|2,2:2|2:2,0:0:0:0:
318,313,71019,2,0,P|323:280|331:248,2,66.0000020141602,2|2|10,3:2|3:2|2:2,0:0:0:0:
441,360,71830,2,0,P|435:327|427:295,1,66.0000020141602,2|0,3:2|3:3,0:0:0:0:
464,243,72235,5,8,2:2:0:0:
464,243,72438,1,0,3:3:0:0:
464,243,72641,2,0,P|474:177|490:113,1,132.00000402832,6|8,3:2|2:2,0:0:0:0:
460,54,73249,1,2,2:2:0:0:
460,54,73452,2,0,P|404:59|380:132,1,132.00000402832,0|8,3:3|2:2,0:0:0:0:
334,247,74262,2,0,P|268:257|204:273,1,132.00000402832,2|10,3:2|2:2,0:0:0:0:
154,315,74871,1,2,2:2:0:0:
154,315,75073,2,0,P|149:347|141:379,2,66.0000020141602,0|2|10,3:3|3:2|2:2,0:0:0:0:
50,233,75884,6,0,P|68:181|138:152,1,132.00000402832,4|8,3:2|2:2,0:0:0:0:
236,67,76695,2,0,P|231:34|223:2,2,66.0000020141602,4|0|8,2:3|3:3|2:2,0:0:0:0:
293,99,77303,1,6,2:2:0:0:
318,232,77708,1,10,2:2:0:0:
318,232,77911,2,0,P|310:264|305:296,1,66.0000020141602,10|10,2:2|2:2,0:0:0:0:
345,350,78317,2,0,P|377:342|409:337,1,66.0000020141602,10|8,2:2|2:2,0:0:0:0:
462,314,78722,5,8,2:2:0:0:
462,314,78924,1,8,2:2:0:0:
462,314,79127,2,0,P|464:260|400:237,1,120,6|8,3:2|2:2,0:0:0:0:
356,126,79938,2,0,P|363:93|367:68,2,60,2|2|10,3:2|3:2|2:2,0:0:0:0:
301,140,80546,1,2,2:2:0:0:
301,140,80749,2,0,P|267:148|242:152,1,60,2|2,3:2|2:2,0:0:0:0:
203,198,81155,1,10,2:2:0:0:
126,290,81560,2,0,P|92:283|67:279,1,60,2|2,3:2|3:2,0:0:0:0:
8,266,81966,1,8,2:2:0:0:
26,147,82371,6,0,P|37:88|95:74,1,120,2|8,3:2|2:2,0:0:0:0:
200,28,83182,2,0,P|234:36|259:40,1,60,2|0,3:2|0:0,0:0:0:0:
314,21,83586,1,8,2:2:0:0:
360,59,83789,1,6,3:2:0:0:
327,177,84195,1,2,3:2:0:0:
327,177,84397,2,0,P|293:185|268:189,1,60,8|0,2:2|3:3,0:0:0:0:
210,205,84803,2,0,B|171:178|171:178|128:191,2,90,2|0|2,3:2|3:3|3:2,0:0:0:0:
229,311,85817,6,0,L|336:338,1,107.999996704102,8|4,2:2|2:3,0:0:0:0:
378,367,86425,2,0,L|405:260,1,107.999996704102,8|8,2:2|2:2,0:0:0:0:
456,247,87033,1,6,3:2:0:0:
256,192,87134,12,2,88654,0:0:0:0:
