osu file format v14

[General]
AudioFilename: audio.mp3
AudioLeadIn: 0
PreviewTime: 52523
Countdown: 0
SampleSet: Soft
StackLeniency: 0.8
Mode: 0
LetterboxInBreaks: 0
WidescreenStoryboard: 1

[Editor]
Bookmarks: 480,27033,53181,66154,79127,88857
DistanceSpacing: 0.8
BeatDivisor: 8
GridSize: 32
TimelineZoom: 2.699999

[Metadata]
Title:Seishun Kippu (TV Size)
TitleUnicode:青春切符 (TV Size)
Artist:mafumafu
ArtistUnicode:まふまふ
Creator:Ascended
Version:Kyouren x Mono's Extra
Source:クールドジ男子
Tags:cool doji danshi Play It Cool, Guys clumsy guys anime animation boys japanese pop jpop j-pop jp 0ppinosu kyouren gokugohan12468 kittyadventure Mononymous Addy2607 KaedeharaKazuha opening 1 one
BeatmapID:3896209
BeatmapSetID:1871489

[Difficulty]
HPDrainRate:5
CircleSize:4.2
OverallDifficulty:8.2
ApproachRate:9.2
SliderMultiplier:2
SliderTickRate:1

[Events]
//Background and Video events
Video,-207,"i love anime men.mp4"
0,0,"kyourenbg.jpg",0,0
//Break Periods
//Storyboard Layer 0 (Background)
//Storyboard Layer 1 (Fail)
//Storyboard Layer 2 (Pass)
//Storyboard Layer 3 (Foreground)
//Storyboard Layer 4 (Overlay)
//Storyboard Sound Samples

[TimingPoints]
480,405.405405405405,4,2,1,70,1,0
1290,405.405405405405,4,2,1,70,1,0
1290,-90.9090909090908,4,2,1,70,0,0
9398,-80,4,2,1,70,0,0
9803,-90.9090909090908,4,2,1,70,0,0
14060,-273.972602739726,4,2,1,60,0,0
14465,-117.647058823529,4,2,1,60,0,0
25411,-86.9565217391302,4,2,1,60,0,0
27033,-117.647058823529,4,2,1,65,0,0
27438,-105.263157894737,4,2,1,65,0,0
38384,-80,4,2,1,65,0,0
38789,-80,4,2,1,70,0,0
40208,-117.647058823529,4,2,1,65,0,0
41627,-80,4,2,1,65,0,0
42235,-117.647058823529,4,2,1,65,0,0
45073,-80,4,2,1,65,0,0
46492,-95.2380952380952,4,2,1,70,0,0
50141,-95.2380952380952,4,2,1,65,0,0
51357,-80,4,2,1,70,0,0
53181,-58.8235294117647,4,2,1,80,0,1
53587,-62.5,4,2,1,80,0,1
53891,-66.6666666666667,4,2,1,80,0,1
54803,-62.5,4,2,1,80,0,1
55208,-100,4,2,1,80,0,1
55614,-66.6666666666667,4,2,1,80,0,1
56019,-76.9230769230769,4,2,1,80,0,1
56425,-58.8235294117647,4,2,1,80,0,1
56830,-58.8235294117647,4,2,1,80,0,1
57135,-100,4,2,1,80,0,1
58046,-62.5,4,2,1,80,0,1
58452,-100,4,2,1,80,0,1
58857,-62.5,4,2,1,80,0,1
59263,-62.5,4,2,1,80,0,1
59668,-58.8235294117647,4,2,1,80,0,1
60074,-58.8235294117647,4,2,1,80,0,1
60377,-100,4,2,1,80,0,1
61289,-100,4,2,1,80,0,1
61695,-83.3333333333333,4,2,1,80,0,1
62100,-100,4,2,1,80,0,1
62506,-105.263157894737,4,2,1,80,0,1
62911,-58.8235294117647,4,2,1,80,0,1
63317,-76.9230769230769,4,2,1,80,0,1
63621,-100,4,2,1,80,0,1
64533,-62.5,4,2,1,80,0,1
64938,-100,4,2,1,80,0,1
65344,-133.333333333333,4,2,1,80,0,1
65749,-105.263157894737,4,2,1,80,0,1
66154,-58.8235294117647,4,2,1,80,0,1
66560,-62.5,4,2,1,80,0,1
66864,-66.6666666666667,4,2,1,80,0,1
67776,-62.5,4,2,1,80,0,1
68181,-100,4,2,1,80,0,1
68587,-66.6666666666667,4,2,1,80,0,1
68992,-76.9230769230769,4,2,1,80,0,1
69398,-58.8235294117647,4,2,1,80,0,1
69803,-58.8235294117647,4,2,1,80,0,1
70108,-100,4,2,1,80,0,1
71019,-62.5,4,2,1,80,0,1
71425,-100,4,2,1,80,0,1
71830,-62.5,4,2,1,80,0,1
72236,-62.5,4,2,1,80,0,1
72641,-66.6666666666667,4,2,1,80,0,1
73350,-100,4,2,1,80,0,1
74262,-100,4,2,1,80,0,1
74668,-83.3333333333333,4,2,1,80,0,1
75073,-100,4,2,1,80,0,1
75479,-105.263157894737,4,2,1,80,0,1
75884,-58.8235294117647,4,2,1,80,0,1
76289,-76.9230769230769,4,2,1,80,0,1
76594,-100,4,2,1,80,0,1
77303,-62.5,4,2,1,80,0,1
77911,-83.3333333333333,4,2,1,80,0,1
78722,-105.263157894737,4,2,1,80,0,1
79127,-90.9090909090908,4,2,1,70,0,0
84195,-66.6666666666667,4,2,1,70,0,0
84398,-90.9090909090908,4,2,1,70,0,0
85411,-83.3333333333333,4,2,1,60,0,0
87033,-135.135135135135,4,2,1,70,0,0
88654,-135.135135135135,4,2,1,40,0,0

[Colours]
Combo1 : 98,130,204
Combo2 : 245,227,122

[HitObjects]
100,190,480,5,8,2:2:0:0:
50,165,581,1,8,2:2:0:0:
35,110,682,1,8,2:2:0:0:
65,60,784,1,8,2:2:0:0:
255,5,986,5,8,2:2:0:0:
195,60,1088,2,0,P|201:84|207:108,1,50,8|0,2:2|0:0,0:0:0:0:
280,150,1290,6,0,B|363:139|340:88|424:78,1,165.000005035401,6|0,3:2|0:0,0:0:0:0:
486,12,1695,2,0,P|447:84|425:163,1,165.000005035401,8|2,2:2|2:2,0:0:0:0:
424,163,2100,6,0,L|472:189,1,55.0000016784668,2|0,3:2|0:0,0:0:0:0:
500,265,2303,1,2,3:2:0:0:
280,150,2506,5,10,2:2:0:0:
205,190,2607,2,0,P|202:205|207:194,2,55.0000016784668,2|2|0,0:0|2:2|0:0,0:0:0:0:
279,150,2911,6,0,P|287:95|303:43,1,110.000003356934,2|2,3:2|2:2,0:0:0:0:
230,20,3215,1,0,0:0:0:0:
220,30,3317,2,0,L|166:43,1,55.0000016784668,10|0,2:2|0:0,0:0:0:0:
105,100,3519,1,2,2:2:0:0:
255,265,3722,6,0,L|308:276,1,55.0000016784668,2|0,3:2|0:0,0:0:0:0:
180,300,3925,1,2,3:2:0:0:
280,150,4127,5,8,2:2:0:0:
345,200,4229,2,0,L|398:188,2,55.0000016784668,2|2|0,2:2|2:2|0:0,0:0:0:0:
280,150,4533,6,0,B|192:156|226:205|131:212,1,165.000005035401,2|0,3:2|0:0,0:0:0:0:
55,185,4938,1,8,2:2:0:0:
50,145,5039,1,2,2:2:0:0:
15,115,5141,1,2,2:2:0:0:
10,70,5242,1,10,2:2:0:0:
75,15,5344,6,0,P|129:21|183:31,1,110.000003356934,2|2,3:2|3:2,0:0:0:0:
255,70,5648,1,0,0:0:0:0:
270,60,5749,2,0,P|297:56|324:51,1,55.0000016784668,10|8,2:2|2:2,0:0:0:0:
400,15,5952,6,0,P|409:96|430:176,1,165.000005035401,6|0,3:2|0:0,0:0:0:0:
430,176,6357,1,2,3:2:0:0:
430,176,6458,1,0,3:3:0:0:
497,252,6560,2,0,P|481:304|473:359,1,110.000003356934,10|2,2:2|2:2,0:0:0:0:
473,358,6864,1,8,2:2:0:0:
473,358,6965,6,0,P|448:346|421:339,1,55.0000016784668,0|8,3:3|2:2,0:0:0:0:
360,280,7168,2,0,P|333:287|308:298,1,55.0000016784668,0|0,3:3|0:0,0:0:0:0:
240,350,7371,1,8,2:2:0:0:
190,370,7472,1,0,3:3:0:0:
140,355,7573,1,0,3:3:0:0:
120,305,7675,1,0,3:3:0:0:
170,240,7776,6,0,P|156:158|126:82,1,165.000005035401,6|0,3:2|0:0,0:0:0:0:
220,55,8181,2,0,P|233:136|263:212,1,165.000005035401,8|2,2:2|2:2,0:0:0:0:
345,195,8587,6,0,L|408:208,1,55.0000016784668,2|0,3:2|0:0,0:0:0:0:
398,206,8789,1,2,3:2:0:0:
430,350,8992,5,10,2:2:0:0:
380,285,9094,2,0,L|326:273,2,55.0000016784668,2|2|0,0:0|2:2|0:0,0:0:0:0:
485,285,9398,6,0,P|397:317|313:359,1,187.5,2|0,3:2|0:0,0:0:0:0:
230,360,9803,2,0,P|211:308|190:257,1,110.000003356934,10|2,2:2|2:2,0:0:0:0:
190,257,10107,1,0,0:0:0:0:
120,220,10208,6,0,L|67:236,1,55.0000016784668,2|0,3:2|0:0,0:0:0:0:
159,149,10411,1,2,3:2:0:0:
45,70,10614,6,0,L|97:86,1,55.0000016784668,8|2,2:2|2:2,0:0:0:0:
159,149,10817,2,0,L|211:165,1,55.0000016784668,2|0,2:2|0:0,0:0:0:0:
285,125,11019,6,0,B|372:116|358:79|439:73,1,165.000005035401,2|0,3:2|0:0,0:0:0:0:
335,20,11425,1,8,2:2:0:0:
347,73,11526,1,2,2:2:0:0:
366,124,11627,1,2,2:2:0:0:
397,176,11729,1,10,2:2:0:0:
397,176,11830,5,2,3:2:0:0:
340,235,11931,2,0,P|314:224|288:216,2,55.0000016784668,8|0|2,2:2|0:0|2:2,0:0:0:0:
220,265,12235,2,0,P|211:291|201:316,1,55.0000016784668,8|0,2:2|0:0,0:0:0:0:
250,380,12438,6,0,P|173:348|94:324,1,165.000005035401,6|0,3:2|0:0,0:0:0:0:
40,265,12844,2,0,P|50:239|58:213,1,55.0000016784668,2|0,3:2|0:0,0:0:0:0:
57,213,13046,5,8,2:2:0:0:
40,170,13148,1,8,2:2:0:0:
80,130,13249,1,0,3:3:0:0:
20,20,13452,6,0,L|74:28,1,55.0000016784668,2|0,3:2|0:0,0:0:0:0:
155,55,13756,6,0,L|209:46,1,55.0000016784668,0|0,3:3|0:0,0:0:0:0:
285,15,14060,6,0,L|339:23,1,55.0000016784668,4|0,3:2|0:0,0:0:0:0:
339,23,14465,1,2,2:2:0:0:
450,160,14668,1,2,3:2:0:0:
275,195,14871,1,2,2:2:0:0:
309,269,15073,6,0,P|351:276|393:287,1,85.0000016212464,2|0,3:2|0:0,0:0:0:0:
195,175,15479,2,0,P|154:188|113:200,1,85.0000016212464,0|2,3:3|2:2,0:0:0:0:
343,26,15884,6,0,P|323:63|309:103,1,85.0000016212464,0|2,3:3|2:2,0:0:0:0:
275,195,16289,1,2,3:2:0:0:
195,65,16492,1,2,2:2:0:0:
114,200,16695,2,0,P|155:188|197:174,1,85.0000016212464,0|2,3:3|2:2,0:0:0:0:
355,170,17100,1,2,3:2:0:0:
360,330,17303,1,2,2:2:0:0:
200,335,17506,6,0,P|160:319|119:306,1,85.0000016212464,0|2,3:3|2:2,0:0:0:0:
355,170,17911,2,0,P|394:185|435:198,1,85.0000016212464,2|2,3:2|2:2,0:0:0:0:
255,15,18317,2,0,L|265:99,1,85.0000016212464,2|2,3:2|2:2,0:0:0:0:
114,200,18722,1,2,3:2:0:0:
50,50,18925,1,2,2:2:0:0:
105,115,19127,6,0,L|189:125,1,85.0000016212464,2|2,3:2|0:0,0:0:0:0:
355,170,19533,2,0,L|439:180,1,85.0000016212464,2|2,3:2|2:2,0:0:0:0:
490,240,19837,1,0,0:0:0:0:
495,245,19938,2,0,L|502:329,1,85.0000016212464,2|0,3:2|0:0,0:0:0:0:
435,365,20242,1,2,2:2:0:0:
430,360,20344,2,0,L|422:275,1,85.0000016212464,0|2,3:3|2:2,0:0:0:0:
240,190,20749,6,0,L|229:274,1,85.0000016212464,0|2,3:3|2:2,0:0:0:0:
105,330,21154,1,2,3:2:0:0:
114,200,21357,1,2,2:2:0:0:
229,274,21560,6,0,L|313:284,1,85.0000016212464,2|0,3:2|0:0,0:0:0:0:
455,185,21965,1,0,3:3:0:0:
310,80,22168,1,2,2:2:0:0:
365,220,22371,6,0,L|375:136,1,85.0000016212464,0|2,3:3|2:2,0:0:0:0:
235,25,22776,2,0,L|225:109,1,85.0000016212464,2|2,3:2|2:2,0:0:0:0:
224,109,23181,1,0,3:3:0:0:
55,195,23384,1,2,2:2:0:0:
5,135,23587,1,2,3:2:0:0:
50,70,23789,1,2,2:2:0:0:
265,205,23992,6,0,L|349:215,1,85.0000016212464,0|2,3:3|2:2,0:0:0:0:
165,335,24398,1,2,3:2:0:0:
250,370,24600,2,0,L|240:286,2,85.0000016212464,2|0|2,2:2|3:3|2:2,0:0:0:0:
265,205,25208,6,0,L|261:162,1,42.5000008106232,8|0,2:2|0:0,0:0:0:0:
185,220,25411,6,0,B|278:211|240:154|335:146,1,172.500003290176,6|0,3:2|0:0,0:0:0:0:
390,90,25817,2,0,L|397:33,1,57.5000010967255,8|0,2:2|0:0,0:0:0:0:
410,25,26019,1,8,2:2:0:0:
185,220,26222,6,0,L|177:163,1,57.5000010967255,8|0,2:2|0:0,0:0:0:0:
165,155,26425,1,10,2:2:0:0:
340,350,26627,6,0,L|347:293,1,57.5000010967255,2|2,3:2|3:2,0:0:0:0:
415,245,26830,2,0,L|471:252,1,57.5000010967255,10|10,2:2|2:2,0:0:0:0:
265,205,27033,6,0,P|215:206|201:281,1,127.50000243187,6|0,3:2|0:0,0:0:0:0:
209,287,27438,1,2,2:2:0:0:
43,193,27641,2,0,L|136:178,1,94.9999974632264,10|2,2:2|2:2,0:0:0:0:
307,92,28046,6,0,P|282:158|270:229,1,142.49999619484,2|2,3:2|0:0,0:0:0:0:
291,250,28452,2,0,P|343:236|354:195,1,94.9999974632264,10|2,2:2|2:2,0:0:0:0:
209,75,28857,5,0,3:3:0:0:
150,127,29060,1,2,2:2:0:0:
307,92,29262,1,10,2:2:0:0:
307,92,29465,2,0,L|322:-2,1,94.9999974632264,2|0,2:2|3:3,0:0:0:0:
215,65,29871,1,2,2:2:0:0:
374,144,30073,1,8,2:2:0:0:
263,207,30276,5,2,2:2:0:0:
263,207,30479,2,0,L|170:184,1,94.9999974632264,2|2,3:2|2:2,0:0:0:0:
113,129,30884,1,10,2:2:0:0:
224,285,31087,2,0,P|268:253|270:206,1,94.9999974632264,2|0,2:2|3:3,0:0:0:0:
122,117,31492,1,2,2:2:0:0:
80,210,31695,1,10,2:2:0:0:
213,115,31898,6,0,L|310:140,1,94.9999974632264,2|2,2:2|3:2,0:0:0:0:
371,180,32303,1,2,2:2:0:0:
482,46,32506,1,10,2:2:0:0:
389,8,32708,2,0,P|400:53|413:99,1,94.9999974632264,2|2,2:2|3:2,0:0:0:0:
506,215,33114,1,0,3:3:0:0:
506,215,33215,1,10,2:2:0:0:
506,215,33317,1,0,3:0:0:0:
378,299,33519,6,0,B|323:287|323:287|304:268|304:268|245:255,1,142.49999619484,6|0,3:2|0:0,0:0:0:0:
229,242,33925,1,2,2:2:0:0:
117,365,34127,2,0,L|219:339,1,94.9999974632264,10|2,2:2|2:2,0:0:0:0:
73,251,34533,2,0,P|11:280|5:348,1,142.49999619484,2|2,3:2|0:0,0:0:0:0:
33,361,34938,1,10,2:2:0:0:
154,279,35141,6,0,L|140:181,1,94.9999974632264,2|0,2:2|3:3,0:0:0:0:
88,10,35546,1,2,2:2:0:0:
26,51,35749,1,10,2:2:0:0:
207,131,35952,2,0,P|164:109|117:102,1,94.9999974632264,2|0,2:2|3:3,0:0:0:0:
12,167,36357,1,2,2:2:0:0:
97,16,36560,1,8,2:2:0:0:
215,135,36762,6,0,B|203:189|203:189|184:208|184:208|171:267,1,142.49999619484,2|0,2:2|0:0,0:0:0:0:
157,283,37168,1,2,2:2:0:0:
317,370,37371,2,0,L|218:353,1,94.9999974632264,10|2,2:2|2:2,0:0:0:0:
346,214,37776,1,0,3:3:0:0:
411,251,37979,1,2,2:2:0:0:
304,298,38181,2,0,B|293:285|287:283|287:283|300:279|310:289,1,47.4999987316132,8|2,2:2|2:2,0:0:0:0:
471,373,38384,6,0,P|478:303|509:189,1,187.5,6|0,3:2|0:0,0:0:0:0:
466,129,38789,2,0,P|443:120|408:137,1,62.5,8|0,2:2|0:0,0:0:0:0:
273,207,38992,2,0,P|257:197|281:200,1,62.5,8|0,2:2|0:0,0:0:0:0:
325,292,39195,2,0,P|349:286|367:252,1,62.5,8|0,2:2|0:0,0:0:0:0:
133,182,39398,6,0,L|147:250,1,62.5,10|0,2:2|0:0,0:0:0:0:
174,366,39600,1,2,3:2:0:0:
192,370,39702,1,0,3:3:0:0:
196,352,39803,1,10,2:2:0:0:
178,347,39904,1,8,2:2:0:0:
252,282,40006,5,10,2:2:0:0:
249,269,40107,1,8,2:2:0:0:
130,238,40208,6,0,B|198:231|170:189|241:183,1,127.50000243187,6|0,3:2|0:0,0:0:0:0:
267,198,40614,2,0,L|250:290,1,85.0000016212464,8|2,2:2|2:2,0:0:0:0:
104,366,41019,6,0,P|62:361|36:329,1,85.0000016212464,2|0,3:2|0:0,0:0:0:0:
21,303,41323,2,0,P|38:265|78:252,1,85.0000016212464,2|0,3:2|0:0,0:0:0:0:
111,264,41627,6,0,B|127:188|127:188|153:162|153:162|171:81,1,187.5,6|0,3:2|0:0,0:0:0:0:
155,69,42033,1,2,3:2:0:0:
371,184,42235,2,0,P|338:210|297:212,1,85.0000016212464,8|2,2:2|2:2,0:0:0:0:
229,27,42641,1,2,3:2:0:0:
229,27,42742,1,8,2:2:0:0:
229,27,42844,1,2,3:2:0:0:
414,4,43046,1,10,2:2:0:0:
414,4,43148,1,8,2:2:0:0:
414,4,43249,2,0,P|413:32|401:52,1,42.5000008106232,2|0,3:2|0:0,0:0:0:0:
283,126,43452,6,0,P|285:186|341:165,1,127.50000243187,6|0,3:2|0:0,0:0:0:0:
347,166,43857,2,0,L|441:182,1,85.0000016212464,14|0,2:2|0:0,0:0:0:0:
497,256,44161,1,0,0:0:0:0:
497,256,44262,2,0,L|403:272,1,85.0000016212464,6|0,3:2|0:0,0:0:0:0:
321,305,44567,1,0,3:3:0:0:
317,324,44668,1,10,2:2:0:0:
325,347,44769,1,8,2:2:0:0:
346,360,44871,1,2,3:2:0:0:
372,359,44972,1,0,3:3:0:0:
461,343,45073,6,0,P|454:290|404:161,1,187.5,6|0,3:2|0:0,0:0:0:0:
340,131,45479,2,0,P|326:75|380:59,1,125,14|2,2:2|0:0,0:0:0:0:
312,209,45884,5,6,3:2:0:0:
312,209,45985,1,8,2:2:0:0:
312,209,46087,2,0,P|268:216|240:226,1,62.5,0|0,3:3|0:0,0:0:0:0:
69,295,46289,2,0,P|61:275|78:292,1,62.5,10|0,2:2|0:0,0:0:0:0:
153,345,46492,6,0,P|170:270|129:204,1,157.499995193482,4|0,3:2|0:0,0:0:0:0:
113,210,46898,1,2,3:2:0:0:
348,295,47100,2,0,L|245:317,1,104.999996795654,10|0,2:2|0:0,0:0:0:0:
136,119,47506,1,2,3:2:0:0:
217,181,47708,1,2,3:2:0:0:
31,295,47911,5,10,2:2:0:0:
31,295,48114,2,0,P|28:237|3:141,1,157.499995193482,2|0,2:2|0:0,0:0:0:0:
14,120,48519,1,2,3:2:0:0:
106,195,48722,1,10,2:2:0:0:
240,98,48925,2,0,B|187:87|187:87|146:127,1,104.999996795654,2|0,2:2|3:3,0:0:0:0:
96,201,49330,1,2,3:2:0:0:
0,31,49533,2,0,L|107:55,1,104.999996795654,10|2,2:2|2:2,0:0:0:0:
250,109,49938,5,6,3:2:0:0:
312,68,50141,1,0,3:3:0:0:
174,7,50344,5,8,2:2:0:0:
174,7,50445,2,0,L|186:62,1,52.4999983978272,0|0,3:3|0:0,0:0:0:0:
238,160,50648,5,8,2:2:0:0:
238,160,50749,2,0,L|250:105,1,52.4999983978272,0|0,3:3|0:0,0:0:0:0:
165,67,50952,5,8,2:2:0:0:
123,67,51053,1,0,3:3:0:0:
93,97,51154,1,0,3:3:0:0:
105,137,51256,1,0,3:0:0:0:
168,220,51357,6,0,B|270:210|228:147|330:138,1,187.5,4|0,2:2|0:0,0:0:0:0:
397,165,51762,2,0,P|402:196|390:225,1,62.5,8|0,2:2|0:0,0:0:0:0:
284,307,51965,2,0,P|272:294|295:303,1,62.5,8|0,2:2|0:0,0:0:0:0:
441,362,52168,2,0,L|379:371,1,62.5,8|0,2:2|0:0,0:0:0:0:
180,340,52573,5,2,0:0:0:0:
185,335,52776,5,2,0:0:0:0:
185,345,52979,5,2,0:0:0:0:
60,200,53181,6,0,B|7:156|48:75|138:83|145:155|145:155|135:179|136:193,1,255.000004863739,6|0,3:2|0:0,0:0:0:0:
215,195,53587,2,0,B|222:151|280:148|305:200|267:227|267:227|254:229|246:233,1,160,10|0,2:2|0:0,0:0:0:0:
245,233,53891,1,2,2:2:0:0:
245,233,53992,5,2,3:2:0:0:
345,305,54195,1,2,3:2:0:0:
470,261,54398,1,10,2:2:0:0:
475,135,54600,1,2,2:2:0:0:
255,15,54803,6,0,B|195:101|139:71|147:20|197:10|233:40|236:86|276:93,1,240,2|0,3:2|0:0,0:0:0:0:
340,140,55208,2,0,B|377:194|413:175|408:143|376:136|353:155|352:184|326:189,1,150,10|0,2:2|0:0,0:0:0:0:
250,210,55614,6,0,B|231:237|213:227|216:211|232:208|243:217|244:232|257:234,1,75.0000028610231,2|0,3:2|0:0,0:0:0:0:
320,285,55817,2,0,B|338:312|356:302|354:286|338:283|326:292|326:307|312:309,1,75.0000028610231,0|0,3:3|0:0,0:0:0:0:
257,368,56019,6,0,P|282:274|328:188,1,194.999991073609,10|0,2:2|0:0,0:0:0:0:
450,130,56425,6,0,P|348:168|345:59,1,255.000004863739,2|0,3:2|0:0,0:0:0:0:
415,15,56830,6,0,B|502:64|502:64|477:45|437:46,1,170.000003242493,10|0,2:2|0:0,0:0:0:0:
285,10,57134,5,0,0:0:0:0:
230,65,57235,2,0,P|182:62|162:104,2,100,2|2|10,3:2|3:2|2:2,0:0:0:0:
69,279,57844,1,2,2:2:0:0:
20,215,58046,6,0,P|23:176|53:152,1,80,2|0,3:2|0:0,0:0:0:0:
148,272,58249,2,0,P|177:246|216:251,1,80,0|0,3:3|0:0,0:0:0:0:
45,355,58452,1,10,2:2:0:0:
270,190,58756,5,8,0:0:0:0:
320,250,58857,2,0,P|349:276|388:271,2,80,2|8|0,3:2|2:2|3:3,0:0:0:0:
465,240,59262,6,0,P|477:202|492:165,1,80,10|8,2:2|2:2,0:0:0:0:
451,319,59465,1,0,3:3:0:0:
270,190,59668,6,0,B|200:295|200:295|89:230,1,255.000004863739,6|0,3:2|0:0,0:0:0:0:
115,150,60073,2,0,B|151:72|151:72|214:127,1,170.000003242493,10|0,2:2|0:0,0:0:0:0:
214,127,60377,1,0,0:0:0:0:
214,127,60479,5,2,3:2:0:0:
320,250,60681,1,2,3:2:0:0:
443,144,60884,1,10,2:2:0:0:
335,20,61087,1,2,2:2:0:0:
340,25,61289,6,0,B|348:108|298:83|308:167,1,150,2|0,3:2|0:0,0:0:0:0:
320,250,61695,2,0,P|230:259|145:288,1,179.999994506836,10|0,2:2|0:0,0:0:0:0:
70,255,62100,6,0,P|58:232|57:208,1,50,2|0,3:2|0:0,0:0:0:0:
15,140,62303,2,0,P|22:116|39:97,1,50,0|2,3:3|2:2,0:0:0:0:
115,70,62506,1,8,2:2:0:0:
308,167,62708,5,2,2:2:0:0:
375,115,62911,2,0,P|481:148|497:37,1,255.000004863739,6|0,3:2|0:0,0:0:0:0:
425,10,63317,2,0,P|331:37|234:50,1,194.999991073609,8|8,2:2|2:2,0:0:0:0:
145,25,63722,1,4,2:3:0:0:
115,70,63823,1,4,2:3:0:0:
155,100,63925,1,0,3:3:0:0:
130,180,64127,6,0,L|80:189,1,50,8|0,2:2|0:0,0:0:0:0:
8,162,64330,6,0,L|200:216,1,200,4|0,3:2|3:3,0:0:0:0:
200,216,64837,1,0,3:3:0:0:
200,216,64938,1,8,2:2:0:0:
365,65,65141,5,8,2:2:0:0:
300,20,65242,1,8,2:2:0:0:
255,85,65344,2,0,L|261:121,2,37.5000014305115,0|8|2,3:0|2:2|3:2,0:0:0:0:
505,195,65749,5,10,2:2:0:0:
457,199,65850,1,0,3:3:0:0:
413,215,65952,1,2,3:2:0:0:
374,242,66053,1,0,3:3:0:0:
375,323,66154,6,0,B|353:331|319:325|290:295|287:259|287:259|281:225|263:195|223:181|190:196,1,255.000004863739,6|0,3:2|0:0,0:0:0:0:
213,262,66560,2,0,B|226:267|247:263|265:244|267:222|267:222|271:201|282:182|307:173|328:183,1,160,10|0,2:2|0:0,0:0:0:0:
374,242,66864,1,2,2:2:0:0:
374,242,66965,5,2,3:2:0:0:
337,111,67168,1,2,3:2:0:0:
210,62,67371,1,10,2:2:0:0:
102,142,67573,1,2,2:2:0:0:
230,374,67776,6,0,B|286:333|289:283|266:260|266:260|261:288|251:327|213:349,1,240,2|0,3:2|0:0,0:0:0:0:
186,270,68181,2,0,B|149:244|148:211|162:196|162:196|165:215|172:239|196:254,1,150,10|0,2:2|0:0,0:0:0:0:
253,183,68587,6,0,B|271:170|271:154|264:147|264:147|262:156|259:168|247:175,1,75.0000028610231,2|0,3:2|0:0,0:0:0:0:
198,123,68789,2,0,B|179:110|179:94|186:87|186:87|188:96|191:108|203:115,1,75.0000028610231,2|0,3:2|0:0,0:0:0:0:
243,35,68992,6,0,P|334:71|439:63,1,194.999991073609,10|0,2:2|0:0,0:0:0:0:
477,0,69398,6,0,P|516:70|464:146,1,170.000003242493,2|0,3:2|0:0,0:0:0:0:
365,198,69702,5,0,0:0:0:0:
311,143,69803,2,0,P|238:162|146:193,1,170.000003242493,10|0,2:2|0:0,0:0:0:0:
36,253,70107,5,2,2:2:0:0:
53,331,70208,2,0,P|97:309|114:263,2,100,2|2|10,3:2|3:2|2:2,0:0:0:0:
24,156,70817,5,2,2:2:0:0:
229,257,71019,2,0,B|291:274|291:274|308:298|308:298|371:317,1,160,2|2,3:2|3:2,0:0:0:0:
470,213,71323,5,0,0:0:0:0:
462,203,71425,2,0,P|415:193|385:230,1,100,10|0,2:2|0:0,0:0:0:0:
433,369,71729,5,8,0:0:0:0:
499,351,71830,2,0,P|504:311|512:272,2,80,2|8|0,3:2|2:2|3:3,0:0:0:0:
261,105,72235,5,8,2:2:0:0:
231,130,72337,1,8,2:2:0:0:
238,167,72438,2,0,P|274:180|317:197,1,80,0|0,3:3|0:0,0:0:0:0:
505,33,72641,6,0,P|413:48|278:81,1,225.000008583069,6|0,3:2|0:0,0:0:0:0:
231,130,73046,2,0,P|207:62|253:7,1,150.000005722046,8|2,2:2|2:2,0:0:0:0:
475,171,73452,6,0,P|471:195|460:217,1,50,0|0,3:3|0:0,0:0:0:0:
374,117,73654,2,0,P|389:136|396:160,1,50,0|0,3:3|0:0,0:0:0:0:
461,88,73857,1,8,2:2:0:0:
317,170,74060,2,0,L|330:231,1,50,2|2,2:2|2:2,0:0:0:0:
405,361,74262,6,0,B|424:341|424:341|347:358,1,100,2|0,3:2|0:0,0:0:0:0:
239,300,74567,5,0,0:0:0:0:
231,311,74668,2,0,L|241:374,1,59.9999981689454,10|0,2:2|0:0,0:0:0:0:
148,381,74871,2,0,P|81:351|85:307,1,119.999996337891,2|0,2:2|3:3,0:0:0:0:
190,167,75276,6,0,P|188:151|168:120,1,50,2|0,3:2|0:0,0:0:0:0:
44,68,75479,2,0,P|34:50|54:52,1,47.4999987316132,10|0,2:2|0:0,0:0:0:0:
103,128,75681,1,2,2:2:0:0:
237,28,75884,6,0,B|258:19|293:25|322:55|325:91|325:91|330:126|349:156|390:171|423:155,1,255.000004863739,4|0,3:2|0:0,0:0:0:0:
497,107,76289,2,0,P|467:54|407:65,1,129.999994049073,8|0,2:2|3:3,0:0:0:0:
250,99,76594,5,0,3:3:0:0:
237,125,76695,1,4,2:3:0:0:
251,151,76796,1,4,2:3:0:0:
278,159,76898,1,0,3:3:0:0:
197,234,77100,1,8,2:2:0:0:
320,372,77303,6,0,P|337:254|377:141,1,240,6|0,2:2|0:0,0:0:0:0:
396,130,77708,1,10,2:2:0:0:
197,234,77911,6,0,P|172:229|149:195,1,59.9999981689454,10|0,2:2|0:0,0:0:0:0:
86,115,78114,2,0,P|66:118|89:125,1,59.9999981689454,10|0,2:2|0:0,0:0:0:0:
221,87,78317,6,0,L|233:26,1,59.9999981689454,10|0,2:2|0:0,0:0:0:0:
77,207,78519,2,0,L|89:268,1,59.9999981689454,8|0,2:2|0:0,0:0:0:0:
187,346,78722,5,8,2:2:0:0:
206,328,78823,1,8,2:2:0:0:
238,341,78925,1,8,2:2:0:0:
257,323,79026,1,8,2:2:0:0:
320,372,79127,6,0,P|391:332|473:333,1,165.000005035401,6|0,3:2|0:0,0:0:0:0:
485,260,79533,2,0,P|411:288|403:366,1,165.000005035401,8|2,2:2|2:2,0:0:0:0:
473,333,79938,6,0,B|500:342|500:342|468:341,1,55.0000016784668,2|0,3:2|0:0,0:0:0:0:
330,260,80141,1,2,3:2:0:0:
454,164,80344,5,10,2:2:0:0:
505,100,80445,2,0,P|510:73|517:46,2,55.0000016784668,2|2|0,0:0|2:2|0:0,0:0:0:0:
454,164,80749,6,0,P|400:152|346:142,1,110.000003356934,2|2,3:2|2:2,0:0:0:0:
346,142,81053,1,0,0:0:0:0:
260,130,81154,2,0,P|266:156|271:183,1,55.0000016784668,10|0,2:2|0:0,0:0:0:0:
225,255,81357,1,2,2:2:0:0:
260,130,81560,6,0,P|266:156|271:183,1,55.0000016784668,2|0,3:2|0:0,0:0:0:0:
145,240,81762,1,2,3:2:0:0:
250,330,81965,5,8,2:2:0:0:
260,335,82067,2,0,P|286:328|313:323,2,55.0000016784668,2|2|0,2:2|2:2|0:0,0:0:0:0:
175,365,82371,6,0,B|80:358|114:309|26:303,1,165.000005035401,2|0,3:2|0:0,0:0:0:0:
145,240,82776,1,8,2:2:0:0:
132,206,82877,1,2,2:2:0:0:
100,190,82979,1,2,2:2:0:0:
67,202,83080,1,10,2:2:0:0:
10,150,83181,5,2,3:2:0:0:
60,85,83283,2,0,L|54:30,2,55.0000016784668,8|0|2,2:2|0:0|2:2,0:0:0:0:
135,115,83587,2,0,L|189:120,1,55.0000016784668,8|0,2:2|0:0,0:0:0:0:
250,65,83789,6,0,B|337:74|311:111|404:117,1,165.000005035401,6|0,3:2|0:0,0:0:0:0:
475,80,84195,2,0,B|493:73|499:52|499:52|485:62|465:66,1,75.0000028610231,2|0,3:2|0:0,0:0:0:0:
320,120,84398,5,8,2:2:0:0:
342,170,84499,1,8,2:2:0:0:
357,223,84600,1,0,3:3:0:0:
365,277,84702,1,0,3:3:0:0:
425,335,84803,6,0,L|478:346,1,55.0000016784668,2|0,3:2|0:0,0:0:0:0:
245,345,85107,6,0,L|298:333,1,55.0000016784668,0|0,3:3|0:0,0:0:0:0:
99,359,85411,6,0,L|128:365,1,29.9999990844727,2|0,3:2|0:0,0:0:0:0:
245,345,85715,5,0,3:3:0:0:
190,285,85817,2,0,P|182:256|170:228,1,59.9999981689454,8|8,2:2|2:2,0:0:0:0:
269,133,86019,2,0,P|257:160|249:189,1,59.9999981689454,0|0,3:3|3:3,0:0:0:0:
99,199,86222,5,4,2:3:0:0:
99,199,86425,2,0,P|91:170|79:142,1,59.9999981689454,8|8,2:2|2:2,0:0:0:0:
250,0,86627,2,0,P|238:27|230:56,1,59.9999981689454,0|0,3:3|3:3,0:0:0:0:
399,209,86830,5,8,2:2:0:0:
399,209,87033,2,0,B|332:177|230:252|292:375|386:365|429:344|469:276|416:218|416:218|489:125|489:125|514:140|514:140|512:76|512:76|458:104|458:104,1,666.000016259766,6|0,3:2|0:0,0:0:0:0:
