osu file format v14

[General]
AudioFilename: audio.mp3
AudioLeadIn: 0
PreviewTime: 52523
Countdown: 0
SampleSet: Soft
StackLeniency: 0.3
Mode: 0
LetterboxInBreaks: 0
WidescreenStoryboard: 1

[Editor]
Bookmarks: 480,14060,40208,66154,88857
DistanceSpacing: 1
BeatDivisor: 4
GridSize: 32
TimelineZoom: 2.699999

[Metadata]
Title:Seishun Kippu (TV Size)
TitleUnicode:青春切符 (TV Size)
Artist:mafumafu
ArtistUnicode:まふまふ
Creator:Ascended
Version:KaedeharaKyouren's Insane
Source:クールドジ男子
Tags:cool doji danshi Play It Cool, Guys clumsy guys anime animation boys japanese pop jpop j-pop jp 0ppinosu kyouren gokugohan12468 kittyadventure Mononymous Addy2607 KaedeharaKazuha opening 1 one
BeatmapID:3931938
BeatmapSetID:1871489

[Difficulty]
HPDrainRate:4.2
CircleSize:3.8
OverallDifficulty:8
ApproachRate:8.5
SliderMultiplier:2
SliderTickRate:1

[Events]
//Background and Video events
Video,-207,"i love anime men.mp4"
0,0,"kyourenbg.jpg",0,0
//Break Periods
//Storyboard Layer 0 (Background)
//Storyboard Layer 1 (Fail)
//Storyboard Layer 2 (Pass)
//Storyboard Layer 3 (Foreground)
//Storyboard Layer 4 (Overlay)
//Storyboard Sound Samples

[TimingPoints]
480,405.405405405405,4,2,1,70,1,0
1290,405.405405405405,4,2,1,70,1,0
1290,-100,4,2,1,70,0,0
1898,-100,4,2,1,70,0,0
13452,-285.714285714286,4,2,1,70,0,0
14060,-285.714285714286,4,2,1,60,0,0
14465,-133.333333333333,4,2,1,60,0,0
26425,-105.263157894737,4,2,1,60,0,0
27033,-117.647058823529,4,2,1,65,0,0
38384,-100,4,2,1,65,0,0
38789,-100,4,2,1,70,0,0
40208,-133.333333333333,4,2,1,65,0,0
46492,-133.333333333333,4,2,1,70,0,0
50141,-133.333333333333,4,2,1,65,0,0
51357,-133.333333333333,4,2,1,70,0,0
53181,-100,4,2,1,80,0,1
53587,-100,4,2,1,80,0,1
53891,-100,4,2,1,80,0,1
54803,-100,4,2,1,80,0,1
55208,-100,4,2,1,80,0,1
55614,-100,4,2,1,80,0,1
56019,-100,4,2,1,80,0,1
56425,-100,4,2,1,80,0,1
56830,-100,4,2,1,80,0,1
58046,-100,4,2,1,80,0,1
58451,-100,4,2,1,80,0,1
58857,-100,4,2,1,80,0,1
59262,-100,4,2,1,80,0,1
59668,-100,4,2,1,80,0,1
60073,-100,4,2,1,80,0,1
61289,-100,4,2,1,80,0,1
62100,-100,4,2,1,80,0,1
62911,-100,4,2,1,80,0,1
66153,-100,4,2,1,80,0,1
66559,-105.263157894737,4,2,1,80,0,1
66863,-100,4,2,1,80,0,1
67775,-100,4,2,1,80,0,1
68180,-100,4,2,1,80,0,1
68586,-100,4,2,1,80,0,1
68991,-100,4,2,1,80,0,1
69397,-100,4,2,1,80,0,1
69802,-100,4,2,1,80,0,1
70106,-100,4,2,1,80,0,1
71018,-90.9090909090909,4,2,1,80,0,1
71423,-90.9090909090909,4,2,1,80,0,1
71829,-90.9090909090909,4,2,1,80,0,1
72234,-90.9090909090909,4,2,1,80,0,1
72640,-100,4,2,1,80,0,1
73045,-100,4,2,1,80,0,1
74261,-100,4,2,1,80,0,1
75072,-100,4,2,1,80,0,1
75883,-100,4,2,1,80,0,1
77506,-100,4,2,1,80,0,1
79127,-100,4,2,1,70,0,0
84803,-333.333333333333,4,2,1,70,0,0
85411,-200,4,2,1,60,0,0
87033,-200,4,2,1,70,0,0
88654,-200,4,2,1,40,0,0

[Colours]
Combo1 : 98,130,204
Combo2 : 245,227,122

[HitObjects]
30,190,480,6,0,L|20:140,1,50,8|8,2:2|2:2,0:0:0:0:
60,70,682,2,0,L|50:20,1,50,8|8,2:2|2:2,0:0:0:0:
255,35,986,5,8,2:2:0:0:
222,37,1088,1,8,2:2:0:0:
201,61,1189,1,8,0:0:0:0:
204,94,1290,6,0,B|287:99|263:138|342:142,1,150,6|0,3:2|0:0,0:0:0:0:
415,95,1695,2,0,P|418:47|379:19,1,100,8|2,2:2|2:2,0:0:0:0:
240,200,2100,2,0,P|250:248|256:298,1,100,2|2,3:2|3:2,0:0:0:0:
415,360,2506,1,10,2:2:0:0:
420,340,2607,1,2,0:0:0:0:
425,320,2708,1,2,2:2:0:0:
165,260,2911,5,2,3:2:0:0:
85,290,3114,1,2,2:2:0:0:
15,240,3317,1,10,2:2:0:0:
42,162,3519,1,2,2:2:0:0:
42,162,3621,1,2,0:0:0:0:
42,162,3722,2,0,P|54:113|63:64,1,100,2|2,3:2|3:2,0:0:0:0:
105,80,4026,1,2,0:0:0:0:
155,55,4127,2,0,P|152:30|148:5,2,50,8|2|2,2:2|2:2|2:2,0:0:0:0:
240,200,4533,6,0,B|313:194|305:156|379:150,1,150,2|0,3:2|0:0,0:0:0:0:
410,135,4938,1,8,2:2:0:0:
430,85,5039,1,2,2:2:0:0:
400,45,5141,1,2,2:2:0:0:
360,40,5242,1,10,2:2:0:0:
320,65,5344,5,2,3:2:0:0:
370,235,5546,1,2,3:2:0:0:
200,285,5749,1,10,2:2:0:0:
200,285,5850,1,8,2:2:0:0:
200,285,5952,6,0,B|127:279|135:241|60:235,1,150,6|0,3:2|0:0,0:0:0:0:
60,235,6357,1,2,3:2:0:0:
170,130,6560,2,0,L|174:80,2,50,10|0|2,2:2|0:0|2:2,0:0:0:0:
180,150,6864,5,8,2:2:0:0:
230,145,6965,1,0,3:3:0:0:
280,140,7067,1,8,2:2:0:0:
330,135,7168,1,0,3:3:0:0:
490,245,7371,5,8,2:2:0:0:
477,292,7472,1,0,3:3:0:0:
442,327,7573,1,0,3:3:0:0:
394,339,7675,1,0,3:3:0:0:
347,324,7776,6,0,B|274:318|282:280|207:274,1,150,6|0,3:2|0:0,0:0:0:0:
145,325,8181,2,0,P|95:330|46:342,1,100,8|2,2:2|2:2,0:0:0:0:
150,210,8587,2,0,P|144:160|132:111,1,100,2|2,3:2|3:2,0:0:0:0:
255,5,8992,1,10,2:2:0:0:
285,30,9094,1,2,0:0:0:0:
325,15,9195,1,2,2:2:0:0:
255,190,9398,5,2,3:2:0:0:
335,175,9600,1,2,2:2:0:0:
415,160,9803,1,10,2:2:0:0:
477,292,10006,5,2,2:2:0:0:
477,292,10107,1,0,0:0:0:0:
477,292,10208,2,0,P|428:280|379:271,1,100,2|2,3:2|3:2,0:0:0:0:
340,285,10512,1,2,0:0:0:0:
300,300,10614,2,0,L|292:349,2,50,8|2|2,2:2|2:2|2:2,0:0:0:0:
255,190,11019,6,0,B|182:184|190:146|116:140,1,150,2|0,3:2|0:0,0:0:0:0:
50,190,11425,2,0,L|56:239,3,50,8|2|2|10,2:2|2:2|2:2|2:2,0:0:0:0:
124,299,11830,5,2,3:2:0:0:
124,299,11931,1,8,2:2:0:0:
259,194,12134,1,0,0:0:0:0:
259,194,12235,1,8,2:2:0:0:
250,105,12438,6,0,P|303:183|397:168,1,200,6|2,3:2|3:2,0:0:0:0:
460,110,13046,1,8,2:2:0:0:
458,85,13148,1,8,2:2:0:0:
456,60,13249,1,0,3:3:0:0:
385,15,13452,6,0,L|332:11,2,52.4999983978272,2|0|4,3:2|3:3|3:2,0:0:0:0:
498,268,14465,5,2,2:2:0:0:
424,317,14668,2,0,P|417:275|407:230,1,75.0000028610231,2|2,3:2|2:2,0:0:0:0:
481,179,15073,2,0,P|488:137|498:92,1,75.0000028610231,2|0,3:2|0:0,0:0:0:0:
489,96,15377,1,2,2:2:0:0:
403,14,15681,6,0,P|390:86|373:165,1,150.000005722046,2|2,2:2|2:2,0:0:0:0:
410,243,16289,1,2,3:2:0:0:
309,101,16492,2,0,P|269:85|213:159,1,150.000005722046,2|2,2:2|2:2,0:0:0:0:
279,210,17100,1,2,3:2:0:0:
165,377,17303,1,2,2:2:0:0:
100,336,17506,6,0,P|56:344|19:353,1,75.0000028610231,0|2,3:3|2:2,0:0:0:0:
58,151,17911,1,2,3:2:0:0:
121,193,18114,2,0,P|129:237|138:274,1,75.0000028610231,2|2,2:2|3:2,0:0:0:0:
275,291,18519,2,0,P|231:299|194:308,1,75.0000028610231,2|2,2:2|3:2,0:0:0:0:
31,235,18925,6,0,P|15:151|-1:81,1,150.000005722046,2|2,2:2|0:0,0:0:0:0:
61,18,19533,1,2,3:2:0:0:
117,97,19735,1,2,2:2:0:0:
238,5,19938,6,0,P|199:27|201:74,1,75.0000028610231,2|0,3:2|0:0,0:0:0:0:
253,100,20242,2,0,P|277:126|273:163,1,75.0000028610231,2|0,2:2|0:0,0:0:0:0:
207,200,20546,6,0,P|277:200|366:230,1,150.000005722046,2|2,2:2|2:2,0:0:0:0:
441,192,21154,2,0,P|446:152|456:115,1,75.0000028610231,2|2,3:2|2:2,0:0:0:0:
364,1,21560,2,0,P|359:41|349:78,1,75.0000028610231,2|0,3:2|0:0,0:0:0:0:
342,80,21864,1,2,2:2:0:0:
422,264,22168,6,0,P|463:306|418:383,1,150.000005722046,2|2,2:2|2:2,0:0:0:0:
354,333,22776,1,2,3:2:0:0:
200,363,22979,2,0,P|264:351|349:343,1,150.000005722046,2|2,2:2|2:2,0:0:0:0:
428,379,23587,1,2,3:2:0:0:
237,280,23789,1,2,2:2:0:0:
284,218,23992,6,0,P|279:170|271:122,1,75.0000028610231,0|2,3:3|2:2,0:0:0:0:
394,27,24398,1,2,3:2:0:0:
313,2,24600,2,0,P|318:50|326:98,1,75.0000028610231,2|0,2:2|3:3,0:0:0:0:
167,79,25006,2,0,P|215:74|263:66,1,75.0000028610231,2|8,2:2|2:2,0:0:0:0:
478,135,25411,6,0,P|419:141|361:150,1,112.500004291535,6|0,3:2|0:0,0:0:0:0:
358,157,25817,1,8,2:2:0:0:
242,70,26019,1,8,2:2:0:0:
403,0,26222,1,8,2:2:0:0:
268,150,26425,6,0,P|273:174|277:197,1,47.4999987316132,10|2,2:2|3:2,0:0:0:0:
427,216,26627,1,2,3:2:0:0:
433,225,26729,2,0,P|428:249|424:272,1,47.4999987316132,2|10,3:2|2:2,0:0:0:0:
333,346,26931,1,10,2:2:0:0:
328,356,27033,6,0,P|271:359|193:380,1,127.50000243187,6|0,3:2|0:0,0:0:0:0:
134,342,27438,2,0,P|126:323|134:294,1,42.5000008106232,2|0,2:2|0:0,0:0:0:0:
203,211,27641,2,0,P|190:227|161:235,1,42.5000008106232,10|0,2:2|0:0,0:0:0:0:
56,217,27844,2,0,P|76:219|97:241,1,42.5000008106232,2|0,2:2|0:0,0:0:0:0:
263,270,28046,2,0,P|256:211|246:128,1,127.50000243187,2|2,3:2|0:0,0:0:0:0:
237,139,28452,1,10,2:2:0:0:
329,9,28654,6,0,P|366:55|430:15,1,127.50000243187,2|0,2:2|0:0,0:0:0:0:
424,20,29060,1,2,2:2:0:0:
501,81,29262,1,10,2:2:0:0:
376,183,29465,2,0,P|369:134|362:95,1,85.0000016212464,2|0,2:2|3:3,0:0:0:0:
510,271,29871,1,2,2:2:0:0:
446,323,30073,1,8,2:2:0:0:
377,284,30276,6,0,P|301:294|240:305,1,127.50000243187,2|0,2:2|0:0,0:0:0:0:
302,370,30681,2,0,P|330:364|359:361,1,42.5000008106232,2|0,2:2|2:2,0:0:0:0:
361,369,30884,1,10,0:0:0:0:
387,198,31087,2,0,P|462:187|523:176,1,127.50000243187,2|0,2:2|0:0,0:0:0:0:
459,112,31492,2,0,P|430:117|401:120,1,42.5000008106232,2|0,2:2|2:2,0:0:0:0:
400,113,31695,1,10,0:0:0:0:
285,24,31898,6,0,P|254:75|189:59,1,127.50000243187,2|2,2:2|2:2,0:0:0:0:
140,10,32303,1,2,0:0:0:0:
9,133,32506,1,10,0:0:0:0:
9,133,32708,1,2,2:2:0:0:
90,216,32911,2,0,P|97:150|103:84,1,127.50000243187,2|10,3:2|2:2,0:0:0:0:
96,82,33317,1,0,3:2:0:0:
21,253,33519,6,0,P|84:258|147:265,1,127.50000243187,6|0,3:2|0:0,0:0:0:0:
203,215,33925,2,0,P|227:217|250:246,1,42.5000008106232,2|0,2:2|0:0,0:0:0:0:
242,344,34127,2,0,P|231:322|245:287,1,42.5000008106232,10|0,2:2|0:0,0:0:0:0:
335,246,34330,2,0,P|321:265|284:271,1,42.5000008106232,2|0,2:2|0:0,0:0:0:0:
148,266,34533,6,0,P|153:202|160:139,1,127.50000243187,2|2,3:2|0:0,0:0:0:0:
155,131,34938,1,10,2:2:0:0:
17,85,35141,2,0,P|55:102|95:34,1,127.50000243187,2|0,2:2|0:0,0:0:0:0:
88,36,35546,1,2,2:2:0:0:
155,131,35749,1,10,2:2:0:0:
264,37,35952,2,0,P|219:43|174:54,1,85.0000016212464,2|0,2:2|3:3,0:0:0:0:
67,181,36357,1,2,2:2:0:0:
0,0,36560,1,8,2:2:0:0:
236,118,36762,6,0,B|284:130|284:130|304:162|304:162|360:179,1,127.50000243187,2|0,2:2|0:0,0:0:0:0:
411,210,37168,2,0,P|422:183|417:156,1,42.5000008106232,2|0,2:2|2:2,0:0:0:0:
416,155,37371,1,10,0:0:0:0:
233,202,37573,2,0,B|184:214|184:214|164:246|164:246|108:263,1,127.50000243187,2|0,2:2|0:0,0:0:0:0:
117,252,37979,1,2,2:2:0:0:
249,359,38181,1,8,2:2:0:0:
258,354,38283,1,2,2:2:0:0:
266,349,38384,6,0,P|336:356|422:375,1,150,6|0,3:2|0:0,0:0:0:0:
482,338,38789,6,0,P|485:302|494:259,1,50,8|0,2:2|0:0,0:0:0:0:
383,240,38992,2,0,P|379:204|370:161,1,50,8|0,2:2|0:0,0:0:0:0:
507,146,39195,2,0,P|510:110|520:67,1,50,8|0,2:2|0:0,0:0:0:0:
345,0,39398,6,0,P|349:25|352:50,1,50,10|0,2:2|0:0,0:0:0:0:
259,117,39600,1,2,3:2:0:0:
255,127,39702,1,0,3:3:0:0:
251,138,39803,2,0,P|283:132|313:129,2,50,10|8|10,2:2|2:2|2:2,0:0:0:0:
202,197,40107,1,8,2:2:0:0:
195,205,40208,6,0,P|127:179|115:109,1,150.000005722046,6|8,3:2|2:2,0:0:0:0:
152,17,40817,1,2,2:2:0:0:
152,17,40918,1,0,0:0:0:0:
152,17,41019,2,0,L|263:31,1,112.500004291535,2|2,3:2|3:2,0:0:0:0:
510,190,41627,6,0,B|432:199|453:158|364:164,1,150.000005722046,6|2,3:2|3:2,0:0:0:0:
470,35,42235,2,0,P|479:71|490:107,1,75.0000028610231,8|2,2:2|2:2,0:0:0:0:
290,220,42641,1,2,3:2:0:0:
280,183,42742,1,8,2:2:0:0:
269,147,42844,1,2,3:2:0:0:
510,190,43046,1,10,2:2:0:0:
499,225,43148,1,8,2:2:0:0:
489,262,43249,1,2,3:2:0:0:
315,305,43452,6,0,B|237:314|258:273|169:279,2,150.000005722046,6|14|6,3:2|2:2|3:2,0:0:0:0:
115,195,44567,1,0,3:3:0:0:
105,190,44668,2,0,L|100:152,2,37.5000014305115,10|8|2,2:2|2:2|3:2,0:0:0:0:
40,245,44972,5,0,3:3:0:0:
35,255,45073,2,0,B|70:271|70:271|87:343|87:343|115:366,1,150.000005722046,6|14,3:2|2:2,0:0:0:0:
315,305,45783,1,8,0:0:0:0:
320,285,45884,1,6,3:2:0:0:
325,270,45985,1,8,2:2:0:0:
330,255,46087,1,0,3:3:0:0:
180,305,46289,1,10,2:2:0:0:
245,365,46492,6,0,P|319:352|393:347,1,150.000005722046,4|2,3:2|3:2,0:0:0:0:
460,295,47100,2,0,P|469:258|481:223,1,75.0000028610231,10|0,2:2|0:0,0:0:0:0:
450,75,47506,1,2,3:2:0:0:
340,170,47708,1,2,3:2:0:0:
425,155,47911,1,10,2:2:0:0:
255,25,48114,5,2,2:2:0:0:
200,90,48317,2,0,P|163:97|127:107,1,75.0000028610231,0|2,3:3|3:2,0:0:0:0:
10,190,48722,1,10,2:2:0:0:
70,250,48925,2,0,P|106:242|131:216,1,75.0000028610231,2|0,2:2|3:3,0:0:0:0:
255,325,49330,1,2,3:2:0:0:
215,245,49533,2,0,P|223:208|234:172,1,75.0000028610231,10|2,2:2|2:2,0:0:0:0:
255,25,49938,5,6,3:2:0:0:
330,55,50141,1,0,3:3:0:0:
405,15,50344,2,0,L|441:24,1,37.5000014305115,8|0,2:2|3:3,0:0:0:0:
500,85,50648,2,0,L|509:121,1,37.5000014305115,8|0,2:2|3:3,0:0:0:0:
455,190,50952,2,0,L|418:199,2,37.5000014305115,8|0|0,2:2|3:3|3:3,0:0:0:0:
360,135,51357,6,0,P|377:207|390:281,1,150.000005722046,4|8,2:2|2:2,0:0:0:0:
340,350,51965,1,8,2:2:0:0:
455,190,52168,1,8,2:2:0:0:
175,220,52573,5,2,0:0:0:0:
255,190,52776,1,2,0:0:0:0:
190,135,52979,1,2,0:0:0:0:
90,255,53181,6,0,P|185:262|232:346,1,200,6|10,3:2|2:2,0:0:0:0:
390,282,53891,1,2,2:2:0:0:
400,285,53992,2,0,P|446:269|460:223,1,100,2|2,3:2|3:2,0:0:0:0:
345,25,54398,2,0,P|333:73|323:122,1,100,10|2,2:2|2:2,0:0:0:0:
255,175,54803,6,0,B|150:166|189:115|72:104,2,200,2|10|2,3:2|2:2|3:2,0:0:0:0:
435,130,55817,1,0,3:3:0:0:
390,282,56019,1,10,2:2:0:0:
210,55,56425,6,0,P|167:145|152:243,1,200,2|10,3:2|2:2,0:0:0:0:
390,282,57134,1,2,0:0:0:0:
380,275,57235,2,0,P|334:293|316:338,1,100,2|2,3:2|3:2,0:0:0:0:
152,243,57641,2,0,P|193:268|241:257,1,100,10|2,2:2|2:2,0:0:0:0:
300,190,58046,5,2,3:2:0:0:
275,75,58249,1,0,3:3:0:0:
125,50,58452,1,10,2:2:0:0:
5,240,58756,1,8,0:0:0:0:
0,235,58857,2,0,L|7:186,1,50,2|8,3:2|2:2,0:0:0:0:
80,290,59060,1,0,3:3:0:0:
250,365,59262,5,10,2:2:0:0:
255,340,59364,1,8,2:2:0:0:
270,315,59465,1,0,3:3:0:0:
152,243,59668,6,0,B|257:254|232:201|346:213,1,200,6|10,3:2|2:2,0:0:0:0:
495,80,60377,1,0,0:0:0:0:
485,75,60479,2,0,P|436:86|386:92,1,100,2|2,3:2|3:2,0:0:0:0:
255,15,60884,1,10,2:2:0:0:
200,140,61087,1,2,2:2:0:0:
25,35,61289,6,0,B|51:31|72:14|72:14|114:39|126:98|82:141,2,200,2|10|2,3:2|2:2|3:2,0:0:0:0:
200,140,62303,1,0,3:3:0:0:
10,190,62506,2,0,P|24:237|34:286,1,100,8|2,2:2|2:2,0:0:0:0:
15,365,62911,6,0,P|84:296|182:297,1,200,6|8,3:2|2:2,0:0:0:0:
350,200,63519,2,0,P|325:204|300:207,1,50,10|8,2:2|2:2,0:0:0:0:
260,280,63722,2,0,P|264:304|267:329,2,50,4|4|0,2:3|2:3|3:3,0:0:0:0:
200,140,64127,2,0,P|175:144|150:147,1,50,8|0,2:2|0:0,0:0:0:0:
95,75,64330,6,0,P|194:62|291:40,1,200,4|0,3:2|3:3,0:0:0:0:
460,75,64938,1,8,2:2:0:0:
350,200,65141,2,0,P|345:175|337:151,2,50,8|8|0,2:2|2:2|3:0,0:0:0:0:
350,200,65445,1,8,2:2:0:0:
350,200,65546,1,2,3:2:0:0:
291,362,65749,5,10,2:2:0:0:
258,343,65850,1,0,3:3:0:0:
223,330,65952,1,2,3:2:0:0:
186,324,66053,1,0,3:3:0:0:
148,325,66154,6,0,P|110:331|-11:389,1,150,6|0,3:2|0:0,0:0:0:0:
0,380,66560,2,0,P|-16:336|-3:291,1,94.9999974632264,10|0,2:2|0:0,0:0:0:0:
73,170,66864,1,2,2:2:0:0:
81,162,66965,2,0,P|77:231|73:293,1,100,2|2,3:2|3:2,0:0:0:0:
343,368,67371,2,0,P|327:315|270:317,1,100,10|2,2:2|2:2,0:0:0:0:
216,267,67776,6,0,P|288:283|419:238,2,200,2|10|2,3:2|2:2|3:2,0:0:0:0:
477,176,68789,1,2,3:2:0:0:
443,337,68992,1,10,2:2:0:0:
231,170,69398,6,0,P|220:103|202:13,1,150,2|0,3:2|0:0,0:0:0:0:
212,8,69803,2,0,P|255:-9|291:46,1,100,10|0,2:2|0:0,0:0:0:0:
400,83,70107,1,2,2:2:0:0:
407,91,70208,2,0,P|352:101|307:127,1,100,2|2,3:2|3:2,0:0:0:0:
115,140,70614,1,10,2:2:0:0:
42,13,70817,1,2,2:2:0:0:
218,164,71019,6,0,P|146:166|51:210,1,165.000005035401,2|0,3:2|0:0,0:0:0:0:
44,199,71425,2,0,P|8:156|45:111,1,110.000003356934,10|0,2:2|0:0,0:0:0:0:
165,243,71830,1,2,3:2:0:0:
169,268,71931,1,8,2:2:0:0:
159,291,72033,1,0,3:3:0:0:
117,97,72235,1,8,2:2:0:0:
113,72,72336,1,8,2:2:0:0:
123,49,72438,1,0,3:3:0:0:
357,0,72641,6,0,P|346:67|340:164,1,150,6|0,3:2|0:0,0:0:0:0:
346,158,73046,1,8,2:2:0:0:
346,293,73249,2,0,P|409:261|493:353,1,200,2|0,2:2|3:3,0:0:0:0:
405,383,73857,1,8,2:2:0:0:
242,294,74060,6,0,P|232:207|211:89,1,200,2|0,2:2|0:0,0:0:0:0:
267,18,74668,1,10,2:2:0:0:
327,181,74871,6,0,P|240:191|122:212,1,200,2|2,2:2|3:2,0:0:0:0:
60,154,75479,1,10,2:2:0:0:
0,265,75681,1,2,2:2:0:0:
211,363,75884,6,0,P|168:308|94:345,1,150,4|0,3:2|0:0,0:0:0:0:
94,343,76289,1,8,2:2:0:0:
252,216,76492,2,0,L|261:278,1,50,0|0,3:3|3:3,0:0:0:0:
379,378,76695,1,4,2:3:0:0:
382,353,76796,1,4,2:3:0:0:
388,330,76898,1,0,3:3:0:0:
480,230,77100,1,8,2:2:0:0:
334,97,77303,6,0,P|257:102|181:130,1,150,6|0,2:2|0:0,0:0:0:0:
131,79,77708,6,0,P|110:118|116:138,1,50,10|0,2:2|0:0,0:0:0:0:
38,133,77911,2,0,P|54:174|73:182,1,50,10|0,2:2|0:0,0:0:0:0:
19,238,78114,2,0,P|61:251|79:242,1,50,10|0,2:2|0:0,0:0:0:0:
87,320,78317,2,0,P|124:296|129:276,1,50,10|0,2:2|0:0,0:0:0:0:
193,320,78519,2,0,P|199:276|186:259,1,50,8|0,2:2|0:0,0:0:0:0:
148,202,78722,5,8,2:2:0:0:
197,200,78823,1,8,2:2:0:0:
247,206,78924,1,8,2:2:0:0:
295,220,79026,1,8,2:2:0:0:
340,241,79127,6,0,P|399:262|475:305,1,150,6|0,3:2|0:0,0:0:0:0:
484,221,79533,2,0,P|455:177|404:203,1,100,8|2,2:2|2:2,0:0:0:0:
287,308,79938,1,2,3:2:0:0:
282,319,80039,2,0,P|214:329|128:359,1,150,2|10,0:0|2:2,0:0:0:0:
127,371,80445,1,0,0:0:0:0:
127,371,80546,1,2,2:2:0:0:
168,169,80749,5,2,3:2:0:0:
102,116,80952,1,2,2:2:0:0:
26,146,81154,1,10,2:2:0:0:
17,233,81357,1,2,2:2:0:0:
17,233,81458,1,2,0:0:0:0:
17,233,81560,2,0,P|31:293|40:354,1,100,2|2,3:2|3:2,0:0:0:0:
112,311,81864,2,0,P|103:261|91:213,1,100,2|2,2:2|2:2,0:0:0:0:
96,203,82168,1,2,2:2:0:0:
3,22,82371,6,0,P|37:76|118:39,1,150,2|0,3:2|0:0,0:0:0:0:
191,12,82776,2,0,P|184:73|178:130,1,100,8|2,2:2|2:2,0:0:0:0:
175,122,83080,1,10,2:2:0:0:
224,115,83181,1,2,3:2:0:0:
274,109,83282,1,8,2:2:0:0:
324,105,83384,1,0,0:0:0:0:
191,12,83587,1,8,2:2:0:0:
257,202,83789,6,0,P|246:273|235:360,1,150,6|0,3:2|0:0,0:0:0:0:
242,359,84195,1,2,3:2:0:0:
154,236,84398,1,8,2:2:0:0:
110,212,84499,1,8,2:2:0:0:
61,217,84600,1,0,3:3:0:0:
24,249,84702,1,0,3:3:0:0:
12,297,84803,6,0,L|20:352,1,44.999998626709,2|0,3:2|3:3,0:0:0:0:
169,159,85411,6,0,L|153:52,1,100,2|8,3:2|2:2,0:0:0:0:
173,41,85918,1,8,2:2:0:0:
203,29,86019,1,0,3:3:0:0:
232,43,86120,1,0,3:3:0:0:
241,74,86222,1,4,2:3:0:0:
89,146,86425,5,8,2:2:0:0:
60,134,86526,1,8,2:2:0:0:
31,143,86627,1,0,3:3:0:0:
15,169,86729,1,0,3:3:0:0:
19,200,86830,1,8,2:2:0:0:
127,306,87033,5,6,3:2:0:0:
256,192,87134,12,0,88857,0:0:0:0:
