osu file format v14

[General]
AudioFilename: audio.mp3
AudioLeadIn: 0
PreviewTime: 52523
Countdown: 0
SampleSet: Soft
StackLeniency: 0.3
Mode: 0
LetterboxInBreaks: 0
WidescreenStoryboard: 1

[Editor]
Bookmarks: 79127
DistanceSpacing: 1
BeatDivisor: 8
GridSize: 32
TimelineZoom: 2.699999

[Metadata]
Title:Seishun Kippu (TV Size)
TitleUnicode:青春切符 (TV Size)
Artist:mafumafu
ArtistUnicode:まふまふ
Creator:Ascended
Version:Hard feat. Kyouren
Source:クールドジ男子
Tags:cool doji danshi Play It Cool, Guys clumsy guys anime animation boys japanese pop jpop j-pop jp 0ppinosu kyouren gokugohan12468 kittyadventure Mononymous Addy2607 KaedeharaKazuha opening 1 one
BeatmapID:3876984
BeatmapSetID:1871489

[Difficulty]
HPDrainRate:4.2
CircleSize:3.6
OverallDifficulty:6
ApproachRate:7
SliderMultiplier:1.45
SliderTickRate:1

[Events]
//Background and Video events
0,0,"anime men give me life.jpg",0,0
Video,-207,"i love anime men.mp4"
//Break Periods
//Storyboard Layer 0 (Background)
//Storyboard Layer 1 (Fail)
//Storyboard Layer 2 (Pass)
//Storyboard Layer 3 (Foreground)
//Storyboard Layer 4 (Overlay)
//Storyboard Sound Samples

[TimingPoints]
480,405.405405405405,4,2,1,70,1,0
1290,405.405405405405,4,2,1,70,1,0
1290,-100,4,2,1,70,0,0
5952,-83.3333333333333,4,2,1,70,0,0
7168,-100,4,2,1,70,0,0
14060,-125,4,2,1,60,0,0
25208,-90.9090909090909,4,2,1,60,0,0
27033,-100,4,2,1,65,0,0
38283,-90.9090909090909,4,2,1,65,0,0
38789,-90.9090909090909,4,2,1,70,0,0
40208,-111.111111111111,4,2,1,65,0,0
43452,-100,4,2,1,65,0,0
46289,-100,4,2,1,65,0,0
46492,-100,4,2,1,70,0,0
49938,-125,4,2,1,70,0,0
50141,-125,4,2,1,65,0,0
51357,-125,4,2,1,70,0,0
53181,-83.3333333333333,4,2,1,80,0,1
56425,-90.9090909090909,4,2,1,80,0,1
59668,-100,4,2,1,80,0,1
64330,-83.3333333333333,4,2,1,80,0,1
69398,-90.9090909090909,4,2,1,80,0,1
79127,-100,4,2,1,70,0,0
85411,-100,4,2,1,60,0,0
85817,-125,4,2,1,60,0,0
87033,-125,4,2,1,70,0,0
88654,-125,4,2,1,40,0,0

[Colours]
Combo1 : 98,130,204
Combo2 : 245,227,122

[HitObjects]
435,366,1290,6,0,P|506:350|509:282,1,145,6|8,3:2|2:2,0:0:0:0:
429,226,1898,1,2,2:2:0:0:
429,226,1999,1,2,2:2:0:0:
429,226,2100,2,0,P|434:190|439:154,2,72.5,2|2|10,3:2|3:2|2:2,0:0:0:0:
349,274,2708,1,2,2:2:0:0:
262,248,2911,6,0,P|226:253|190:258,1,72.5,2|2,3:2|2:2,0:0:0:0:
113,323,3317,2,0,P|77:317|41:312,1,72.5,10|2,2:2|2:2,0:0:0:0:
0,228,3722,1,2,3:2:0:0:
40,147,3925,1,2,3:2:0:0:
40,147,4026,1,2,2:2:0:0:
40,147,4127,2,0,P|34:111|29:75,1,72.5,8|2,2:2|2:2,0:0:0:0:
95,2,4533,6,0,P|150:9|172:90,1,145,2|8,3:2|2:2,0:0:0:0:
243,164,5141,1,2,2:2:0:0:
243,164,5242,1,10,2:2:0:0:
243,164,5344,2,0,P|278:158|314:153,1,72.5,2|2,3:2|3:2,0:0:0:0:
401,228,5749,5,10,2:2:0:0:
401,228,5850,1,8,2:2:0:0:
401,228,5952,2,0,B|431:141|475:190|508:81,1,173.999994689942,6|2,3:2|3:2,0:0:0:0:
489,52,6458,1,0,3:3:0:0:
489,52,6560,1,10,2:2:0:0:
396,23,6762,1,2,2:2:0:0:
396,23,6864,2,0,B|353:16|353:16|319:44,1,86.9999973449708,8|8,2:2|2:2,0:0:0:0:
292,67,7168,1,0,3:3:0:0:
192,58,7371,2,0,P|198:32|200:13,3,36.25,8|0|0|0,2:2|3:3|3:3|3:3,0:0:0:0:
167,4,7776,6,0,P|93:23|72:83,1,145,6|8,3:2|2:2,0:0:0:0:
12,160,8384,1,2,2:2:0:0:
12,160,8485,1,2,2:2:0:0:
12,160,8586,2,0,P|17:195|22:231,2,72.5,2|2|10,3:2|3:2|2:2,0:0:0:0:
105,183,9194,1,2,2:2:0:0:
179,131,9397,6,0,P|214:136|250:141,1,72.5,2|2,3:2|2:2,0:0:0:0:
309,211,9803,2,0,P|303:246|298:282,1,72.5,10|2,2:2|2:2,0:0:0:0:
355,351,10208,1,2,3:2:0:0:
451,332,10411,1,2,3:2:0:0:
451,332,10512,1,2,2:2:0:0:
451,332,10613,2,0,P|456:296|461:260,1,72.5,8|2,2:2|2:2,0:0:0:0:
512,174,11019,6,0,P|505:119|424:97,1,145,2|8,3:2|2:2,0:0:0:0:
348,41,11627,2,0,P|330:43|312:46,1,36.25,2|10,2:2|2:2,0:0:0:0:
281,38,11830,1,2,3:2:0:0:
281,38,11931,2,0,P|240:56|229:87,1,72.5,8|2,2:2|2:2,0:0:0:0:
238,111,12235,1,8,2:2:0:0:
274,202,12438,6,0,P|262:274|254:346,1,145,6|2,3:2|3:2,0:0:0:0:
171,367,13046,1,8,2:2:0:0:
162,368,13147,1,8,2:2:0:0:
153,369,13249,1,0,3:3:0:0:
144,370,13350,1,0,3:3:0:0:
133,373,13452,2,0,B|89:340|89:340|34:354,2,108.75,2|0|4,3:2|3:3|3:2,0:0:0:0:
177,215,14465,6,0,P|173:186|169:157,2,58,2|2|2,2:2|3:2|2:2,0:0:0:0:
87,206,15073,2,0,P|41:197|22:134,1,116,2|0,3:2|3:3,0:0:0:0:
94,75,15681,1,2,2:2:0:0:
94,75,15884,2,0,P|103:29|166:10,1,116,0|2,3:3|3:2,0:0:0:0:
249,56,16492,1,2,2:2:0:0:
249,56,16695,1,0,3:3:0:0:
267,203,17100,2,0,P|263:232|259:261,1,58,2|2,3:2|2:2,0:0:0:0:
333,332,17506,6,0,P|342:286|405:267,1,116,0|2,3:3|3:2,0:0:0:0:
475,327,18114,1,2,2:2:0:0:
475,327,18317,2,0,P|479:356|483:385,2,58,2|2|2,3:2|2:2|3:2,0:0:0:0:
512,242,18925,1,2,2:2:0:0:
512,242,19127,2,0,P|504:184|496:126,1,116,2|2,3:2|3:2,0:0:0:0:
338,73,19938,2,0,B|326:32|326:32|359:-3,2,87,2|2|2,3:2|2:2|2:2,0:0:0:0:
309,153,20749,6,0,P|246:171|231:227,1,116,0|2,3:3|3:2,0:0:0:0:
165,278,21357,1,2,2:2:0:0:
165,278,21560,2,0,P|109:265|49:258,1,116,2|0,3:2|3:3,0:0:0:0:
0,180,22168,1,2,2:2:0:0:
0,180,22371,2,0,P|13:124|20:64,1,116,0|2,3:3|3:2,0:0:0:0:
170,6,23181,2,0,P|189:33|190:63,1,58,0|2,3:3|2:2,0:0:0:0:
271,92,23587,2,0,P|257:121|231:137,1,58,2|2,3:2|2:2,0:0:0:0:
154,164,23992,6,0,P|217:182|232:238,1,116,0|2,3:3|3:2,0:0:0:0:
169,288,24600,1,2,2:2:0:0:
169,288,24803,2,0,P|165:316|159:345,1,58,0|2,3:3|2:2,0:0:0:0:
261,328,25208,5,8,2:2:0:0:
338,378,25411,2,0,B|423:357|385:318|482:295,1,159.500004867554,6|8,3:2|2:2,0:0:0:0:
507,210,26019,1,8,2:2:0:0:
507,210,26222,1,8,2:2:0:0:
416,173,26425,2,0,P|377:181|337:186,1,79.7500024337769,10|2,2:2|3:2,0:0:0:0:
258,238,26830,5,10,2:2:0:0:
258,238,26931,1,10,2:2:0:0:
258,238,27033,2,0,P|193:218|183:136,1,145,6|2,3:2|2:2,0:0:0:0:
270,124,27641,2,0,P|262:86|257:47,1,72.5,10|2,2:2|2:2,0:0:0:0:
179,0,28046,2,0,P|128:3|105:92,1,145,2|10,3:2|2:2,0:0:0:0:
15,130,28654,6,0,P|10:94|2:58,2,72.5,2|0|2,2:2|3:3|2:2,0:0:0:0:
84,193,29262,2,0,P|76:228|71:264,1,72.5,10|2,2:2|2:2,0:0:0:0:
10,335,29668,2,0,P|13:352|16:370,2,36.25,0|0|2,3:3|0:0|2:2,0:0:0:0:
103,356,30073,1,8,2:2:0:0:
240,266,30479,6,0,P|303:255|330:185,1,145,2|10,3:2|2:2,0:0:0:0:
258,132,31087,1,2,2:2:0:0:
258,132,31289,2,0,P|253:96|245:60,2,72.5,0|2|10,3:3|2:2|2:2,0:0:0:0:
347,94,31898,2,0,P|386:104|412:141,1,72.5,2|2,2:2|3:2,0:0:0:0:
441,151,32202,1,2,2:2:0:0:
441,151,32303,2,0,P|451:189|432:230,1,72.5,2|10,2:2|2:2,0:0:0:0:
452,317,32708,1,2,2:2:0:0:
452,317,32911,2,0,P|387:328|366:332,1,72.5,2|0,3:2|3:3,0:0:0:0:
356,356,33215,2,0,B|299:371|299:371|261:338,1,108.75,10|6,2:2|3:2,0:0:0:0:
177,201,33925,5,2,2:2:0:0:
177,201,34127,2,0,P|185:163|190:124,1,72.5,10|2,2:2|2:2,0:0:0:0:
210,35,34532,2,0,P|261:38|302:122,1,145,2|10,3:2|2:2,0:0:0:0:
405,89,35140,6,0,P|410:53|418:17,2,72.5,2|0|2,2:2|3:3|2:2,0:0:0:0:
482,159,35749,1,10,2:2:0:0:
482,159,35952,1,2,2:2:0:0:
457,305,36357,6,0,P|421:297|385:292,1,72.5,2|8,2:2|2:2,0:0:0:0:
314,224,36762,2,0,P|275:242|262:275,2,72.5,2|2|2,2:2|3:2|2:2,0:0:0:0:
240,150,37371,1,10,2:2:0:0:
240,150,37573,2,0,P|235:114|227:78,1,72.5,2|0,2:2|3:3,0:0:0:0:
141,26,37979,2,0,P|133:61|128:97,1,72.5,2|8,2:2|2:2,0:0:0:0:
119,132,38283,5,2,2:2:0:0:
119,132,38384,2,0,P|51:149|25:233,1,159.500004867554,6|8,3:2|2:2,0:0:0:0:
100,280,38992,1,8,2:2:0:0:
100,280,39195,1,8,2:2:0:0:
137,371,39398,2,0,P|175:361|218:353,1,79.7500024337769,10|2,2:2|3:2,0:0:0:0:
305,332,39803,1,10,2:2:0:0:
301,320,39904,1,8,2:2:0:0:
298,308,40005,1,10,2:2:0:0:
296,295,40107,1,8,2:2:0:0:
294,281,40208,6,0,B|289:249|289:249|251:227,2,65.2499980087281,6|2|8,3:2|2:2|2:2,0:0:0:0:
385,316,40817,1,2,2:2:0:0:
385,316,41019,2,0,B|430:305|430:305|450:255,2,97.8749970130921,2|2|6,3:2|3:2|3:2,0:0:0:0:
426,154,42033,5,2,3:2:0:0:
426,153,42235,2,0,P|431:120|438:89,1,65.2499980087281,8|2,2:2|2:2,0:0:0:0:
367,31,42641,2,0,P|364:14|360:0,2,32.624999004364,2|8|2,3:2|2:2|3:2,0:0:0:0:
306,105,43046,1,10,2:2:0:0:
306,105,43148,1,8,2:2:0:0:
306,105,43249,1,2,3:2:0:0:
233,36,43452,6,0,P|182:62|180:116,1,108.75,6|0,3:2|0:0,0:0:0:0:
153,136,43857,2,0,P|150:193|195:221,1,108.75,14|0,2:2|0:0,0:0:0:0:
220,203,44262,1,6,3:2:0:0:
255,360,44668,2,0,P|270:357|294:351,2,36.25,10|8|2,2:2|2:2|3:2,0:0:0:0:
168,384,45073,6,0,P|120:372|51:357,1,108.75,6|0,3:2|0:0,0:0:0:0:
26,353,45479,2,0,P|33:322|43:278,1,72.5,14|2,2:2|0:0,0:0:0:0:
35,190,45884,2,0,P|17:194|-1:198,2,36.25,6|8|0,3:2|2:2|3:3,0:0:0:0:
61,96,46289,5,10,2:2:0:0:
61,96,46492,2,0,P|117:84|146:6,1,145,4|2,3:2|3:2,0:0:0:0:
234,34,47100,1,10,2:2:0:0:
270,191,47506,2,0,P|277:224|289:273,2,72.5,2|2|10,3:2|3:2|2:2,0:0:0:0:
188,144,48114,6,0,P|179:179|171:214,1,72.5,2|0,2:2|3:3,0:0:0:0:
210,306,48519,1,2,3:2:0:0:
210,306,48722,1,10,2:2:0:0:
286,261,48925,2,0,P|321:252|356:244,1,72.5,2|0,2:2|3:3,0:0:0:0:
432,309,49330,2,0,P|467:317|502:325,2,72.5,2|10|2,3:2|2:2|2:2,0:0:0:0:
455,220,49938,6,0,P|448:191|441:163,1,58,6|0,3:2|3:3,0:0:0:0:
494,90,50344,1,8,2:2:0:0:
494,90,50445,2,0,B|509:65|509:65|499:37,1,58,0|8,3:3|2:2,0:0:0:0:
486,10,50749,1,0,3:3:0:0:
385,36,50952,2,0,P|388:21|391:7,2,29,8|0|0,2:2|3:3|3:3,0:0:0:0:
364,123,51357,1,4,2:2:0:0:
253,250,51762,5,8,2:2:0:0:
237,158,51965,1,8,2:2:0:0:
221,66,52168,1,8,2:2:0:0:
221,66,53181,6,0,P|162:67|129:130,1,130.499996017456,6|0,3:2|0:0,0:0:0:0:
94,151,53587,2,0,P|104:196|115:242,1,86.9999973449708,10|0,2:2|0:0,0:0:0:0:
100,279,53891,1,2,2:2:0:0:
100,279,53992,1,2,3:2:0:0:
73,371,54195,1,2,3:2:0:0:
178,384,54398,2,0,P|187:341|197:299,1,86.9999973449708,10|2,2:2|2:2,0:0:0:0:
273,225,54803,6,0,P|332:226|365:289,1,130.499996017456,2|0,3:2|0:0,0:0:0:0:
396,308,55208,2,0,P|453:320|485:260,1,130.499996017456,10|0,2:2|0:0,0:0:0:0:
474,241,55614,1,2,3:2:0:0:
419,173,55817,1,0,3:3:0:0:
476,97,56019,2,0,P|433:87|391:77,1,86.9999973449708,10|0,2:2|0:0,0:0:0:0:
309,140,56425,6,0,P|279:85|223:82,1,119.625003650665,2|0,3:2|0:0,0:0:0:0:
203,109,56830,2,0,P|211:147|221:186,1,79.7500024337769,10|0,2:2|0:0,0:0:0:0:
298,259,57235,1,2,3:2:0:0:
298,259,57438,1,2,3:2:0:0:
280,349,57641,2,0,P|240:342|217:307,1,79.7500024337769,10|2,2:2|2:2,0:0:0:0:
114,309,58046,6,0,P|75:299|36:290,1,79.7500024337769,2|0,3:2|3:3,0:0:0:0:
95,209,58452,2,0,P|108:150|122:92,1,119.625003650665,10|0,2:2|0:0,0:0:0:0:
114,59,58857,2,0,P|94:63|75:68,2,39.8750012168885,2|8|0,3:2|2:2|3:3,0:0:0:0:
206,24,59262,1,10,2:2:0:0:
206,24,59364,1,8,2:2:0:0:
206,24,59465,1,0,3:3:0:0:
300,78,59668,6,0,P|343:71|387:119,1,108.75,6|0,3:2|0:0,0:0:0:0:
398,147,60073,1,10,2:2:0:0:
268,245,60479,2,0,P|260:209|251:175,1,72.5,2|2,3:2|3:2,0:0:0:0:
176,116,60884,2,0,P|168:151|159:185,1,72.5,10|2,2:2|2:2,0:0:0:0:
73,204,61289,6,0,P|89:274|105:344,1,145,2|10,3:2|2:2,0:0:0:0:
275,376,62100,1,2,3:2:0:0:
344,325,62303,2,0,P|347:307|352:290,2,36.25,0|2|8,3:3|2:2|2:2,0:0:0:0:
424,376,62708,5,2,2:2:0:0:
424,376,62911,2,0,P|466:367|492:271,1,145,6|8,3:2|2:2,0:0:0:0:
469,192,63519,2,0,P|472:174|477:156,1,36.25,10|8,2:2|2:2,0:0:0:0:
493,128,63722,1,4,2:3:0:0:
493,128,63823,1,4,2:3:0:0:
493,128,63925,1,0,3:3:0:0:
431,53,64127,1,8,2:2:0:0:
343,138,64330,6,0,B|261:162|283:210|197:231,1,173.999994689942,4|0,3:2|3:3,0:0:0:0:
178,209,64837,1,0,3:3:0:0:
178,209,64938,1,8,2:2:0:0:
84,255,65141,1,8,2:2:0:0:
84,255,65242,2,0,B|56:224|56:224|68:178,1,86.9999973449708,8|8,2:2|2:2,0:0:0:0:
77,147,65546,1,2,3:2:0:0:
68,45,65749,1,10,2:2:0:0:
82,48,65850,1,0,3:3:0:0:
97,51,65952,1,2,3:2:0:0:
111,54,66053,1,0,3:3:0:0:
124,57,66154,6,0,P|186:59|216:114,1,130.499996017456,6|0,3:2|0:0,0:0:0:0:
241,130,66560,2,0,P|286:120|332:109,1,86.9999973449708,10|0,2:2|0:0,0:0:0:0:
373,110,66864,1,2,2:2:0:0:
373,110,66965,1,2,3:2:0:0:
409,15,67168,1,2,3:2:0:0:
497,79,67371,2,0,P|486:121|478:163,1,86.9999973449708,10|2,2:2|2:2,0:0:0:0:
481,282,67776,6,0,P|422:283|389:346,1,130.499996017456,2|0,3:2|0:0,0:0:0:0:
353,364,68181,2,0,P|313:314|249:323,1,130.499996017456,10|0,2:2|0:0,0:0:0:0:
221,353,68587,1,2,3:2:0:0:
150,303,68790,1,2,3:2:0:0:
72,351,68992,2,0,P|62:308|52:266,1,86.9999973449708,10|0,2:2|0:0,0:0:0:0:
32,161,69398,6,0,P|62:106|118:103,1,119.625003650665,2|0,3:2|0:0,0:0:0:0:
143,71,69803,2,0,P|181:80|220:89,1,79.7500024337769,10|0,2:2|0:0,0:0:0:0:
263,107,70107,1,2,2:2:0:0:
263,107,70208,1,2,3:2:0:0:
351,71,70411,1,2,3:2:0:0:
417,143,70614,2,0,P|408:181|399:220,1,79.7500024337769,10|2,2:2|2:2,0:0:0:0:
302,191,71019,5,2,3:2:0:0:
230,255,71222,1,2,3:2:0:0:
286,324,71425,2,0,P|345:337|403:351,1,119.625003650665,10|8,2:2|0:0,0:0:0:0:
432,379,71830,2,0,P|451:373|470:370,2,39.8750012168885,2|8|0,3:2|2:2|3:3,0:0:0:0:
477,288,72235,1,8,2:2:0:0:
477,288,72337,1,8,2:2:0:0:
477,288,72438,1,0,3:3:0:0:
512,180,72641,6,0,B|430:156|462:114|383:90,1,159.500004867554,6|8,3:2|2:2,0:0:0:0:
302,46,73249,1,2,2:2:0:0:
302,46,73452,2,0,P|258:29|242:-5,2,79.7500024337769,0|0|8,3:3|3:3|2:2,0:0:0:0:
293,145,74060,5,2,2:2:0:0:
293,145,74161,1,2,2:2:0:0:
293,145,74262,2,0,P|311:222|328:300,1,159.500004867554,2|10,3:2|2:2,0:0:0:0:
410,338,74871,2,0,P|405:357|401:376,2,39.8750012168885,2|2|0,2:2|2:2|3:3,0:0:0:0:
493,310,75276,1,2,3:2:0:0:
436,235,75479,2,0,P|397:226|358:216,1,79.7500024337769,10|2,2:2|2:2,0:0:0:0:
259,242,75884,6,0,B|177:266|209:308|130:332,1,159.500004867554,4|8,3:2|2:2,0:0:0:0:
37,277,76492,2,0,P|33:256|27:236,1,39.8750012168885,0|0,3:3|3:3,0:0:0:0:
25,207,76695,1,4,2:3:0:0:
25,207,76796,1,4,2:3:0:0:
25,207,76898,2,0,P|31:166|43:125,1,79.7500024337769,0|8,3:3|2:2,0:0:0:0:
24,28,77303,5,6,2:2:0:0:
147,148,77708,1,10,2:2:0:0:
147,148,77911,2,0,P|188:142|229:130,1,79.7500024337769,10|10,2:2|2:2,0:0:0:0:
290,39,78317,1,10,2:2:0:0:
290,39,78519,1,8,2:2:0:0:
366,101,78722,1,8,2:2:0:0:
363,115,78823,1,8,2:2:0:0:
360,130,78925,1,8,2:2:0:0:
357,144,79026,1,8,2:2:0:0:
352,159,79127,6,0,P|423:175|448:242,1,145,6|8,3:2|2:2,0:0:0:0:
352,259,79735,1,2,2:2:0:0:
352,259,79836,1,2,2:2:0:0:
352,259,79937,2,0,P|316:264|280:269,2,72.5,2|2|10,3:2|3:2|2:2,0:0:0:0:
358,352,80545,1,2,2:2:0:0:
438,308,80748,6,0,P|443:272|448:236,1,72.5,2|2,3:2|2:2,0:0:0:0:
512,160,81154,2,0,P|506:124|501:88,1,72.5,10|2,2:2|2:2,0:0:0:0:
475,0,81559,1,2,3:2:0:0:
410,73,81762,1,2,3:2:0:0:
410,73,81863,1,2,2:2:0:0:
410,73,81964,2,0,P|374:79|338:84,1,72.5,8|2,2:2|2:2,0:0:0:0:
240,101,82370,6,0,P|228:33|161:17,1,145,2|8,3:2|2:2,0:0:0:0:
83,77,82978,1,2,2:2:0:0:
83,77,83079,1,10,2:2:0:0:
83,77,83181,2,0,L|94:148,1,72.5,2|0,3:2|0:0,0:0:0:0:
140,224,83587,1,8,2:2:0:0:
70,300,83789,6,0,P|137:316|163:381,1,145,6|2,3:2|3:2,0:0:0:0:
250,346,84397,1,8,2:2:0:0:
259,347,84498,1,8,2:2:0:0:
268,348,84600,1,0,3:3:0:0:
277,349,84701,1,0,3:3:0:0:
288,352,84803,2,0,B|301:300|301:300|268:256,2,108.75,2|0|2,3:2|3:3|3:2,0:0:0:0:
434,274,85817,6,0,L|463:282,1,29,8|8,2:2|2:2,0:0:0:0:
487,290,86019,2,0,L|495:319,2,29,0|0|4,3:3|3:3|2:3,0:0:0:0:
462,196,86425,2,0,L|454:167,1,29,8|8,2:2|2:2,0:0:0:0:
445,141,86627,2,0,L|416:133,2,29,0|0|8,3:3|3:3|2:2,0:0:0:0:
480,52,87033,5,6,3:2:0:0:
256,192,87134,12,2,88654,0:0:0:0:
