osu file format v14

[General]
AudioFilename: audio.mp3
AudioLeadIn: 0
PreviewTime: 52523
Countdown: 0
SampleSet: Soft
StackLeniency: 0.3
Mode: 0
LetterboxInBreaks: 0
WidescreenStoryboard: 1

[Editor]
Bookmarks: 1290,14262,15884,27033,40208,53181,79127
DistanceSpacing: 1
BeatDivisor: 8
GridSize: 8
TimelineZoom: 2.699999

[Metadata]
Title:Seishun Kippu (TV Size)
TitleUnicode:青春切符 (TV Size)
Artist:mafumafu
ArtistUnicode:まふまふ
Creator:Ascended
Version:0pp's Another
Source:クールドジ男子
Tags:cool doji danshi Play It Cool, Guys clumsy guys anime animation boys japanese pop jpop j-pop jp 0ppinosu kyouren gokugohan12468 kittyadventure Mononymous Addy2607 KaedeharaKazuha opening 1 one
BeatmapID:3861384
BeatmapSetID:1871489

[Difficulty]
HPDrainRate:5
CircleSize:3.8
OverallDifficulty:8
ApproachRate:9
SliderMultiplier:3.33
SliderTickRate:1

[Events]
//Background and Video events
0,0,"anime men give me life.jpg",0,0
Video,-207,"i love anime men.mp4"
//Break Periods
//Storyboard Layer 0 (Background)
//Storyboard Layer 1 (Fail)
//Storyboard Layer 2 (Pass)
//Storyboard Layer 3 (Foreground)
//Storyboard Layer 4 (Overlay)
//Storyboard Sound Samples

[TimingPoints]
480,405.405405405405,4,2,1,70,1,0
480,-333.333333333333,4,2,1,70,0,0
1088,-100,4,2,1,70,0,0
1290,405.405405405405,4,2,1,70,1,0
2506,-333.333333333333,4,2,1,70,0,0
2708,-100,4,2,1,70,0,0
3823,-166.666666666667,4,2,1,70,0,0
4127,-100,4,2,1,70,0,0
5749,-333.333333333333,4,2,1,70,0,0
5952,-100,4,2,1,70,0,0
8992,-333.333333333333,4,2,1,70,0,0
9194,-100,4,2,1,70,0,0
10309,-166.666666666667,4,2,1,70,0,0
10613,-100,4,2,1,70,0,0
11830,-333.333333333333,4,2,1,70,0,0
12235,-166.666666666667,4,2,1,70,0,0
12438,-100,4,2,1,70,0,0
13452,-1000,4,2,1,70,0,0
14060,-166.666666666666,4,2,1,60,0,0
25411,-111.111111111111,4,2,1,60,0,0
27033,-100,4,2,1,65,0,0
30073,-166.666666666666,4,2,1,65,0,0
30276,-100,4,2,1,65,0,0
30681,-166.666666666667,4,2,1,65,0,0
31898,-111.111111111111,4,2,1,65,0,0
32911,-100,4,2,1,65,0,0
33925,-166.666666666667,4,2,1,65,0,0
34127,-125,4,2,1,65,0,0
35749,-100,4,2,1,65,0,0
36762,-83.3333333333333,4,2,1,65,0,0
37168,-100,4,2,1,65,0,0
38789,-333.333333333333,4,2,1,70,0,0
38992,-166.666666666667,4,2,1,70,0,0
39195,-111.111111111111,4,2,1,70,0,0
39398,-83.3333333333333,4,2,1,70,0,0
39600,-111.111111111111,4,2,1,70,0,0
40208,-100,4,2,1,65,0,0
41019,-166.666666666667,4,2,1,65,0,0
41627,-83.3333333333333,4,2,1,65,0,0
42235,-111.111111111111,4,2,1,65,0,0
43452,-125,4,2,1,65,0,0
43857,-100,4,2,1,65,0,0
45985,-200,4,2,1,65,0,0
46492,-111.111111111111,4,2,1,70,0,0
50141,-111.111111111111,4,2,1,65,0,0
51357,-90.9090909090908,4,2,1,70,0,0
53181,-83.3333333333333,4,2,1,80,0,1
53992,-100,4,2,1,80,0,1
54398,-166.666666666667,4,2,1,80,0,1
54803,-100,4,2,1,80,0,1
55208,-83.3333333333333,4,2,1,80,0,1
55512,-133.333333333333,4,2,1,80,0,1
56019,-166.666666666667,4,2,1,80,0,1
56222,-166.666666666667,4,2,1,80,0,0
56425,-100,4,2,1,80,0,1
57033,-166.666666666667,4,2,1,80,0,1
57235,-100,4,2,1,80,0,1
57844,-166.666666666666,4,2,1,80,0,1
58046,-83.3333333333333,4,2,1,80,0,1
58452,-66.6666666666667,4,2,1,80,0,1
58958,-100,4,2,1,80,0,1
59262,-166.666666666667,4,2,1,80,0,1
59465,-166.666666666667,4,2,1,80,0,0
59668,-100,4,2,1,80,0,1
60885,-166.666666666667,4,2,1,80,0,1
61289,-100,4,2,1,80,0,1
61998,-111.111111111111,4,2,1,80,0,1
62708,-111.111111111111,4,2,1,80,0,0
62911,-100,4,2,1,80,0,1
63721,-166.666666666667,4,2,1,80,0,1
64127,-111.111111111111,4,2,1,80,0,1
64330,-83.3333333333333,4,2,1,80,0,1
64735,-333.333333333333,4,2,1,80,0,1
64938,-100,4,2,1,80,0,1
65748,-166.666666666667,4,2,1,80,0,1
65952,-166.666666666667,4,2,1,80,0,0
66154,-83.3333333333333,4,2,1,80,0,1
66965,-100,4,2,1,80,0,1
67371,-166.666666666667,4,2,1,80,0,1
67776,-100,4,2,1,80,0,1
68181,-83.3333333333333,4,2,1,80,0,1
68485,-133.333333333333,4,2,1,80,0,1
68992,-166.666666666667,4,2,1,80,0,1
69195,-166.666666666667,4,2,1,80,0,0
69398,-100,4,2,1,80,0,1
70006,-166.666666666667,4,2,1,80,0,1
70208,-100,4,2,1,80,0,1
70817,-111.111111111111,4,2,1,80,0,1
71019,-83.3333333333333,4,2,1,80,0,1
71425,-66.6666666666667,4,2,1,80,0,1
71931,-100,4,2,1,80,0,1
72235,-166.666666666667,4,2,1,80,0,1
72438,-166.666666666667,4,2,1,80,0,0
72641,-100,4,2,1,80,0,1
73858,-166.666666666667,4,2,1,80,0,1
74262,-83.3333333333333,4,2,1,80,0,1
74971,-111.111111111111,4,2,1,80,0,1
75681,-111.111111111111,4,2,1,80,0,0
75884,-100,4,2,1,80,0,1
76694,-166.666666666667,4,2,1,80,0,1
77100,-111.111111111111,4,2,1,80,0,1
77303,-76.9230769230769,4,2,1,80,0,1
77708,-333.333333333333,4,2,1,80,0,1
77911,-100,4,2,1,80,0,1
78721,-166.666666666667,4,2,1,80,0,1
78925,-166.666666666667,4,2,1,80,0,0
79127,-100,4,2,1,70,0,0
80344,-333.333333333333,4,2,1,70,0,0
80546,-100,4,2,1,70,0,0
81458,-166.666666666667,4,2,1,70,0,0
81965,-100,4,2,1,70,0,0
83587,-333.333333333333,4,2,1,70,0,0
83790,-100,4,2,1,70,0,0
85411,-166.666666666667,4,2,1,60,0,0
87033,-166.666666666667,4,2,1,70,0,0
88654,-166.666666666667,4,2,1,40,0,0

[Colours]
Combo1 : 98,130,204
Combo2 : 245,227,122

[HitObjects]
105,368,480,6,0,L|100:342,1,24.9749992378235,8|8,2:2|2:2,0:0:0:0:
90,292,682,2,0,L|85:266,2,24.9749992378235,8|8|0,2:2|2:2|0:0,0:0:0:0:
105,368,986,5,8,2:2:0:0:
90,378,1088,2,0,P|95:333|126:297,1,83.25,8|0,2:2|0:0,0:0:0:0:
163,237,1290,2,0,P|238:204|274:124,1,166.5,6|0,3:2|0:0,0:0:0:0:
126,146,1594,1,0,0:0:0:0:
125,163,1695,2,0,P|172:95|161:8,1,166.5,8|2,2:2|2:2,0:0:0:0:
349,104,2100,5,2,3:2:0:0:
361,100,2202,2,0,P|404:90|511:61,1,83.25,0|2,0:0|3:2,0:0:0:0:
384,13,2404,1,0,0:0:0:0:
377,12,2506,2,0,L|350:7,1,24.9749992378235,10|0,2:2|0:0,0:0:0:0:
380,181,2708,1,2,2:2:0:0:
372,192,2911,6,0,P|351:156|370:105,1,83.25,2|0,3:2|0:0,0:0:0:0:
469,52,3114,2,0,P|448:88|438:146,1,83.25,2|0,2:2|0:0,0:0:0:0:
271,130,3317,2,0,P|217:111|145:20,2,166.5,10|2|2,2:2|2:2|3:2,0:0:0:0:
349,104,3823,6,0,P|368:80|392:64,1,49.949998475647,0|2,0:0|3:2,0:0:0:0:
364,182,4026,1,2,2:2:0:0:
380,181,4127,2,0,P|408:157|460:142,1,83.25,8|2,2:2|2:2,0:0:0:0:
339,267,4330,2,0,P|303:239|294:199,1,83.25,2|0,2:2|0:0,0:0:0:0:
271,130,4533,6,0,P|223:62|148:29,1,166.5,2|0,3:2|0:0,0:0:0:0:
206,184,4837,1,0,0:0:0:0:
205,200,4938,2,0,P|135:155|53:152,1,166.5,8|2,2:2|2:2,0:0:0:0:
0,160,5242,1,10,2:2:0:0:
53,151,5344,2,0,P|101:127|35:71,1,166.5,2|2,3:2|3:2,0:0:0:0:
32,71,5648,5,0,0:0:0:0:
22,64,5749,2,0,L|14:37,1,24.9749992378235,10|8,2:2|2:2,0:0:0:0:
217,139,5952,2,0,P|118:251|87:352,1,249.75,6|0,3:2|0:0,0:0:0:0:
88,344,6357,6,0,P|133:309|136:273,1,83.25,2|0,3:2|3:3,0:0:0:0:
43,215,6560,2,0,P|49:173|66:135,1,83.25,10|0,2:2|0:0,0:0:0:0:
218,254,6762,2,0,P|247:224|283:204,1,83.25,2|8,2:2|2:2,0:0:0:0:
304,331,6965,1,0,3:3:0:0:
284,332,7066,1,8,2:2:0:0:
278,314,7168,1,0,3:3:0:0:
427,211,7371,5,8,2:2:0:0:
441,265,7472,1,0,3:3:0:0:
392,297,7573,1,0,3:3:0:0:
346,261,7675,1,0,3:3:0:0:
371,208,7776,6,0,P|380:141|451:68,1,166.5,6|0,3:2|0:0,0:0:0:0:
284,101,8080,1,0,0:0:0:0:
271,98,8181,2,0,P|304:40|397:-1,1,166.5,8|2,2:2|2:2,0:0:0:0:
269,184,8587,5,2,3:2:0:0:
255,181,8688,2,0,B|185:172|178:84,1,83.25,0|2,0:0|3:2,0:0:0:0:
63,99,8891,1,0,0:0:0:0:
50,100,8992,2,0,L|26:108,1,24.9749992378235,10|0,2:2|0:0,0:0:0:0:
33,187,9194,1,2,2:2:0:0:
43,201,9397,6,0,P|84:199|113:171,1,83.25,2|0,3:2|0:0,0:0:0:0:
56,31,9600,2,0,P|35:67|25:125,1,83.25,2|0,2:2|0:0,0:0:0:0:
145,79,9803,2,0,L|323:40,2,166.5,10|2|2,2:2|2:2|3:2,0:0:0:0:
136,96,10310,1,0,0:0:0:0:
259,137,10512,1,2,2:2:0:0:
276,143,10613,2,0,P|297:174|281:237,1,83.25,8|2,2:2|2:2,0:0:0:0:
160,258,10816,2,0,P|196:239|215:203,1,83.25,2|0,2:2|0:0,0:0:0:0:
328,77,11019,6,0,P|367:33|501:3,1,166.5,2|0,3:2|0:0,0:0:0:0:
396,171,11323,1,0,0:0:0:0:
382,174,11425,2,0,P|401:118|441:88,1,83.25,8|2,2:2|2:2,0:0:0:0:
512,221,11627,2,0,P|477:243|436:244,1,83.25,2|10,2:2|2:2,0:0:0:0:
475,181,11830,5,2,3:2:0:0:
482,182,11931,2,0,L|507:189,1,24.9749992378235,8|0,2:2|0:0,0:0:0:0:
510,272,12134,1,2,2:2:0:0:
498,270,12235,2,0,L|450:258,1,49.949998475647,8|0,2:2|0:0,0:0:0:0:
370,300,12438,6,0,P|300:206|168:172,1,249.75,6|0,3:2|0:0,0:0:0:0:
41,81,12844,2,0,P|97:112|123:185,1,83.25,2|0,3:2|0:0,0:0:0:0:
33,289,13046,1,8,2:2:0:0:
0,228,13148,1,8,2:2:0:0:
51,192,13249,1,0,3:3:0:0:
87,213,13350,1,0,3:3:0:0:
68,260,13452,6,0,L|49:255,1,16.65,2|0,3:2|0:0,0:0:0:0:
75,181,13756,2,0,L|92:186,1,16.65,0|0,3:3|0:0,0:0:0:0:
148,260,14060,5,4,3:2:0:0:
148,260,14465,2,0,P|166:237|238:212,1,99.899996951294,2|2,2:2|3:2,0:0:0:0:
303,249,14871,1,2,2:2:0:0:
377,287,15073,5,2,3:2:0:0:
383,277,15276,1,0,0:0:0:0:
385,269,15479,1,0,3:3:0:0:
386,260,15681,1,2,2:2:0:0:
454,228,15884,1,0,3:3:0:0:
453,216,16087,1,2,2:2:0:0:
451,208,16290,1,2,3:2:0:0:
447,200,16492,1,2,2:2:0:0:
467,310,16695,6,0,P|430:276|411:230,1,99.899996951294,0|2,3:3|2:2,0:0:0:0:
503,98,17100,1,2,3:2:0:0:
460,167,17303,1,2,2:2:0:0:
381,147,17506,2,0,P|267:101|238:19,1,199.799993902588,0|2,3:3|3:2,0:0:0:0:
320,24,18114,1,2,2:2:0:0:
281,105,18317,5,2,3:2:0:0:
271,111,18520,1,2,2:2:0:0:
263,113,18723,1,2,3:2:0:0:
254,114,18925,1,2,2:2:0:0:
215,183,19128,1,2,3:2:0:0:
203,182,19331,1,2,0:0:0:0:
195,180,19534,1,2,3:2:0:0:
187,176,19736,1,2,2:2:0:0:
159,101,19938,6,0,P|152:50|131:-3,1,99.899996951294,2|0,3:2|0:0,0:0:0:0:
57,25,20242,2,0,P|83:68|141:45,1,99.899996951294,2|0,2:2|0:0,0:0:0:0:
232,39,20546,2,0,P|308:58|330:84,2,99.899996951294,2|0|2,2:2|3:3|2:2,0:0:0:0:
394,40,21154,6,0,P|455:26|481:-6,1,99.899996951294,2|2,3:2|2:2,0:0:0:0:
387,122,21560,1,2,3:2:0:0:
381,132,21763,1,0,0:0:0:0:
379,140,21966,1,0,3:3:0:0:
378,149,22168,1,2,2:2:0:0:
440,199,22371,1,0,3:3:0:0:
444,210,22574,1,2,2:2:0:0:
448,217,22777,1,2,3:2:0:0:
454,224,22979,1,2,2:2:0:0:
512,275,23181,6,0,P|442:235|298:249,1,199.799993902588,0|2,3:3|3:2,0:0:0:0:
204,260,23789,2,0,P|281:296|290:210,1,199.799993902588,2|2,2:2|2:2,0:0:0:0:
222,87,24398,1,2,3:2:0:0:
209,181,24600,2,0,P|223:133|252:93,1,99.899996951294,2|0,2:2|3:3,0:0:0:0:
365,197,25006,1,2,2:2:0:0:
287,238,25208,1,8,2:2:0:0:
283,231,25411,6,0,B|356:130|479:150,1,224.774993140412,6|0,3:2|0:0,0:0:0:0:
478,150,25817,2,0,P|447:129|433:94,1,74.9249977134705,8|0,2:2|0:0,0:0:0:0:
367,172,26019,2,0,P|349:139|352:102,1,74.9249977134705,8|0,2:2|0:0,0:0:0:0:
257,147,26222,2,0,P|255:110|275:78,1,74.9249977134705,8|0,2:2|0:0,0:0:0:0:
208,10,26425,5,10,2:2:0:0:
196,0,26526,2,0,P|165:-4|132:33,1,74.9249977134705,2|2,3:2|3:2,0:0:0:0:
154,99,26729,1,2,3:2:0:0:
166,109,26830,2,0,P|197:113|230:76,1,74.9249977134705,10|10,2:2|2:2,0:0:0:0:
55,0,27033,6,0,B|117:31|132:157|62:231,1,249.75,6|0,3:2|0:0,0:0:0:0:
48,305,27438,1,2,2:2:0:0:
48,305,27539,1,0,0:0:0:0:
48,305,27641,2,0,B|114:313|144:256|144:256|284:224,1,249.75,10|0,2:2|0:0,0:0:0:0:
307,303,28046,1,2,3:2:0:0:
290,308,28148,2,0,P|303:267|415:195,1,166.5,0|2,0:0|0:0,0:0:0:0:
451,260,28452,2,0,P|472:241|477:181,1,83.25,10|0,2:2|0:0,0:0:0:0:
458,47,28654,6,0,B|431:124|491:171|491:171|455:133|487:120|441:75,1,249.75,2|0,2:2|0:0,0:0:0:0:
374,37,29060,2,0,B|315:47|315:47|303:83,1,83.25,2|0,2:2|0:0,0:0:0:0:
372,119,29262,1,10,2:2:0:0:
191,70,29465,1,2,2:2:0:0:
323,187,29668,5,0,3:3:0:0:
311,178,29769,2,0,P|270:103|297:28,1,166.5
366,120,30073,1,8,2:2:0:0:
199,151,30276,6,0,B|117:166|117:166|99:209|42:212,1,166.5,2|2,2:2|3:2,0:0:0:0:
38,132,30681,2,0,P|49:155|49:180,1,49.949998475647,2|0,2:2|0:0,0:0:0:0:
144,217,30884,2,0,P|141:242|132:265,1,49.949998475647,10|0,2:2|0:0,0:0:0:0:
116,290,31087,1,2,2:2:0:0:
237,180,31289,6,0,P|289:181|325:216,1,99.899996951294,0|2,3:3|2:2,0:0:0:0:
320,229,31594,1,0,0:0:0:0:
320,229,31695,1,10,2:2:0:0:
318,66,31898,2,0,P|242:67|186:115,2,149.849995426941,2|2|2,2:2|3:2|2:2,0:0:0:0:
38,182,32506,2,0,P|70:169|98:119,1,74.9249977134705,10|0,2:2|0:0,0:0:0:0:
61,48,32708,2,0,P|68:84|79:120,1,74.9249977134705,2|0,2:2|0:0,0:0:0:0:
166,217,32911,6,0,P|181:136|148:61,1,166.5,2|0,3:2|3:3,0:0:0:0:
331,64,33215,1,10,2:2:0:0:
322,57,33317,2,0,P|284:73|260:107,1,83.25,0|0,3:0|0:0,0:0:0:0:
244,234,33519,2,0,P|329:179|498:170,1,249.75,6|0,3:2|0:0,0:0:0:0:
407,186,33925,5,2,2:2:0:0:
407,186,34026,1,0,0:0:0:0:
407,186,34127,2,0,P|437:126|417:190,1,199.8,10|0,2:2|0:0,0:0:0:0:
365,254,34533,1,2,3:2:0:0:
351,259,34634,2,0,P|285:323|276:385,1,133.2,0|2,0:0|0:0,0:0:0:0:
354,380,34938,1,10,2:2:0:0:
202,305,35141,6,0,B|128:288|128:288|103:238|103:238|25:223,1,199.8,2|0,2:2|0:0,0:0:0:0:
34,209,35546,2,0,L|110:197,1,66.6,2|0,2:2|0:0,0:0:0:0:
178,156,35749,2,0,B|208:112|208:112|183:-14,1,166.5,10|2,2:2|2:2,0:0:0:0:
83,74,36154,5,0,3:3:0:0:
78,81,36256,2,0,B|48:84|30:56|30:56|97:38|118:106,1,166.5
108,118,36560,1,8,2:2:0:0:
303,25,36762,6,0,P|264:118|172:156,1,199.799993902588,2|2,2:2|3:2,0:0:0:0:
201,18,37168,6,0,P|239:29|260:64,1,83.25,2|0,2:2|0:0,0:0:0:0:
284,171,37371,2,0,P|302:151|280:169,1,83.25,10|0,2:2|0:0,0:0:0:0:
176,165,37573,6,0,P|60:213|38:329,1,249.75,2|0,2:2|0:0,0:0:0:0:
19,234,37979,6,0,P|59:240|86:270,1,83.25,2|0,2:2|0:0,0:0:0:0:
128,354,38181,1,8,2:2:0:0:
128,354,38283,1,2,2:2:0:0:
128,354,38384,1,6,3:2:0:0:
103,10,38789,6,0,P|91:13|79:16,1,24.9749992378235,8|0,2:2|0:0,0:0:0:0:
95,113,38992,6,0,P|118:105|140:94,1,49.949998475647,8|0,2:2|0:0,0:0:0:0:
225,201,39195,6,0,P|197:225|163:241,1,74.9249977134705,8|0,2:2|0:0,0:0:0:0:
279,380,39398,6,0,P|313:321|297:288,1,99.899996951294,10|0,2:2|0:0,0:0:0:0:
211,337,39600,2,0,P|222:361|277:364,1,74.9249977134705,2|0,3:2|3:3,0:0:0:0:
390,307,39803,1,10,2:2:0:0:
399,301,39904,1,8,2:2:0:0:
410,298,40006,1,10,2:2:0:0:
421,298,40107,1,8,2:2:0:0:
459,363,40208,6,0,P|347:297|205:254,1,249.75,6|0,3:2|0:0,0:0:0:0:
79,324,40614,2,0,B|111:372|185:322|185:322|164:308|156:281,1,166.5,8|2,2:2|2:2,0:0:0:0:
57,146,40918,5,0,0:0:0:0:
40,141,41019,2,0,P|68:183|76:232,1,99.899996951294,2|0,3:2|0:0,0:0:0:0:
146,272,41323,1,2,3:2:0:0:
156,281,41627,6,0,P|161:204|65:-1,1,299.699990853882,6|0,3:2|0:0,0:0:0:0:
40,142,42033,2,0,P|86:153|119:119,1,99.899996951294,2|0,3:2|0:0,0:0:0:0:
219,0,42235,2,0,P|194:22|167:66,1,74.9249977134705,8|0,2:2|0:0,0:0:0:0:
243,143,42438,2,0,P|250:106|265:72,1,74.9249977134705,2|0,2:2|0:0,0:0:0:0:
336,112,42641,5,2,3:2:0:0:
334,133,42742,1,8,2:2:0:0:
324,151,42844,1,2,3:2:0:0:
463,58,43046,2,0,P|428:98|417:130,1,74.9249977134705,10|8,2:2|2:2,0:0:0:0:
396,192,43249,2,0,P|389:244|397:277,1,74.9249977134705,2|0,3:2|0:0,0:0:0:0:
275,69,43452,6,0,B|260:18|188:6|188:6|249:27|264:65,1,199.8,6|0,3:2|0:0,0:0:0:0:
324,151,43857,2,0,P|382:150|500:7,1,249.75,14|0,2:2|0:0,0:0:0:0:
243,143,44262,2,0,P|165:141|102:52,1,166.5,6|0,3:2|0:0,0:0:0:0:
42,32,44567,5,0,3:3:0:0:
15,71,44668,1,10,2:2:0:0:
17,76,44769,1,8,2:2:0:0:
17,82,44870,1,2,3:2:0:0:
19,88,44972,1,0,3:3:0:0:
21,94,45073,6,0,P|62:194|52:366,1,249.75,6|0,3:2|0:0,0:0:0:0:
264,255,45479,2,0,P|195:302|141:365,1,166.5,14|2,2:2|0:0,0:0:0:0:
53,281,45783,5,0,0:0:0:0:
61,333,45884,1,6,3:2:0:0:
77,318,45985,5,8,2:2:0:0:
77,318,46087,2,0,L|94:271,1,41.625,0|0,3:3|0:0,0:0:0:0:
118,206,46290,2,0,L|135:159,1,41.625,10|0,2:2|0:0,0:0:0:0:
103,88,46492,6,0,B|175:75|211:141|211:141|336:120,1,224.774993140412,4|0,3:2|0:0,0:0:0:0:
435,113,46898,2,0,P|410:88|361:88,1,74.9249977134705,2|0,3:2|0:0,0:0:0:0:
317,159,47100,2,0,P|331:113|337:8,2,149.849995426941,10|0|2,2:2|0:0|3:2,0:0:0:0:
224,237,47708,1,2,3:2:0:0:
229,226,47810,1,0,0:0:0:0:
243,223,47911,2,0,P|302:248|329:301,1,74.9249977134705,10|0,2:2|0:0,0:0:0:0:
243,311,48114,1,2,2:2:0:0:
389,225,48317,6,0,P|475:207|435:122,1,149.849995426941,0|2,3:3|3:2,0:0:0:0:
347,19,48621,1,0,0:0:0:0:
337,11,48722,2,0,P|355:83|398:144,1,149.849995426941,10|2,2:2|2:2,0:0:0:0:
456,34,49127,6,0,P|424:43|397:103,1,74.9249977134705,0|0,3:3|0:0,0:0:0:0:
298,158,49330,1,2,3:2:0:0:
308,164,49431,1,0,0:0:0:0:
309,174,49533,2,0,P|230:238|148:209,1,149.849995426941,10|2,2:2|2:2,0:0:0:0:
29,102,49938,6,0,P|36:139|30:176,1,74.9249977134705,6|0,3:2|0:0,0:0:0:0:
90,239,50141,2,0,P|109:207|119:170,1,74.9249977134705,0|0,3:3|0:0,0:0:0:0:
27,286,50344,5,8,2:2:0:0:
18,282,50445,1,0,3:3:0:0:
71,194,50648,1,8,2:2:0:0:
62,190,50749,1,0,3:3:0:0:
103,91,50952,5,8,2:2:0:0:
107,77,51053,1,0,3:3:0:0:
113,65,51154,1,0,3:3:0:0:
122,53,51256,1,0,0:0:0:0:
132,44,51357,6,0,P|180:117|386:133,1,274.725008383942,4|0,2:2|0:0,0:0:0:0:
382,21,51762,2,0,P|350:53|297:62,1,91.5750027946473,8|0,2:2|0:0,0:0:0:0:
454,164,51965,2,0,P|441:120|460:69,1,91.5750027946473,8|0,2:2|0:0,0:0:0:0:
458,0,52168,5,8,2:2:0:0:
481,240,53181,6,0,B|460:170|400:99|400:99|458:146|496:195,1,299.699990853882,6|0,3:2|0:0,0:0:0:0:
404,264,53587,2,0,P|446:173|510:97,1,199.799993902588,10|0,2:2|0:0,0:0:0:0:
396,354,53891,5,2,2:2:0:0:
380,353,53992,2,0,P|343:336|327:299,1,83.25,2|0,3:2|0:0,0:0:0:0:
225,191,54195,2,0,P|243:228|251:269,1,83.25,2|0,3:2|0:0,0:0:0:0:
179,312,54398,2,0,L|127:299,1,49.949998475647,10|0,2:2|0:0,0:0:0:0:
59,336,54600,1,2,2:2:0:0:
361,160,54803,6,0,B|367:116|410:74|410:74|313:66|283:129,1,249.75,2|0,3:2|0:0,0:0:0:0:
440,167,55208,2,0,P|353:119|264:74,1,199.799993902588,10|0,2:2|0:0,0:0:0:0:
47,12,55512,5,0,0:0:0:0:
49,0,55614,2,0,P|74:19|83:49,1,62.4375023818017,2|0,3:2|0:0,0:0:0:0:
191,17,55817,2,0,P|187:48|165:69,1,62.4375023818017,0|0,3:3|0:0,0:0:0:0:
54,134,56019,2,0,L|110:120,1,49.949998475647,10|0,2:2|0:0,0:0:0:0:
167,170,56221,1,0,0:0:0:0:
440,167,56425,6,0,P|320:194|235:283,1,249.75,2|0,3:2|0:0,0:0:0:0:
226,304,56830,2,0,P|276:289|323:274,1,83.25,10|0,2:2|0:0,0:0:0:0:
290,196,57033,2,0,L|240:185,1,49.949998475647
368,333,57235,6,0,B|391:309|391:272|391:272|484:238,1,166.5,2|2,3:2|3:2,0:0:0:0:
483,346,57539,1,0,0:0:0:0:
479,333,57641,2,0,P|455:297|403:284,1,83.25,10|0,2:2|0:0,0:0:0:0:
355,96,57844,2,0,P|352:140|357:154,1,49.949998475647,2|0,2:2|0:0,0:0:0:0:
440,167,58046,6,0,P|339:109|250:105,1,199.799993902588,2|0,3:2|3:3,0:0:0:0:
204,164,58350,1,0,0:0:0:0:
124,150,58452,2,0,B|34:137|22:2|22:2|128:97|190:74,1,374.62501429081,10|0,2:2|0:0,0:0:0:0:
282,61,58857,5,2,3:2:0:0:
285,8,58958,2,0,L|256:96,1,83.25,8|0,2:2|3:3,0:0:0:0:
383,163,59161,1,0,0:0:0:0:
413,180,59262,2,0,L|395:114,2,49.949998475647,10|8|0,2:2|2:2|3:3,0:0:0:0:
174,191,59668,6,0,B|308:308|257:172|385:163,1,249.75,6|0,3:2|0:0,0:0:0:0:
375,246,60073,2,0,P|441:310|521:331,1,166.5,10|0,2:2|0:0,0:0:0:0:
510,248,60378,5,0,0:0:0:0:
499,248,60479,2,0,P|460:259|439:293,1,83.25,2|0,3:2|0:0,0:0:0:0:
344,384,60682,2,0,P|337:343|318:305,1,83.25,2|0,3:2|0:0,0:0:0:0:
221,206,60885,2,0,L|169:189,1,49.949998475647,10|0,2:2|0:0,0:0:0:0:
293,235,61087,1,2,2:2:0:0:
441,128,61289,6,0,B|481:100|468:43|468:43|386:148|271:88,1,249.75,2|0,3:2|0:0,0:0:0:0:
258,132,61695,2,0,P|322:81|351:4,1,166.5,10|0,2:2|0:0,0:0:0:0:
183,9,61999,5,0,0:0:0:0:
183,9,62100,2,0,P|199:43|198:80,1,74.9249977134705,2|0,3:2|0:0,0:0:0:0:
125,116,62303,1,0,3:3:0:0:
135,128,62404,1,2,2:2:0:0:
123,133,62506,2,0,P|88:100|80:69,2,74.9249977134705,8|0|2,2:2|0:0|2:2,0:0:0:0:
54,353,62911,6,0,P|177:338|268:256,1,249.75,6|0,3:2|0:0,0:0:0:0:
257,245,63317,2,0,P|243:300|337:315,1,166.5,8|10,2:2|2:2,0:0:0:0:
345,242,63621,5,8,2:2:0:0:
353,229,63722,2,0,L|408:213,1,49.949998475647,4|4,2:3|2:3,0:0:0:0:
456,315,63925,2,0,L|408:300,1,49.949998475647,0|0,3:3|0:0,0:0:0:0:
283,162,64127,2,0,P|294:127|294:90,1,74.9249977134705,8|0,2:2|0:0,0:0:0:0:
152,203,64330,6,0,B|81:179|90:99|90:99|117:168|185:147|174:238,1,299.699990853882,4|0,3:2|0:0,0:0:0:0:
195,239,64735,2,0,L|172:248,1,24.9749992378235,0|0,3:3|3:3,0:0:0:0:
91,269,64938,2,0,P|54:250|16:234,1,83.25,8|0,2:2|0:0,0:0:0:0:
250,157,65141,2,0,P|321:136|367:121,2,83.25,8|8|0,2:2|2:2|3:0,0:0:0:0:
174,119,65445,1,8,2:2:0:0:
160,114,65546,1,2,3:2:0:0:
472,16,65749,5,10,2:2:0:0:
412,0,65850,1,0,3:3:0:0:
357,21,65952,1,2,3:2:0:0:
335,76,66053,1,0,3:3:0:0:
398,122,66154,6,0,B|522:123|548:280|478:290|401:259|410:187,1,299.699990853882,6|0,3:2|0:0,0:0:0:0:
512,137,66560,2,0,P|428:190|333:219,1,199.799993902588,10|0,2:2|0:0,0:0:0:0:
229,204,66864,5,2,2:2:0:0:
245,205,66965,2,0,P|282:222|298:259,1,83.25,2|0,3:2|0:0,0:0:0:0:
232,364,67168,2,0,P|225:323|206:285,1,83.25,2|0,3:2|0:0,0:0:0:0:
126,214,67371,2,0,L|78:201,1,49.949998475647,10|0,2:2|0:0,0:0:0:0:
4,229,67573,1,2,2:2:0:0:
313,127,67776,6,0,B|356:104|356:30|356:30|330:106|254:127,1,249.75,2|0,3:2|0:0,0:0:0:0:
158,166,68181,2,0,P|63:140|14:56,1,199.799993902588,10|0,2:2|0:0,0:0:0:0:
218,108,68485,5,0,0:0:0:0:
222,119,68587,2,0,P|236:146|237:177,1,62.4375023818017,2|0,3:2|0:0,0:0:0:0:
4,229,68789,2,0,P|24:205|32:176,1,62.4375023818017,2|0,3:2|0:0,0:0:0:0:
158,166,68992,6,0,L|107:181,1,49.949998475647,10|0,2:2|0:0,0:0:0:0:
99,260,69195,1,0,0:0:0:0:
267,193,69398,6,0,P|388:209|478:293,1,249.75,2|0,3:2|0:0,0:0:0:0:
391,307,69803,2,0,P|349:301|324:254,1,83.25,10|0,2:2|0:0,0:0:0:0:
504,183,70006,2,0,P|487:201|483:225,1,49.949998475647,0|2,0:0|2:2,0:0:0:0:
402,226,70208,6,0,P|387:187|363:145,1,83.25,2|0,3:2|0:0,0:0:0:0:
477,37,70411,1,2,3:2:0:0:
484,45,70512,1,0,0:0:0:0:
493,55,70614,2,0,P|481:96|437:112,1,83.25,10|0,2:2|0:0,0:0:0:0:
335,25,70817,1,2,2:2:0:0:
283,131,71019,6,0,P|172:107|152:15,1,199.799993902588,2|2,3:2|3:2,0:0:0:0:
173,150,71323,1,0,0:0:0:0:
139,78,71425,2,0,B|119:13|-20:2|-20:2|87:98|71:169,1,374.62501429081,10|8,2:2|0:0,0:0:0:0:
130,227,71830,5,2,3:2:0:0:
143,227,71931,2,0,L|174:145,1,83.25,8|0,2:2|3:3,0:0:0:0:
21,269,72134,1,0,0:0:0:0:
58,302,72235,2,0,L|41:254,2,49.949998475647,8|8|0,2:2|2:2|3:3,0:0:0:0:
365,297,72641,6,0,B|215:275|228:125,1,249.75,6|0,3:2|0:0,0:0:0:0:
218,0,73046,2,0,P|215:83|200:164,1,166.5,8|2,2:2|2:2,0:0:0:0:
129,186,73351,5,0,0:0:0:0:
118,186,73452,2,0,P|79:175|58:141,1,83.25,0|0,3:3|0:0,0:0:0:0:
305,102,73655,2,0,P|348:76|355:36,1,83.25,0|0,3:3|0:0,0:0:0:0:
196,105,73858,2,0,L|166:95,2,24.9749992378235,8|0|0,2:2|0:0|0:0,0:0:0:0:
251,165,74060,1,2,2:2:0:0:
501,144,74262,6,0,P|409:182|324:235,1,199.799993902588,2|0,3:2|0:0,0:0:0:0:
406,208,74567,1,0,0:0:0:0:
413,209,74668,6,0,P|465:162|400:194,1,199.799993902588,10|2,2:2|2:2,0:0:0:0:
325,235,74972,5,2,2:2:0:0:
312,252,75073,2,0,P|274:248|176:186,1,149.849995426941,0|2,3:3|3:2,0:0:0:0:
329,156,75377,1,0,0:0:0:0:
316,155,75479,2,0,P|280:164|253:190,1,74.9249977134705,10|0,2:2|0:0,0:0:0:0:
215,258,75681,1,2,2:2:0:0:
20,67,75884,6,0,P|96:164|102:286,1,249.75,4|0,3:2|0:0,0:0:0:0:
63,355,76290,2,0,P|62:280|138:280,1,166.5,8|0,2:2|3:3,0:0:0:0:
148,366,76594,5,0,3:3:0:0:
158,356,76695,2,0,P|158:332|136:314,2,49.949998475647,4|4|0,2:3|2:3|3:3,0:0:0:0:
186,220,76999,1,0,0:0:0:0:
199,226,77100,2,0,P|236:234|265:258,1,74.9249977134705,8|0,2:2|0:0,0:0:0:0:
406,135,77303,6,0,B|418:199|359:191|347:242|347:242|377:127|503:118,1,324.674985137559,6|0,2:2|0:0,0:0:0:0:
511,216,77708,2,0,L|488:207,1,24.9749992378235,10|0,2:2|0:0,0:0:0:0:
290,38,77911,6,0,P|309:74|320:114,1,83.25,10|0,2:2|0:0,0:0:0:0:
198,73,78114,2,0,P|224:105|244:141,1,83.25,10|0,2:2|0:0,0:0:0:0:
186,220,78317,6,0,P|233:208|246:163,1,83.25,10|0,2:2|0:0,0:0:0:0:
206,119,78519,1,8,2:2:0:0:
374,168,78722,5,8,2:2:0:0:
422,137,78823,1,8,2:2:0:0:
407,81,78925,1,8,2:2:0:0:
350,78,79026,1,8,2:2:0:0:
328,132,79127,2,0,P|418:172|464:262,1,166.5,6|0,3:2|0:0,0:0:0:0:
294,231,79432,1,0,0:0:0:0:
293,214,79533,2,0,P|332:286|329:369,1,166.5,8|2,2:2|2:2,0:0:0:0:
80,338,79938,5,2,3:2:0:0:
95,335,80040,2,0,P|135:325|176:316,1,83.25,0|2,0:0|3:2,0:0:0:0:
157,239,80242,1,0,0:0:0:0:
140,238,80344,2,0,L|116:234,1,24.9749992378235,10|0,2:2|0:0,0:0:0:0:
144,352,80546,1,2,2:2:0:0:
27,241,80749,6,0,P|18:201|39:166,1,83.25,2|0,3:2|0:0,0:0:0:0:
204,72,80952,2,0,P|178:104|168:144,1,83.25,2|0,2:2|0:0,0:0:0:0:
112,216,81155,2,0,P|88:165|87:54,1,166.5,10|2,2:2|2:2,0:0:0:0:
168,144,81458,1,0,0:0:0:0:
216,167,81560,1,2,3:2:0:0:
226,165,81661,2,0,L|285:155,1,49.949998475647,0|2,0:0|3:2,0:0:0:0:
335,213,81864,1,2,2:2:0:0:
347,211,81965,2,0,L|447:191,1,83.25,8|2,2:2|2:2,0:0:0:0:
434,276,82168,2,0,P|393:259|384:219,1,83.25,2|0,2:2|0:0,0:0:0:0:
361,114,82371,6,0,P|299:57|219:40,1,166.5,2|0,3:2|0:0,0:0:0:0:
221,150,82675,1,0,0:0:0:0:
226,165,82776,2,0,P|145:143|66:166,1,166.5,8|2,2:2|2:2,0:0:0:0:
55,245,83080,1,10,2:2:0:0:
49,257,83182,2,0,B|93:264|113:308|113:308|109:260|138:233,1,166.5,2|0,3:2|0:0,0:0:0:0:
25,244,83486,5,2,2:2:0:0:
15,251,83587,2,0,L|7:278,1,24.9749992378235,8|0,2:2|0:0,0:0:0:0:
214,275,83790,2,0,P|115:163|84:62,1,249.75,6|0,3:2|0:0,0:0:0:0:
141,12,84195,6,0,P|174:35|180:75,1,83.25,2|0,3:2|0:0,0:0:0:0:
20,86,84398,1,8,2:2:0:0:
49,64,84499,1,8,2:2:0:0:
85,69,84600,1,0,3:3:0:0:
108,101,84702,1,0,3:3:0:0:
53,158,84803,5,2,3:2:0:0:
265,9,85107,1,0,3:3:0:0:
492,89,85411,6,0,P|469:65|390:83,1,99.899996951294,2|0,3:2|0:0,0:0:0:0:
434,192,85715,1,0,3:3:0:0:
450,188,85817,2,0,P|447:166|422:145,1,49.949998475647,8|8,2:2|2:2,0:0:0:0:
344,113,86019,1,0,3:3:0:0:
335,123,86121,1,0,3:3:0:0:
348,126,86222,1,4,2:3:0:0:
137,133,86425,5,8,2:2:0:0:
143,144,86527,2,0,P|167:140|184:123,1,49.949998475647,8|0,2:2|3:3,0:0:0:0:
289,184,86729,1,0,3:3:0:0:
278,190,86831,2,0,P|260:171|258:147,1,49.949998475647,8|0,2:2|0:0,0:0:0:0:
222,46,87033,2,0,B|266:265|77:325|-39:266|-67:171|26:104|141:181|169:261|169:261|191:325|115:379|92:363|78:333|124:311|166:331,1,799.199975610352,6|2,3:2|0:0,0:0:0:0:
