osu file format v14

[General]
AudioFilename: audio.mp3
AudioLeadIn: 0
PreviewTime: 48782
Countdown: 0
SampleSet: Soft
StackLeniency: 0.5
Mode: 0
LetterboxInBreaks: 0
WidescreenStoryboard: 1

[Editor]
Bookmarks: 27923
DistanceSpacing: 0.9
BeatDivisor: 2
GridSize: 4
TimelineZoom: 2.5

[Metadata]
Title:Sacrifice (TV Size)
TitleUnicode:サクリファイス (TV Size)
Artist:mafumafu
ArtistUnicode:まふまふ
Creator:HakuYT
Version:Normal
Source:かつて神だった獣たちへ
Tags:op opening kagura iro artifact album jrock j-rock japanese rock to the abandoned sacred beasts katsute kami datta kemono-tachi anime suyuko NoFC torriru
BeatmapID:3202452
BeatmapSetID:1564631

[Difficulty]
HPDrainRate:3
CircleSize:3
OverallDifficulty:4
ApproachRate:5
SliderMultiplier:1.1
SliderTickRate:1

[Events]
//Background and Video events
0,0,"bg.jpg",0,0
//Break Periods
2,13436,18286
//Storyboard Layer 0 (Background)
//Storyboard Layer 1 (Fail)
//Storyboard Layer 2 (Pass)
//Storyboard Layer 3 (Foreground)
//Storyboard Layer 4 (Overlay)
//Storyboard Sound Samples

[TimingPoints]
736,312.5,4,2,1,70,1,0
736,-100,4,2,1,70,0,0
3079,-100,4,2,1,70,0,0
11673,-100,4,2,1,70,0,0
12689,-100,4,2,1,5,0,0
12767,-100,4,2,1,65,0,0
13236,-100,4,2,1,60,0,0
17220,-100,4,2,1,5,0,0
17298,-100,4,2,1,60,0,0
23236,-100,4,2,1,65,0,0
25423,-100,4,2,1,70,0,0
25657,-100,4,2,1,5,0,0
25736,-100,4,2,1,70,0,0
25970,-100,4,2,1,5,0,0
26049,-100,4,2,1,70,0,0
28470,-100,4,2,1,5,0,0
28549,-100,4,2,1,70,0,0
30970,-100,4,2,1,5,0,0
31046,-100,4,2,1,70,0,0
31282,-100,4,2,1,5,0,0
31517,-100,4,2,1,70,0,0
31595,-100,4,2,1,5,0,0
31829,-100,4,2,1,70,0,0
32064,-100,4,2,1,5,0,0
32142,-100,4,2,1,70,0,0
34486,-100,4,2,1,70,0,0
36907,-100,4,2,1,5,0,0
36986,-100,4,2,1,70,0,0
39407,-100,4,2,1,5,0,0
39486,-100,4,2,1,70,0,0
41907,-100,4,2,1,5,0,0
41986,-100,4,2,1,70,0,0
48314,-100,4,2,1,5,0,0
48392,-100,4,2,1,70,0,0
48861,-100,4,2,1,70,0,0
48939,-100,4,2,1,5,0,0
49017,-100,4,2,1,70,0,0
49251,-100,4,2,1,5,0,0
49329,-100,4,2,1,80,0,1
69329,-100,4,2,1,70,0,0
71282,-100,4,2,1,5,0,0
71361,-100,4,2,1,70,0,0
74329,-100,4,2,1,70,0,0
74798,-100,4,2,1,80,0,1
75892,-100,4,2,1,65,0,0
76751,-100,4,2,1,5,0,0
76829,-100,4,2,1,70,0,0
88236,-100,4,2,1,5,0,0

[Colours]
Combo1 : 255,163,70
Combo2 : 255,89,89
Combo3 : 255,130,192

[HitObjects]
84,45,736,6,0,B|59:83|59:83|87:180,1,110,8|8,0:0|0:0,0:0:0:0:
121,233,1361,1,8,1:3:0:0:
188,160,1673,1,8,1:3:0:0:
188,160,1829,2,0,L|319:151,1,110,8|0,0:0|1:0,0:0:0:0:
347,148,2298,1,8,0:0:0:0:
424,209,2611,1,4,1:3:0:0:
360,286,2923,1,8,0:0:0:0:
360,286,3079,6,0,B|319:264|319:264|209:295,1,110,6|0,1:2|1:2,0:0:0:0:
211,298,3548,1,10,0:2:0:0:
131,357,3861,2,0,L|20:324,1,110,2|10,1:2|0:2,0:0:0:0:
52,230,4486,2,0,L|157:198,1,110,2|10,1:2|0:2,0:0:0:0:
253,172,5111,1,2,1:2:0:0:
186,98,5423,1,10,0:2:0:0:
272,49,5736,6,0,P|324:39|388:77,1,110,2|10,1:2|0:2,0:0:0:0:
457,116,6361,1,2,1:2:0:0:
401,198,6673,1,10,0:2:0:0:
401,198,6829,2,0,B|381:241|381:241|409:321,1,110,0|0,0:2|0:2,0:0:0:0:
416,347,7298,1,10,0:2:0:0:
316,342,7611,2,0,L|247:355,1,55,2|8,1:2|0:2,0:0:0:0:
213,363,7923,1,8,0:2:0:0:
213,363,8079,6,0,P|178:318|195:251,1,110,4|0,1:2|1:2,0:0:0:0:
200,221,8548,1,10,0:2:0:0:
149,135,8861,2,0,L|41:156,1,110,2|10,1:2|0:2,0:0:0:0:
7,250,9486,2,0,L|28:357,1,110,2|10,1:2|0:2,0:0:0:0:
127,369,10111,2,0,L|193:355,1,55,2|8,1:2|0:2,0:0:0:0:
226,338,10423,2,0,L|295:345,1,55,2|8,1:2|1:3,0:0:0:0:
330,348,10736,6,0,P|359:296|323:216,1,110,6|8,1:2|0:2,0:0:0:0:
318,211,11204,2,0,P|290:164|296:111,1,110,6|8,1:2|0:2,0:0:0:0:
312,64,11673,1,4,1:2:0:0:
256,192,11829,12,2,13236,0:2:0:0:
256,192,19486,12,2,21986,0:2:0:0:
309,63,23236,6,0,L|429:86,1,110,2|0,1:2|1:2,0:0:0:0:
469,167,23861,2,0,L|349:190,1,110,2|2,1:2|1:2,0:0:0:0:
273,235,24486,1,0,1:2:0:0:
217,153,24798,1,0,1:2:0:0:
154,230,25111,2,0,L|85:242,1,55,0|8,1:2|0:2,0:0:0:0:
51,250,25423,1,10,1:3:0:0:
99,336,25736,6,0,L|219:349,1,110,6|10,1:2|0:2,0:0:0:0:
257,349,26204,1,10,1:3:0:0:
344,302,26517,1,10,1:3:0:0:
425,357,26829,2,0,P|456:312|421:239,1,110,6|0,1:2|1:2,0:0:0:0:
419,218,27298,1,10,0:2:0:0:
320,205,27611,2,0,L|308:131,1,55,0|0,1:2|1:2,0:0:0:0:
269,124,27923,2,0,L|281:50,1,55,10|8,0:2|0:2,0:0:0:0:
242,34,28236,6,0,B|192:13|192:13|103:42,1,110,6|10,1:2|0:2,0:0:0:0:
105,66,28704,2,0,L|90:183,1,110,6|2,1:2|1:2,0:0:0:0:
87,224,29173,1,10,0:2:0:0:
171,276,29486,2,0,P|235:290|286:264,1,110,6|10,1:2|0:2,0:0:0:0:
316,247,29954,2,0,P|380:233|431:259,1,110,6|2,1:2|1:2,0:0:0:0:
454,284,30423,1,10,0:2:0:0:
406,371,30736,6,0,L|296:360,1,110,6|10,1:2|0:2,0:0:0:0:
247,355,31204,1,6,1:2:0:0:
148,344,31517,1,6,1:2:0:0:
49,333,31829,2,0,B|26:293|26:293|60:189,1,110,6|2,1:2|1:2,0:0:0:0:
67,187,32298,2,0,L|190:170,1,110,2|0,1:2|1:2,0:0:0:0:
230,254,32923,6,0,L|353:237,1,110,0|8,1:2|0:2,0:0:0:0:
435,262,33548,1,8,0:2:0:0:
471,169,33861,2,0,L|478:108,1,55,12|8,0:2|0:2,0:0:0:0:
437,85,34173,2,0,L|430:24,1,55,12|8,0:2|0:2,0:0:0:0:
382,18,34486,2,0,L|264:29,1,110,6|8,1:2|0:2,0:0:0:0:
230,54,34954,2,0,L|112:65,1,110,6|0,1:2|1:2,0:0:0:0:
71,70,35423,1,8,0:2:0:0:
27,158,35736,6,0,L|38:229,1,55,0|0,1:2|1:2,0:0:0:0:
48,260,36048,2,0,P|92:287|162:260,1,110,8|0,0:2|1:2,0:0:0:0:
238,239,36673,1,8,0:2:0:0:
316,299,36986,2,0,P|342:242|312:173,1,110,6|8,1:2|0:2,0:0:0:0:
296,162,37454,2,0,P|270:114|279:60,1,110,6|0,1:2|1:2,0:0:0:0:
309,20,37923,1,8,0:2:0:0:
385,82,38236,6,0,L|455:73,1,55,0|0,1:2|1:2,0:0:0:0:
488,66,38548,2,0,B|511:103|511:103|473:209,1,110,8|0,0:2|1:2,0:0:0:0:
463,261,39173,1,8,0:2:0:0:
434,355,39486,2,0,L|289:328,1,110,6|8,1:2|0:2,0:0:0:0:
286,305,39954,2,0,L|141:332,1,110,6|0,1:2|1:2,0:0:0:0:
130,338,40423,1,8,0:2:0:0:
64,263,40736,6,0,P|104:222|160:217,1,110,2|10,1:2|0:2,0:0:0:0:
206,131,41361,2,0,P|242:170|296:178,1,110,10|10,0:2|0:2,0:0:0:0:
395,175,41986,2,0,L|415:58,1,110,6|8,1:2|0:2,0:0:0:0:
421,17,42454,1,6,1:2:0:0:
324,41,42767,2,0,L|258:26,1,55,2|10,1:2|0:2,0:0:0:0:
222,17,43079,6,0,L|94:32,1,110,6|2,1:2|1:2,0:0:0:0:
63,39,43548,1,10,0:2:0:0:
63,39,43704,2,0,B|40:85|40:85|69:174,1,110,6|0,1:2|1:2,0:0:0:0:
140,195,44329,2,0,L|120:308,1,110,6|2,1:2|1:2,0:0:0:0:
116,352,44798,1,10,0:2:0:0:
214,342,45111,1,2,1:2:0:0:
311,359,45423,6,0,L|331:240,1,110,10|2,0:2|1:2,0:0:0:0:
272,168,46048,2,0,L|252:49,1,110,8|0,0:2|1:2,0:0:0:0:
333,0,46673,1,10,0:2:0:0:
388,81,46986,2,0,L|464:68,1,55,6|0,1:2|1:2,0:0:0:0:
491,66,47298,2,0,P|516:123|469:173,1,110,8|8,0:2|1:3,0:0:0:0:
445,246,47923,1,0,1:2:0:0:
445,246,48079,2,0,L|303:232,1,110,12|8,0:2|0:2,0:0:0:0:
286,230,48548,1,8,0:2:0:0:
71,353,49329,6,0,B|49:312|49:312|87:210,1,110,6|0,1:2|1:2,0:0:0:0:
143,184,49954,2,0,L|130:51,1,110,2|2,0:2|1:2,0:0:0:0:
128,24,50423,1,10,0:2:0:0:
128,24,50579,2,0,P|186:11|233:36,1,110,6|0,1:2|1:2,0:0:0:0:
266,65,51048,1,10,0:2:0:0:
359,31,51361,1,2,1:2:0:0:
448,78,51673,1,10,0:2:0:0:
448,78,51829,6,0,L|468:201,1,110,6|0,1:2|1:2,0:0:0:0:
476,235,52298,1,10,0:2:0:0:
476,235,52454,1,6,1:2:0:0:
387,279,52767,2,0,L|375:219,1,55,2|10,1:2|0:2,0:0:0:0:
364,177,53079,2,0,B|315:153|315:153|234:185,1,110,6|0,1:2|1:2,0:0:0:0:
222,200,53548,2,0,L|241:280,1,55,8|4,0:0|1:2,0:0:0:0:
134,344,54173,1,10,0:2:0:0:
134,344,54329,6,0,P|79:361|15:315,1,110,6|2,1:2|0:2,0:0:0:0:
5,302,54798,1,10,0:2:0:0:
51,214,55111,2,0,L|36:99,1,110,2|10,1:2|0:2,0:0:0:0:
40,55,55579,2,0,P|87:21|152:30,1,110,2|2,0:2|0:2,0:0:0:0:
172,65,56048,1,10,0:2:0:0:
172,65,56204,1,2,0:2:0:0:
257,26,56517,2,0,L|322:38,1,55,2|10,0:2|0:2,0:0:0:0:
354,59,56829,6,0,B|371:95|371:95|349:184,1,110,6|2,1:2|1:2,0:0:0:0:
344,211,57298,1,8,0:2:0:0:
404,289,57611,1,2,1:2:0:0:
477,223,57923,1,10,0:2:0:0:
477,223,58079,2,0,L|496:106,1,110,6|2,1:2|1:2,0:0:0:0:
500,65,58548,2,0,L|442:57,1,55,10|2,0:2|1:2,0:0:0:0:
405,28,58861,2,0,L|347:36,1,55,8|10,0:0|0:0,0:0:0:0:
302,46,59173,1,10,0:0:0:0:
302,46,59329,6,0,L|175:35,1,110,6|0,1:2|1:2,0:0:0:0:
142,32,59798,1,8,0:2:0:0:
69,99,60111,2,0,L|57:163,1,55,2|2,1:2|1:2,0:0:0:0:
48,201,60423,1,10,0:2:0:0:
48,201,60579,2,0,L|71:329,1,110,6|0,1:2|1:2,0:0:0:0:
75,358,61048,1,10,0:2:0:0:
170,332,61361,1,2,1:2:0:0:
259,374,61673,1,10,0:2:0:0:
259,374,61829,6,0,P|267:293|217:249,1,110,6|2,1:2|1:2,0:0:0:0:
219,236,62298,1,10,0:2:0:0:
219,236,62454,1,6,1:2:0:0:
262,146,62767,2,0,L|347:133,1,55,2|10,1:2|0:2,0:0:0:0:
365,134,63079,2,0,B|384:177|384:177|358:249,1,110,6|0,1:2|1:2,0:0:0:0:
369,290,63548,1,8,0:2:0:0:
369,290,63704,2,0,P|405:328|470:323,1,110,4|2,1:2|1:2,0:0:0:0:
478,285,64173,1,10,0:2:0:0:
478,285,64329,6,0,B|459:242|459:242|480:182,1,110,6|2,1:2|1:2,0:0:0:0:
499,136,64798,1,10,0:2:0:0:
447,51,65111,2,0,L|363:39,1,55,6|0,1:2|1:2,0:0:0:0:
347,39,65423,1,10,0:2:0:0:
347,39,65579,2,0,P|300:78|305:146,1,110,6|2,1:2|1:2,0:0:0:0:
303,171,66048,1,10,0:2:0:0:
255,257,66361,2,0,L|174:247,1,55,4|2,1:2|1:2,0:0:0:0:
151,247,66673,1,10,0:2:0:0:
151,247,66829,6,0,L|128:125,1,110,6|2,1:2|1:2,0:0:0:0:
121,90,67298,1,14,0:2:0:0:
49,21,67611,1,14,0:2:0:0:
10,111,67923,1,14,0:2:0:0:
10,111,68079,2,0,L|30:219,1,110,6|0,1:2|1:2,0:0:0:0:
38,268,68548,1,12,0:2:0:0:
18,365,68861,1,12,0:2:0:0:
116,358,69173,1,12,0:2:0:0:
116,358,69329,6,0,L|236:341,1,110,4|0,1:2|1:2,0:0:0:0:
274,337,69798,1,8,0:2:0:0:
368,367,70111,2,0,P|372:299|332:265,1,110,2|8,1:2|0:2,0:0:0:0:
307,239,70579,2,0,P|275:195|284:143,1,110,2|0,1:2|1:2,0:0:0:0:
303,97,71048,1,8,0:2:0:0:
375,28,71361,2,0,L|434:35,1,55,2|2,1:2|1:2,0:0:0:0:
482,46,71673,1,10,0:2:0:0:
482,46,71829,6,0,L|468:161,1,110,6|2,1:2|1:2,0:0:0:0:
464,204,72298,1,10,0:2:0:0:
372,166,72611,1,2,1:2:0:0:
281,206,72923,1,10,0:2:0:0:
281,206,73079,2,0,L|146:192,1,110,6|0,1:2|1:2,0:0:0:0:
121,193,73548,1,10,0:0:0:0:
44,255,73861,1,0,1:2:0:0:
44,255,74017,2,0,L|64:326,1,55,2|10,1:2|0:2,0:0:0:0:
73,355,74329,6,0,P|125:327|187:340,1,110,6|2,1:2|1:2,0:0:0:0:
211,365,74798,1,14,0:2:0:0:
296,317,75111,1,14,0:2:0:0:
375,375,75423,2,0,L|429:369,1,55,14|10,0:0|1:3,0:0:0:0:
482,364,75736,1,14,0:2:0:0:
482,364,75892,1,8,0:2:0:0:
430,68,76829,6,0,L|407:201,1,110,6|0,1:2|1:2,0:0:0:0:
403,225,77298,1,10,0:2:0:0:
308,253,77611,2,0,P|253:242|223:183,1,110,2|10,1:2|0:2,0:0:0:0:
201,102,78236,2,0,P|170:57|117:48,1,110,2|10,1:2|0:2,0:0:0:0:
29,92,78861,1,2,1:2:0:0:
88,171,79173,1,10,0:2:0:0:
13,236,79486,6,0,L|35:347,1,110,2|10,1:2|0:2,0:0:0:0:
129,372,80111,1,2,1:2:0:0:
189,293,80423,1,10,0:2:0:0:
189,293,80579,2,0,L|203:161,1,110,2|0,0:2|0:2,0:0:0:0:
206,134,81048,1,10,0:2:0:0:
277,64,81361,2,0,L|367:52,1,55,2|8,1:2|0:2,0:0:0:0:
384,54,81673,1,8,0:2:0:0:
384,54,81829,6,0,B|406:102|406:102|378:171,1,110,4|0,1:2|1:2,0:0:0:0:
365,200,82298,1,10,0:2:0:0:
383,297,82611,2,0,P|421:334|485:330,1,110,2|10,1:2|0:2,0:0:0:0:
506,240,83236,2,0,L|494:115,1,110,2|10,1:2|0:2,0:0:0:0:
445,44,83861,2,0,L|374:34,1,55,2|8,1:2|0:2,0:0:0:0:
342,26,84173,2,0,L|271:36,1,55,2|8,1:2|1:3,0:0:0:0:
245,60,84486,6,0,L|223:177,1,110,6|8,1:2|0:2,0:0:0:0:
197,209,84954,2,0,L|217:317,1,110,6|8,1:2|0:2,0:0:0:0:
225,366,85423,1,6,1:2:0:0:
256,192,85579,12,0,88236,0:2:0:0:
