osu file format v14

[General]
AudioFilename: audio.mp3
AudioLeadIn: 0
PreviewTime: 48782
Countdown: 0
SampleSet: Soft
StackLeniency: 0.5
Mode: 0
LetterboxInBreaks: 0
WidescreenStoryboard: 0

[Editor]
DistanceSpacing: 0.8
BeatDivisor: 4
GridSize: 4
TimelineZoom: 2.5

[Metadata]
Title:Sacrifice (TV Size)
TitleUnicode:サクリファイス (TV Size)
Artist:mafumafu
ArtistUnicode:まふまふ
Creator:HakuYT
Version:Fate
Source:かつて神だった獣たちへ
Tags:op opening kagura iro artifact album jrock j-rock japanese rock to the abandoned sacred beasts katsute kami datta kemono-tachi anime suyuko NoFC torriru
BeatmapID:3195143
BeatmapSetID:1564631

[Difficulty]
HPDrainRate:5.5
CircleSize:4
OverallDifficulty:9.2
ApproachRate:9.3
SliderMultiplier:1.8
SliderTickRate:1

[Events]
//Background and Video events
0,0,"bg.jpg",0,0
//Break Periods
//Storyboard Layer 0 (Background)
//Storyboard Layer 1 (Fail)
//Storyboard Layer 2 (Pass)
//Storyboard Layer 3 (Foreground)
//Storyboard Layer 4 (Overlay)
//Storyboard Sound Samples

[TimingPoints]
736,312.5,4,2,1,70,1,0
736,-100,4,2,1,70,0,0
3079,-100,4,2,1,70,0,0
11673,-222.222222222222,4,2,1,70,0,0
12689,-222.222222222222,4,2,1,5,0,0
12767,-222.222222222222,4,2,1,65,0,0
13236,-153.846153846153,4,2,1,50,0,0
17220,-153.846153846153,4,2,1,5,0,0
17298,-153.846153846153,4,2,1,50,0,0
23236,-117.647058823529,4,2,1,65,0,0
25423,-100,4,2,1,70,0,0
25657,-100,4,2,1,5,0,0
25736,-100,4,2,1,70,0,0
25970,-100,4,2,1,5,0,0
26049,-100,4,2,1,70,0,0
28470,-100,4,2,1,5,0,0
28549,-100,4,2,1,70,0,0
30970,-100,4,2,1,5,0,0
31046,-100,4,2,1,70,0,0
31282,-100,4,2,1,5,0,0
31517,-100,4,2,1,70,0,0
31595,-100,4,2,1,5,0,0
31829,-181.818181818181,4,2,1,70,0,0
32064,-181.818181818181,4,2,1,5,0,0
32142,-100,4,2,1,70,0,0
34486,-111.111111111111,4,2,1,70,0,0
36907,-111.111111111111,4,2,1,5,0,0
36986,-111.111111111111,4,2,1,70,0,0
39407,-111.111111111111,4,2,1,5,0,0
39486,-111.111111111111,4,2,1,70,0,0
41907,-111.111111111111,4,2,1,5,0,0
41986,-100,4,2,1,70,0,0
48314,-100,4,2,1,5,0,0
48392,-100,4,2,1,70,0,0
48861,-83.3333333333333,4,2,1,70,0,0
48939,-83.3333333333333,4,2,1,5,0,0
49017,-181.818181818181,4,2,1,70,0,0
49251,-181.818181818181,4,2,1,5,0,0
49329,-83.3333333333333,4,2,1,80,0,1
69329,-111.111111111111,4,2,1,70,0,0
71282,-111.111111111111,4,2,1,5,0,0
71361,-111.111111111111,4,2,1,70,0,0
74329,-100,4,2,1,70,0,0
74798,-90.9090909090909,4,2,1,80,0,1
75892,-181.818181818181,4,2,1,65,0,0
76751,-181.818181818181,4,2,1,5,0,0
76829,-100,4,2,1,70,0,0
88236,-100,4,2,1,5,0,0

[Colours]
Combo1 : 255,163,70
Combo2 : 255,89,89
Combo3 : 255,130,192

[HitObjects]
68,26,736,5,8,0:0:0:0:
68,26,814,1,8,0:0:0:0:
68,26,892,2,0,L|80:94,1,45,0|0,1:2|1:2,0:0:0:0:
193,250,1048,1,8,0:0:0:0:
193,250,1126,1,8,0:0:0:0:
193,250,1204,2,0,L|205:182,1,45,0|0,1:0|1:0,0:0:0:0:
292,26,1361,5,8,1:3:0:0:
324,12,1439,1,8,1:3:0:0:
360,14,1517,1,0,1:2:0:0:
391,31,1595,1,0,1:2:0:0:
411,61,1673,1,8,1:3:0:0:
417,96,1751,1,8,1:3:0:0:
406,130,1829,2,0,L|374:312,1,180,8|0,0:0|1:0,0:0:0:0:
215,359,2298,5,8,0:0:0:0:
175,348,2376,1,8,0:0:0:0:
136,338,2454,1,0,1:0:0:0:
96,328,2532,1,0,1:0:0:0:
57,318,2611,2,0,L|47:253,1,45,4|4,1:3|1:3,0:0:0:0:
217,123,2767,2,0,L|205:187,1,45,0|0,1:2|1:2,0:0:0:0:
329,381,2923,1,8,0:0:0:0:
125,177,3079,6,0,P|178:249|286:225,1,180,6|0,1:2|1:2,0:2:0:0:
361,32,3548,2,0,L|342:133,1,90,10|0,0:2|0:2,0:2:0:0:
455,326,3861,2,0,L|471:237,1,90,2|0,1:2|0:2,0:2:0:0:
285,169,4173,1,10,0:2:0:0:
329,378,4329,6,0,B|248:364|248:364|231:375|231:375|144:360,1,180,2|0,0:2|0:2,0:2:0:0:
22,218,4798,1,10,0:2:0:0:
182,155,4954,1,0,0:2:0:0:
59,349,5111,1,2,1:2:0:0:
214,286,5267,1,0,0:2:0:0:
84,132,5423,1,10,0:2:0:0:
128,284,5579,1,0,0:2:0:0:
249,78,5736,6,0,L|150:57,1,90,2|0,1:2|0:2,0:2:0:0:
292,253,6048,2,0,L|380:234,1,90,10|0,0:2|0:2,0:2:0:0:
419,15,6361,2,0,L|440:114,1,90,2|0,1:2|0:2,0:2:0:0:
512,292,6673,1,10,0:2:0:0:
342,141,6829,6,0,B|277:139|238:186|238:186|271:162|310:175,1,180,2|0,0:2|0:2,0:2:0:0:
348,365,7298,1,10,0:2:0:0:
465,211,7454,1,0,0:2:0:0:
262,295,7611,1,2,1:2:0:0:
423,125,7767,1,8,0:2:0:0:
423,80,7845,1,8,0:2:0:0:
396,46,7923,1,8,0:2:0:0:
353,35,8001,1,8,0:2:0:0:
313,55,8079,6,0,B|206:21|254:125|140:103,1,180,4|0,1:2|1:2,0:2:0:0:
0,240,8548,2,0,P|37:214|94:220,1,90,10|0,0:2|0:2,0:2:0:0:
252,383,8861,2,0,P|210:363|187:311,1,90,2|0,1:2|0:2,0:2:0:0:
249,93,9173,2,0,P|253:138|219:184,1,90,10|0,0:2|0:2,0:2:0:0:
353,332,9486,6,0,L|455:319,1,90,2|0,1:2|0:2,0:2:0:0:
169,225,9798,2,0,L|67:212,1,90,10|0,0:2|0:2,0:2:0:0:
341,106,10111,1,2,1:2:0:0:
261,304,10267,1,8,0:2:0:0:
153,113,10423,1,2,1:2:0:0:
392,203,10579,1,8,1:3:0:0:
392,203,10657,1,8,1:3:0:0:
392,203,10736,5,6,1:2:0:0:
232,32,10892,1,0,1:2:0:0:
171,281,11048,1,8,0:2:0:0:
338,66,11204,5,6,1:2:0:0:
254,349,11361,1,0,1:2:0:0:
119,125,11517,1,8,0:2:0:0:
341,347,11673,6,0,B|388:305|449:341|449:341|513:263|446:199,1,263.249991966248,4|0,1:2|0:2,0:2:0:0:
390,152,12767,5,2,0:2:0:0:
346,229,12923,1,2,0:2:0:0:
283,168,13079,1,2,0:2:0:0:
210,250,13236,6,0,B|166:243|166:243|143:251|143:251|73:240,1,116.999994644165,2|0,0:2|0:2,0:2:0:0:
198,167,13704,2,0,B|154:160|154:160|131:168|131:168|61:157,1,116.999994644165,2|2,0:2|0:2,0:2:0:0:
4,89,14173,1,2,0:2:0:0:
98,22,14329,6,0,L|109:93,1,58.4999973220826,2|0,0:2|0:2,0:2:0:0:
201,23,14642,2,0,L|190:94,1,58.4999973220826,2|0,0:2|0:2,0:2:0:0:
287,28,14954,2,0,L|303:162,1,116.999994644165,2|0,0:2|0:2,0:2:0:0:
352,223,15423,1,2,0:2:0:0:
143,264,15736,6,0,B|185:240|185:240|270:263,1,116.999994644165,2|0,0:2|0:2,0:2:0:0:
371,328,16204,5,2,0:2:0:0:
300,146,16517,5,2,0:2:0:0:
457,244,16829,5,2,0:2:0:0:
457,244,16907,1,0,0:2:0:0:
457,244,16986,2,0,L|469:147,1,87.749995983124,2|0,0:2|0:2,0:2:0:0:
387,122,17298,2,0,L|370:258,1,116.999994644165,2|0,0:2|0:2,0:2:0:0:
258,358,17923,5,2,0:2:0:0:
165,227,18236,6,0,B|151:180|151:180|195:102,1,116.999994644165,2|0,0:2|0:2,0:2:0:0:
278,79,18704,2,0,P|266:52|245:32,1,58.4999973220826,2|0,0:2|0:2,0:2:0:0:
152,1,19017,2,0,P|123:3|97:17,1,58.4999973220826,2|0,0:2|0:2,0:2:0:0:
17,118,19329,1,2,0:2:0:0:
17,118,19486,6,0,L|2:246,1,116.999994644165,2|0,0:2|0:2,0:2:0:0:
151,343,20111,2,0,L|164:226,1,116.999994644165,2|2,0:2|0:2,0:2:0:0:
312,113,20736,6,0,P|343:95|388:102,1,58.4999973220826,2|0,0:2|0:2,0:2:0:0:
467,203,21048,2,0,P|435:185|419:142,1,58.4999973220826,2|0,0:2|0:2,0:2:0:0:
467,23,21361,2,0,P|467:58|438:94,1,58.4999973220826,2|0,0:2|0:2,0:2:0:0:
334,201,21673,1,2,0:2:0:0:
423,167,21829,1,2,0:2:0:0:
399,271,21986,1,2,0:2:0:0:
345,99,22454,6,0,L|355:129,4,19.4999991073609,0|0|0|0|0,0:2|0:2|0:2|0:2|0:2,0:2:0:0:
308,75,22767,2,0,L|329:5,1,58.4999973220826,2|2,0:2|0:2,0:2:0:0:
219,23,23079,1,2,0:2:0:0:
193,145,23236,6,0,L|208:240,1,76.5000014591217,2|0,1:2|0:2,0:2:0:0:
317,277,23548,2,0,L|332:182,1,76.5000014591217,0|2,1:2|0:2,0:2:0:0:
232,366,23861,1,2,1:2:0:0:
383,342,24017,1,2,0:2:0:0:
223,270,24173,1,2,1:2:0:0:
385,246,24329,6,0,P|360:213|308:201,1,76.5000014591217,2|0,0:2|1:2,0:2:0:0:
136,190,24642,2,0,P|170:175|192:144,1,76.5000014591217,2|0,0:2|1:2,0:2:0:0:
301,22,24954,2,0,P|322:52|357:67,1,76.5000014591217,2|0,0:2|1:2,0:2:0:0:
223,270,25267,1,8,0:2:0:0:
460,163,25423,2,0,B|497:199|497:199|456:312,1,135,10|0,1:3|0:2,0:2:0:0:
416,364,25736,6,0,B|358:355|358:355|345:341|345:341|281:330,1,135,6|0,1:2|0:2,0:2:0:0:
207,358,26048,1,10,0:2:0:0:
207,358,26126,1,8,1:3:0:0:
207,358,26204,1,10,1:3:0:0:
394,224,26361,1,8,0:2:0:0:
394,224,26439,1,8,1:3:0:0:
394,224,26517,1,10,1:3:0:0:
144,213,26673,1,0,1:2:0:0:
297,25,26829,6,0,B|334:70|334:70|270:213,1,180,6|0,1:2|1:2,0:2:0:0:
96,372,27298,2,0,L|81:271,1,90,10|0,0:2|0:2,0:2:0:0:
20,125,27611,1,0,1:2:0:0:
262,261,27767,1,0,1:2:0:0:
161,33,27923,1,10,0:2:0:0:
156,77,28001,1,8,0:2:0:0:
152,122,28079,1,8,0:2:0:0:
148,167,28157,1,8,0:2:0:0:
143,212,28236,6,0,B|230:208|183:263|276:262,1,135,6|0,1:2|0:2,0:2:0:0:
354,265,28548,1,10,0:2:0:0:
382,53,28704,2,0,P|306:61|281:157,1,180,6|2,1:2|1:2,0:2:0:0:
312,368,29173,1,10,0:2:0:0:
400,173,29329,1,2,0:2:0:0:
246,284,29486,6,0,L|132:263,1,90,6|0,1:2|1:2,0:2:0:0:
19,155,29798,1,10,0:2:0:0:
226,169,29954,2,0,L|314:152,1,90,6|0,1:2|0:2,0:2:0:0:
43,279,30267,1,2,1:2:0:0:
43,279,30345,1,0,1:2:0:0:
43,279,30423,1,10,0:2:0:0:
253,364,30579,1,2,1:2:0:0:
106,167,30736,6,0,P|127:99|210:90,1,135,6|0,1:2|0:2,0:2:0:0:
262,84,31048,1,10,0:2:0:0:
171,288,31204,6,0,L|161:233,1,45,6|0,1:2|0:2,0:2:0:0:
408,128,31517,6,0,L|399:172,1,45,6|0,1:2|0:2,0:2:0:0:
253,364,31829,6,0,L|338:357,1,74.2500022659302,6|0,1:2|0:2,0:2:0:0:
413,353,32142,5,2,1:2:0:0:
321,268,32298,1,2,1:2:0:0:
446,269,32454,1,0,1:2:0:0:
408,128,32611,1,0,1:2:0:0:
321,268,32767,1,0,1:2:0:0:
307,70,32923,1,0,1:2:0:0:
209,285,33079,1,0,1:2:0:0:
146,40,33236,5,8,0:2:0:0:
42,305,33392,1,8,0:2:0:0:
291,178,33548,1,8,0:2:0:0:
17,83,33704,1,8,0:2:0:0:
134,380,33861,5,12,0:2:0:0:
178,376,33939,1,8,0:2:0:0:
223,373,34017,1,8,0:2:0:0:
268,370,34095,1,8,0:2:0:0:
300,338,34173,5,12,0:2:0:0:
344,341,34251,1,8,0:2:0:0:
389,344,34329,1,8,0:2:0:0:
434,347,34407,1,8,0:2:0:0:
479,350,34486,6,0,B|509:294|509:294|459:195,1,161.999995056153,6|8,1:2|0:2,0:2:0:0:
196,224,34954,2,0,B|252:254|252:254|351:204,1,161.999995056153,6|0,1:2|1:2,0:2:0:0:
451,99,35423,1,8,0:2:0:0:
247,144,35579,5,0,0:2:0:0:
247,144,35657,1,0,0:2:0:0:
247,144,35736,2,0,L|231:93,3,40.4999987640381,0|0|0|0,1:2|0:2|1:2|0:2,0:2:0:0:
152,46,36048,2,0,L|139:84,3,40.4999987640381,8|0|0|0,0:2|0:2|0:2|0:2,0:2:0:0:
40,88,36361,5,0,1:2:0:0:
47,127,36439,1,0,0:2:0:0:
54,167,36517,1,0,1:2:0:0:
61,207,36595,1,0,0:2:0:0:
68,247,36673,2,0,B|121:240|121:240|140:251|140:251|210:242,1,121.499996292114,8|0,0:2|0:2,0:2:0:0:
293,211,36986,6,0,P|277:283|354:318,1,161.999995056153,6|8,1:2|0:2,0:2:0:0:
448,145,37454,2,0,P|464:73|387:38,1,161.999995056153,6|0,1:2|1:2,0:2:0:0:
207,17,37923,5,8,0:2:0:0:
191,53,38001,1,0,0:2:0:0:
200,92,38079,1,0,0:2:0:0:
231,118,38157,1,0,0:2:0:0:
267,125,38236,5,0,1:2:0:0:
300,144,38314,1,0,0:2:0:0:
317,181,38392,1,0,1:2:0:0:
308,220,38470,1,0,0:2:0:0:
294,259,38548,2,0,L|312:312,3,40.4999987640381,8|0|0|0,0:2|0:2|0:2|0:2,0:2:0:0:
246,362,38861,5,0,1:2:0:0:
205,357,38939,1,0,0:2:0:0:
165,352,39017,1,0,1:2:0:0:
125,348,39095,1,0,0:2:0:0:
85,343,39173,2,0,B|58:298|58:298|103:203,1,121.499996292114,8|0,0:2|0:2,0:2:0:0:
39,153,39486,6,0,B|108:148|108:148|131:163|131:163|203:157,1,161.999995056153,6|8,1:2|0:2,0:2:0:0:
294,259,39954,2,0,B|288:193|288:193|303:170|303:170|298:101,1,161.999995056153,6|0,1:2|1:2,0:2:0:0:
164,11,40423,1,8,0:2:0:0:
379,97,40736,6,0,L|287:102,1,80.9999975280763,2|0,1:2|1:2,0:2:0:0:
87,235,41048,2,0,L|179:240,1,80.9999975280763,10|0,0:2|0:2,0:2:0:0:
331,354,41361,1,10,1:2:0:0:
331,354,41439,1,8,1:3:0:0:
331,354,41517,1,4,1:3:0:0:
277,134,41673,2,0,B|255:177|255:177|286:275,1,121.499996292114,10|0,0:2|0:2,0:2:0:0:
356,259,41986,6,0,B|463:237|414:344|533:319,1,180,6|8,1:2|0:2,0:2:0:0:
484,98,42454,2,0,L|470:202,1,90,6|0,1:2|0:2,0:2:0:0:
358,61,42767,1,2,1:2:0:0:
356,259,42923,1,10,0:2:0:0:
144,163,43079,6,0,L|332:138,1,180,6|2,1:2|1:2,0:2:0:0:
224,300,43548,1,10,0:2:0:0:
134,76,43704,2,0,P|58:129|76:221,1,180,6|0,1:2|1:2,0:2:0:0:
233,61,44173,1,8,0:2:0:0:
307,227,44329,6,0,L|322:138,1,90,6|0,1:2|0:2,0:2:0:0:
454,34,44642,1,2,1:2:0:0:
454,34,44720,1,0,1:2:0:0:
454,34,44798,1,10,0:2:0:0:
425,202,44954,1,2,0:2:0:0:
311,26,45111,2,0,P|266:33|229:67,1,90,2|0,1:2|0:2,0:2:0:0:
191,241,45423,1,10,0:2:0:0:
304,112,45579,1,2,0:2:0:0:
339,262,45736,6,0,L|321:359,1,90,2|0,1:2|0:2,0:2:0:0:
175,153,46048,2,0,L|193:250,1,90,8|0,0:2|0:2,0:2:0:0:
347,10,46361,2,0,L|329:107,1,90,0|0,1:2|0:2,0:2:0:0:
250,307,46673,1,10,0:2:0:0:
210,68,46829,1,10,0:2:0:0:
210,68,46907,1,8,0:2:0:0:
210,68,46986,5,6,1:2:0:0:
45,262,47142,1,0,1:2:0:0:
299,158,47298,1,8,0:2:0:0:
59,95,47454,1,0,1:2:0:0:
205,294,47611,1,8,1:3:0:0:
205,294,47689,1,4,1:3:0:0:
205,294,47767,2,0,L|270:306,1,45,0|0,1:2|1:2,0:2:0:0:
381,213,47923,2,0,L|425:204,1,45,0|0,1:2|1:2,0:2:0:0:
508,81,48079,6,0,P|476:23|394:23,1,135,12|0,0:2|0:2,0:2:0:0:
338,57,48392,1,8,0:2:0:0:
448,305,48548,1,8,0:2:0:0:
293,143,48861,6,0,L|279:207,1,53.9999983520508,2|0,0:2|0:2,0:2:0:0:
205,294,49017,6,0,L|183:204,1,74.2500022659302,2|0,0:2|0:2,0:2:0:0:
15,184,49329,6,0,B|167:214|71:98|232:134,1,215.999993408203,6|0,1:2|1:2,0:2:0:0:
358,315,49798,1,8,0:2:0:0:
272,36,49954,2,0,L|296:159,1,107.999996704102,2|0,0:2|1:2,0:2:0:0:
220,361,50267,1,2,1:2:0:0:
394,173,50423,1,10,0:2:0:0:
87,349,50579,6,0,B|119:272|200:279|200:279|151:285|132:346,1,215.999993408203,6|0,1:2|1:2,0:2:0:0:
463,224,51048,2,0,P|430:259|361:258,1,107.999996704102,10|0,0:2|0:2,0:2:0:0:
118,90,51361,2,0,P|170:92|208:129,1,107.999996704102,2|0,1:2|1:2,0:2:0:0:
220,361,51673,1,10,0:2:0:0:
302,147,51829,6,0,P|373:58|472:116,1,215.999993408203,6|0,1:2|1:2,0:2:0:0:
281,272,52298,1,10,0:2:0:0:
172,24,52454,2,0,B|206:81|206:81|153:233,1,215.999993408203,6|2,1:2|1:2,0:2:0:0:
44,382,52923,1,10,0:2:0:0:
277,356,53079,6,0,B|377:346|377:346|391:358|391:358|499:348,1,215.999993408203,6|0,1:2|1:2,0:2:0:0:
487,349,53470,1,0,1:2:0:0:
487,349,53548,1,8,0:2:0:0:
384,144,53704,2,0,P|414:237|509:198,1,215.999993408203,4|0,1:2|1:2,0:2:0:0:
319,43,54173,1,10,0:2:0:0:
293,241,54329,6,0,L|61:204,1,215.999993408203,6|2,1:2|0:2,0:2:0:0:
26,48,54798,1,10,0:2:0:0:
194,127,54954,1,2,0:2:0:0:
0,156,55111,2,0,P|-19:216|6:258,1,107.999996704102,2|0,1:2|0:2,0:2:0:0:
124,365,55423,1,10,0:2:0:0:
287,202,55579,6,0,L|271:308,1,107.999996704102,2|0,0:2|1:2,0:2:0:0:
194,127,55892,1,2,0:2:0:0:
409,225,56048,1,10,0:2:0:0:
187,224,56204,2,0,L|62:205,1,107.999996704102,2|0,0:2|1:2,0:2:0:0:
258,27,56517,1,2,0:2:0:0:
357,292,56673,1,10,0:2:0:0:
122,115,56829,6,0,B|227:103|227:103|238:111|238:111|347:99,1,215.999993408203,6|2,1:2|1:2,0:2:0:0:
70,346,57298,2,0,L|97:225,1,107.999996704102,8|2,0:2|0:2,0:2:0:0:
381,186,57611,2,0,L|357:291,1,107.999996704102,2|0,1:2|0:2,0:2:0:0:
147,384,57923,1,10,0:2:0:0:
471,191,58079,6,0,P|412:95|304:129,1,215.999993408203,6|2,1:2|1:2,0:2:0:0:
193,313,58548,1,10,0:2:0:0:
261,60,58704,1,2,1:2:0:0:
277,370,58861,1,8,0:0:0:0:
297,321,58939,1,8,0:0:0:0:
286,269,59017,1,10,0:0:0:0:
247,233,59095,1,8,0:0:0:0:
194,226,59173,1,10,0:0:0:0:
1,50,59329,6,0,B|149:20|47:134|220:105,1,215.999993408203,6|0,1:2|1:2,0:2:0:0:
443,65,59798,1,8,0:2:0:0:
247,233,59954,1,2,0:2:0:0:
357,12,60111,1,2,1:2:0:0:
396,302,60267,1,2,1:2:0:0:
287,83,60423,1,10,0:2:0:0:
288,338,60579,6,0,P|192:338|160:223,1,215.999993408203,6|0,1:2|1:2,0:2:0:0:
38,5,61048,2,0,P|6:41|14:106,1,107.999996704102,10|0,0:2|0:2,0:2:0:0:
234,205,61361,2,0,P|202:159|150:146,1,107.999996704102,2|0,1:2|1:2,0:2:0:0:
47,338,61673,1,10,0:2:0:0:
151,60,61829,6,0,B|244:54|244:54|266:66|266:66|368:60,1,215.999993408203,6|2,1:2|1:2,0:2:0:0:
512,185,62298,1,10,0:2:0:0:
215,144,62454,2,0,B|183:221|245:273|245:273|215:234|244:177,1,215.999993408203,6|2,1:2|1:2,0:2:0:0:
363,60,62923,1,10,0:2:0:0:
408,298,63079,6,0,B|269:262|355:387|194:354,1,215.999993408203,6|0,1:2|1:2,0:2:0:0:
13,281,63548,1,8,0:2:0:0:
215,144,63704,2,0,L|196:276,1,107.999996704102,4|0,1:2|0:2,0:2:0:0:
80,86,64017,1,2,1:2:0:0:
284,30,64173,1,10,0:2:0:0:
104,239,64329,6,0,L|326:209,1,215.999993408203,6|2,1:2|1:2,0:2:0:0:
501,106,64798,1,10,0:2:0:0:
465,317,64954,1,2,0:2:0:0:
383,136,65111,2,0,L|400:30,1,107.999996704102,6|0,1:2|1:2,0:2:0:0:
294,292,65423,1,10,0:2:0:0:
206,49,65579,6,0,L|223:155,1,107.999996704102,6|0,1:2|0:2,0:2:0:0:
131,370,65892,1,2,1:2:0:0:
336,211,66048,1,10,0:2:0:0:
115,169,66204,2,0,P|63:170|6:226,1,107.999996704102,2|4,0:2|1:2,0:2:0:0:
226,340,66517,1,2,1:2:0:0:
188,75,66673,1,10,0:2:0:0:
10,317,66829,6,0,B|160:331|54:220|216:233,1,215.999993408203,6|2,1:2|1:2,0:2:0:0:
492,370,67298,1,14,0:2:0:0:
247,173,67454,1,2,1:2:0:0:
512,235,67611,1,14,0:2:0:0:
226,340,67767,1,0,1:2:0:0:
433,115,67923,1,14,0:2:0:0:
190,231,68079,6,0,B|152:166|152:166|208:25,1,215.999993408203,6|0,1:2|1:2,0:2:0:0:
512,37,68548,2,0,L|401:16,1,107.999996704102,12|0,0:2|1:2,0:2:0:0:
315,313,68861,2,0,L|426:292,1,107.999996704102,12|0,0:2|1:2,0:2:0:0:
299,19,69173,1,12,0:2:0:0:
184,171,69329,6,0,B|114:161|114:161|94:173|94:173|0:162,1,161.999995056153,4|0,1:2|1:2,0:2:0:0:
109,317,69798,2,0,P|136:281|128:223,1,80.9999975280763,8|0,0:2|0:2,0:2:0:0:
288,174,70111,2,0,P|262:204|259:244,1,80.9999975280763,2|0,1:2|1:2,0:2:0:0:
348,363,70423,1,8,0:2:0:0:
450,254,70579,6,0,L|416:81,1,161.999995056153,2|0,1:2|1:2,0:2:0:0:
418,95,70970,1,0,1:2:0:0:
418,95,71048,2,0,B|371:61|371:61|286:86,1,121.499996292114,8|0,0:2|0:2,0:2:0:0:
224,99,71361,1,2,1:2:0:0:
283,246,71517,1,2,1:2:0:0:
124,187,71673,1,10,0:2:0:0:
335,177,71829,6,0,P|374:240|321:323,1,161.999995056153,6|2,1:2|1:2,0:2:0:0:
180,335,72298,1,10,0:2:0:0:
211,196,72454,1,2,0:2:0:0:
72,338,72611,2,0,L|53:241,1,80.9999975280763,2|0,1:2|1:2,0:2:0:0:
131,107,72923,1,10,0:2:0:0:
180,335,73079,6,0,L|339:306,1,161.999995056153,6|0,1:2|1:2,0:2:0:0:
339,306,73470,1,0,1:2:0:0:
339,306,73548,1,8,0:2:0:0:
511,204,73704,2,0,L|412:185,1,80.9999975280763,0|0,0:2|1:2,0:2:0:0:
283,97,74017,1,2,1:2:0:0:
472,41,74173,1,10,0:2:0:0:
308,195,74329,6,0,B|185:223|252:133|130:150,1,180,6|2,1:2|1:2,0:2:0:0:
145,148,74720,1,0,1:2:0:0:
145,148,74798,5,14,0:2:0:0:
63,366,74954,1,2,1:2:0:0:
14,120,75111,1,14,0:2:0:0:
175,337,75267,1,0,1:2:0:0:
196,70,75423,1,14,0:2:0:0:
5,271,75579,1,10,1:3:0:0:
288,279,75736,1,12,0:2:0:0:
87,30,75892,1,8,0:2:0:0:
308,195,76361,6,0,B|362:189|362:189|377:201|377:201|447:194,1,123.75000377655,2|0,0:2|0:2,0:2:0:0:
497,135,76829,6,0,P|489:51|393:43,1,180,6|0,1:2|1:2,0:2:0:0:
200,4,77298,2,0,L|221:111,1,90,10|0,0:2|0:2,0:2:0:0:
325,283,77611,2,0,L|307:194,1,90,2|0,1:2|0:2,0:2:0:0:
124,133,77923,1,10,0:2:0:0:
214,326,78079,6,0,B|107:292|155:396|41:374,1,180,2|0,0:2|0:2,0:2:0:0:
0,216,78548,1,10,0:2:0:0:
225,183,78704,1,0,0:2:0:0:
6,181,78861,1,2,1:2:0:0:
173,67,79017,1,0,0:2:0:0:
94,261,79173,1,10,0:2:0:0:
251,101,79329,1,0,0:2:0:0:
325,283,79486,6,0,P|369:278|402:249,1,90,2|0,1:2|0:2,0:2:0:0:
463,51,79798,2,0,P|418:55|385:84,1,90,10|0,0:2|0:2,0:2:0:0:
225,183,80111,2,0,P|180:178|147:149,1,90,2|0,1:2|0:2,0:2:0:0:
114,0,80423,1,10,0:2:0:0:
308,108,80579,6,0,B|322:189|322:189|311:206|311:206|326:293,1,180,2|0,0:2|0:2,0:2:0:0:
169,384,81048,1,10,0:2:0:0:
225,183,81204,1,0,0:2:0:0:
99,281,81361,1,2,1:2:0:0:
332,369,81517,1,8,0:2:0:0:
375,362,81595,1,8,0:2:0:0:
408,333,81673,1,8,0:2:0:0:
418,289,81751,1,8,0:2:0:0:
402,248,81829,6,0,B|371:188|371:188|423:63,1,180,4|0,1:2|1:2,0:2:0:0:
200,6,82298,2,0,L|219:117,1,90,10|0,0:2|0:2,0:2:0:0:
16,215,82611,2,0,L|104:199,1,90,2|0,1:2|0:2,0:2:0:0:
264,370,82923,2,0,L|248:281,1,90,10|0,0:2|0:2,0:2:0:0:
330,98,83236,6,0,P|377:77|423:89,1,90,2|0,1:2|0:2,0:2:0:0:
512,268,83548,2,0,P|470:237|457:191,1,90,10|0,0:2|0:2,0:2:0:0:
474,29,83861,1,2,1:2:0:0:
365,209,84017,1,8,0:2:0:0:
301,21,84173,1,2,1:2:0:0:
502,118,84329,1,8,1:3:0:0:
502,118,84407,1,4,1:3:0:0:
502,118,84486,5,6,1:2:0:0:
224,192,84642,1,0,1:2:0:0:
485,321,84798,1,8,0:2:0:0:
156,325,84954,5,6,1:2:0:0:
448,208,85111,1,0,1:2:0:0:
157,109,85267,1,8,0:2:0:0:
339,361,85423,1,6,1:2:0:0:
256,192,85501,12,0,88236,0:2:0:0:
