osu file format v14

[General]
AudioFilename: audio.mp3
AudioLeadIn: 0
PreviewTime: 48664
Countdown: 0
SampleSet: Normal
StackLeniency: 0.7
Mode: 3
LetterboxInBreaks: 0
SpecialStyle: 0
WidescreenStoryboard: 1

[Editor]
DistanceSpacing: 1.1
BeatDivisor: 4
GridSize: 4
TimelineZoom: 2.1

[Metadata]
Title:Sacrifice
TitleUnicode:サクリファイス
Artist:mafumafu
ArtistUnicode:まふまふ
Creator:Noch Einen
Version:Insane
Source:かつて神だった獣たちへ
Tags:kagura iro artifact album jrock j-rock japanese rock dudehacker lenpai famoss lenfried- to the abandoned sacred beasts katsute kami datta kemono-tachi e anime drum-hitnormal
BeatmapID:2096538
BeatmapSetID:1001514

[Difficulty]
HPDrainRate:8.6
CircleSize:7
OverallDifficulty:8
ApproachRate:5
SliderMultiplier:1.4
SliderTickRate:1

[Events]
//Background and Video events
0,0,"sexcrifice.jpg",0,0
//Break Periods
//Storyboard Layer 0 (Background)
//Storyboard Layer 1 (Fail)
//Storyboard Layer 2 (Pass)
//Storyboard Layer 3 (Foreground)
//Storyboard Layer 4 (Overlay)
//Storyboard Sound Samples

[TimingPoints]
535,312.5,4,1,1,60,1,0
13035,-125,4,1,1,30,0,0
15535,-117.647058823529,4,1,1,30,0,0
18035,-111.111111111111,4,1,1,30,0,0
20535,-105.263157894737,4,1,1,30,0,0
23035,-100,4,1,1,40,0,0
25535,-100,4,1,1,50,0,0
31160,-200,4,1,1,60,0,0
31238,-66.6666666666667,4,1,1,60,0,0
31316,-100,4,1,1,60,0,0
31472,-200,4,1,1,60,0,0
31550,-66.6666666666667,4,1,1,60,0,0
31628,-100,4,1,1,60,0,0
34285,-66.6666666666667,4,1,1,60,0,0
34363,-125,4,1,1,60,0,0
34519,-100,4,1,1,60,0,0
34597,-200,4,1,1,60,0,0
34675,-66.6666666666667,4,1,1,60,0,0
34753,-100,4,1,1,60,0,0
36785,-50,4,1,1,60,0,0
36863,-200,4,1,1,60,0,0
37019,-100,4,1,1,60,0,0
37097,-200,4,1,1,60,0,0
37214,-50,4,1,1,60,0,0
37253,-100,4,1,1,60,0,0
39285,-66.6666666666667,4,1,1,60,0,0
39363,-125,4,1,1,60,0,0
39519,-100,4,1,1,60,0,0
39597,-200,4,1,1,60,0,0
39675,-66.6666666666667,4,1,1,60,0,0
39753,-100,4,1,1,60,0,0
47878,-50,4,1,1,60,0,0
47917,-125,4,1,1,60,0,0
48113,-100,4,1,1,60,0,0
48191,-66.6666666666667,4,1,1,60,0,0
48269,-200,4,1,1,60,0,0
48347,-100,4,1,1,60,0,0
49128,-100,4,1,1,60,0,1
58660,-100,4,1,1,60,0,0
59128,-100,4,1,1,60,0,1
75535,-66.6666666666667,4,1,1,60,0,1
75613,-200,4,1,1,60,0,1
75691,-50,4,1,1,60,0,1
75769,-200,4,1,1,60,0,1
75847,-100,4,1,1,60,0,1
76160,-100,4,1,1,60,0,1
76628,-100,4,1,1,60,0,0
85222,-111.111111111111,4,1,1,30,0,0
86785,-117.647058823529,4,1,1,30,0,0
91785,-111.111111111111,4,1,1,30,0,0
93035,-105.263157894737,4,1,1,40,0,0
94285,-111.111111111111,4,1,1,30,0,0
95535,-100,4,1,1,50,0,0
96785,-100,4,1,1,60,0,0
104910,-200,4,1,1,60,0,0
104988,-66.6666666666667,4,1,1,60,0,0
105066,-100,4,1,1,60,0,0
105222,-200,4,1,1,60,0,0
105300,-66.6666666666667,4,1,1,60,0,0
105378,-100,4,1,1,60,0,0
108035,-66.6666666666667,4,1,1,60,0,0
108113,-125,4,1,1,60,0,0
108269,-100,4,1,1,60,0,0
108347,-200,4,1,1,60,0,0
108425,-66.6666666666667,4,1,1,60,0,0
108503,-100,4,1,1,60,0,0
110535,-50,4,1,1,60,0,0
110613,-200,4,1,1,60,0,0
110769,-100,4,1,1,60,0,0
110847,-200,4,1,1,60,0,0
110964,-50,4,1,1,60,0,0
111003,-100,4,1,1,60,0,0
113035,-66.6666666666667,4,1,1,60,0,0
113113,-125,4,1,1,60,0,0
113269,-100,4,1,1,60,0,0
113347,-200,4,1,1,60,0,0
113425,-66.6666666666667,4,1,1,60,0,0
113503,-100,4,1,1,60,0,0
121628,-50,4,1,1,60,0,0
121667,-125,4,1,1,60,0,0
121863,-100,4,1,1,60,0,0
121941,-66.6666666666667,4,1,1,60,0,0
122019,-200,4,1,1,60,0,0
122097,-100,4,1,1,60,0,0
122878,-100,4,1,1,60,0,1
132410,-100,4,1,1,60,0,0
132878,-100,4,1,1,60,0,1
149285,-66.6666666666667,4,1,1,60,0,1
149363,-200,4,1,1,60,0,1
149441,-50,4,1,1,60,0,1
149519,-200,4,1,1,60,0,1
149597,-100,4,1,1,60,0,1
149910,-133.333333333333,4,1,1,20,0,1
150378,-117.647058823529,4,1,1,30,0,0
160535,-111.111111111111,4,1,1,40,0,0
170535,-100,4,1,1,50,0,0
188035,-100,4,1,1,60,0,0
211628,-58.8235294117647,4,1,1,60,0,0
211706,-125,4,1,1,60,0,0
211941,-66.6666666666667,4,1,1,60,0,0
212019,-200,4,1,1,60,0,0
212097,-66.6666666666667,4,1,1,60,0,0
212175,-125,4,1,1,60,0,0
212410,-100,4,1,1,60,0,0
212878,-66.6666666666667,4,1,1,60,0,1
212956,-125,4,1,1,60,0,1
213113,-100,4,1,1,60,0,1
213347,-100,4,1,1,50,0,0
214285,-66.6666666666667,4,1,1,50,0,0
214324,-200,4,1,1,50,0,0
214363,-66.6666666666667,4,1,1,50,0,0
214402,-200,4,1,1,50,0,0
214441,-66.6666666666667,4,1,1,50,0,0
214480,-200,4,1,1,50,0,0
214519,-66.6666666666667,4,1,1,50,0,0
214558,-200,4,1,1,50,0,0
214597,-100,4,1,1,50,0,0
214831,-66.6666666666667,4,1,1,50,0,0
214870,-200,4,1,1,50,0,0
214910,-62.5,4,1,1,50,0,0
214949,-250.000000000001,4,1,1,50,0,0
214988,-55.5555555555556,4,1,1,50,0,0
215027,-500.000000000003,4,1,1,50,0,0
215066,-52.6315789473684,4,1,1,50,0,0
215105,-1000.00000000001,4,1,1,50,0,0
215144,-100,4,1,1,50,0,0
215378,-100,4,1,1,60,0,1
222410,-100,4,1,1,60,0,0
222878,-100,4,1,1,60,0,1
239285,-66.6666666666667,4,1,1,60,0,1
239363,-200,4,1,1,60,0,1
239441,-50,4,1,1,60,0,1
239519,-200,4,1,1,60,0,1
239597,-100,4,1,1,60,0,0
240378,-100,4,1,1,60,0,1
240535,-100,4,1,1,60,0,0
245378,-100,4,1,1,60,0,1
245535,-100,4,1,1,60,0,0

[HitObjects]
36,192,535,5,0,0:0:0:0:
109,192,535,1,2,0:0:0:0:
475,192,613,1,0,0:0:0:0:
402,192,613,1,8,0:0:0:0:
182,192,691,1,2,0:0:0:0:
329,192,769,1,2,0:0:0:0:
109,192,847,1,0,0:0:0:0:
36,192,847,1,8,0:0:0:0:
475,192,925,1,0,0:0:0:0:
402,192,925,1,8,0:0:0:0:
182,192,1003,1,2,0:0:0:0:
329,192,1081,1,2,0:0:0:0:
475,192,1160,1,0,0:0:0:0:
256,192,1160,1,2,0:0:0:0:
36,192,1238,1,2,0:0:0:0:
329,192,1316,1,2,0:0:0:0:
109,192,1394,1,2,0:0:0:0:
182,192,1472,1,0,0:0:0:0:
402,192,1472,1,2,0:0:0:0:
329,192,1550,1,2,0:0:0:0:
475,192,1628,128,0,1941:0:0:0:0:
36,192,1628,1,8,0:0:0:0:
109,192,1628,1,4,0:0:0:0:
256,192,1628,1,0,0:0:0:0:
329,192,1941,1,2,0:0:0:0:
109,192,2097,1,0,0:0:0:0:
36,192,2097,1,8,0:0:0:0:
475,192,2175,1,0,0:0:0:0:
402,192,2175,1,8,0:0:0:0:
182,192,2253,1,2,0:0:0:0:
329,192,2331,1,0,0:0:0:0:
36,192,2410,1,2,0:0:0:0:
402,192,2488,1,2,0:0:0:0:
109,192,2566,1,2,0:0:0:0:
475,192,2644,1,0,0:0:0:0:
182,192,2722,1,8,0:0:0:0:
329,192,2722,1,0,0:0:0:0:
402,192,2878,1,0,0:0:0:0:
475,192,2878,1,0,0:0:0:0:
36,192,2878,128,2,3191:0:0:0:0:
256,192,2878,1,4,0:0:0:0:
329,192,3191,128,2,3347:0:0:0:0:
402,192,3347,1,2,0:0:0:0:
182,192,3347,128,8,3503:0:0:0:0:
36,192,3347,1,0,0:0:0:0:
256,192,3503,128,0,3660:0:0:0:0:
329,192,3660,1,0,0:0:0:0:
109,192,3660,128,2,3816:0:0:0:0:
256,192,3816,128,0,3972:0:0:0:0:
402,192,3972,1,2,0:0:0:0:
182,192,3972,128,8,4128:0:0:0:0:
475,192,3972,1,0,0:0:0:0:
36,192,4128,128,0,4441:0:0:0:0:
475,192,4285,1,0,0:0:0:0:
329,192,4285,1,2,0:0:0:0:
256,192,4441,128,0,4597:0:0:0:0:
402,192,4597,128,2,4753:0:0:0:0:
36,192,4597,1,8,0:0:0:0:
109,192,4597,1,0,0:0:0:0:
475,192,4753,128,0,4910:0:0:0:0:
329,192,4910,128,0,5066:0:0:0:0:
182,192,4910,1,2,0:0:0:0:
109,192,5066,128,0,5222:0:0:0:0:
475,192,5222,1,2,0:0:0:0:
256,192,5222,128,8,5378:0:0:0:0:
402,192,5222,1,0,0:0:0:0:
36,192,5378,128,0,5691:0:0:0:0:
329,192,5535,1,0,0:0:0:0:
182,192,5535,1,2,0:0:0:0:
256,192,5691,128,0,5847:0:0:0:0:
475,192,5847,128,2,6003:0:0:0:0:
109,192,5847,1,8,0:0:0:0:
36,192,5847,1,0,0:0:0:0:
182,192,6003,128,0,6160:0:0:0:0:
402,192,6160,128,0,6316:0:0:0:0:
329,192,6160,1,2,0:0:0:0:
109,192,6316,128,0,6472:0:0:0:0:
329,192,6472,128,2,6628:0:0:0:0:
256,192,6472,1,8,0:0:0:0:
475,192,6472,1,0,0:0:0:0:
36,192,6628,128,0,6941:0:0:0:0:
402,192,6785,1,0,0:0:0:0:
475,192,6785,1,2,0:0:0:0:
329,192,6941,128,0,7097:0:0:0:0:
182,192,6941,1,0,0:0:0:0:
109,192,7019,1,0,0:0:0:0:
256,192,7097,1,2,0:0:0:0:
36,192,7097,128,8,7253:0:0:0:0:
475,192,7097,1,0,0:0:0:0:
329,192,7253,128,0,7410:0:0:0:0:
109,192,7410,128,0,7566:0:0:0:0:
182,192,7410,1,2,0:0:0:0:
329,192,7566,1,0,0:0:0:0:
475,192,7566,128,8,7722:0:0:0:0:
256,192,7644,1,8,0:0:0:0:
36,192,7722,1,0,0:0:0:0:
182,192,7722,1,8,0:0:0:0:
256,192,7800,1,0,0:0:0:0:
402,192,7878,128,0,8191:0:0:0:0:
475,192,7878,1,0,0:0:0:0:
109,192,7878,1,4,0:0:0:0:
329,192,7878,1,2,0:0:0:0:
182,192,8191,128,2,8347:0:0:0:0:
329,192,8347,1,2,0:0:0:0:
36,192,8347,128,8,8503:0:0:0:0:
109,192,8347,1,0,0:0:0:0:
402,192,8503,128,0,8660:0:0:0:0:
256,192,8660,128,0,8816:0:0:0:0:
36,192,8660,1,2,0:0:0:0:
402,192,8816,128,0,8972:0:0:0:0:
182,192,8972,128,2,9128:0:0:0:0:
329,192,8972,1,8,0:0:0:0:
109,192,8972,1,0,0:0:0:0:
475,192,9128,128,0,9441:0:0:0:0:
256,192,9285,1,0,0:0:0:0:
36,192,9285,1,2,0:0:0:0:
182,192,9441,128,0,9597:0:0:0:0:
329,192,9597,128,2,9753:0:0:0:0:
109,192,9597,1,8,0:0:0:0:
475,192,9597,1,0,0:0:0:0:
256,192,9753,128,0,9910:0:0:0:0:
402,192,9910,1,0,0:0:0:0:
182,192,9910,128,2,10066:0:0:0:0:
475,192,10066,128,0,10222:0:0:0:0:
36,192,10066,1,8,0:0:0:0:
109,192,10144,1,0,0:0:0:0:
402,192,10222,1,0,0:0:0:0:
182,192,10222,1,2,0:0:0:0:
329,192,10378,1,0,0:0:0:0:
109,192,10378,1,2,0:0:0:0:
402,192,10456,1,0,0:0:0:0:
256,192,10535,1,4,0:0:0:0:
475,192,10535,1,0,0:0:0:0:
36,192,10535,128,2,10691:0:0:0:0:
182,192,10535,1,0,0:0:0:0:
109,192,10691,128,2,10847:0:0:0:0:
329,192,10847,1,8,0:0:0:0:
182,192,10847,1,0,0:0:0:0:
256,192,11003,1,4,0:0:0:0:
475,192,11003,128,2,11160:0:0:0:0:
36,192,11003,1,0,0:0:0:0:
109,192,11003,1,0,0:0:0:0:
402,192,11160,128,2,11316:0:0:0:0:
329,192,11316,1,0,0:0:0:0:
182,192,11316,1,8,0:0:0:0:
475,192,11472,1,0,0:0:0:0:
36,192,11472,128,2,13035:0:0:0:0:
109,192,11472,128,4,12878:0:0:0:0:
402,192,11472,1,0,0:0:0:0:
256,192,11472,1,0,0:0:0:0:
402,192,12566,128,0,12722:0:0:0:0:
329,192,12722,128,0,12878:0:0:0:0:
256,192,12878,128,0,13035:0:0:0:0:
475,192,13035,128,0,13347:0:0:0:0:
182,192,13035,1,0,0:0:0:0:
402,192,13074,1,0,0:0:0:0:
329,192,13503,128,0,13660:0:0:0:0:
109,192,13660,128,0,13816:0:0:0:0:
402,192,13816,128,0,13972:0:0:0:0:
182,192,13972,128,0,14128:0:0:0:0:
329,192,14128,128,0,14441:0:0:0:0:
36,192,14180,1,0,0:0:0:0:
109,192,14232,1,0,0:0:0:0:
182,192,14285,1,0,0:0:0:0:
475,192,14441,128,0,14753:0:0:0:0:
402,192,14753,128,0,15066:0:0:0:0:
182,192,14753,1,0,0:0:0:0:
36,192,14910,1,0,0:0:0:0:
256,192,15222,128,0,15535:0:0:0:0:
182,192,15222,1,0,0:0:0:0:
475,192,15535,128,0,15847:0:0:0:0:
329,192,15535,1,0,0:0:0:0:
36,192,15691,1,0,0:0:0:0:
402,192,15847,128,0,16003:0:0:0:0:
109,192,15847,1,0,0:0:0:0:
329,192,16003,128,0,16160:0:0:0:0:
256,192,16003,1,0,0:0:0:0:
182,192,16160,128,0,16316:0:0:0:0:
109,192,16316,128,0,16628:0:0:0:0:
329,192,16628,1,0,0:0:0:0:
36,192,16628,128,0,16941:0:0:0:0:
402,192,16706,1,0,0:0:0:0:
475,192,16785,1,0,0:0:0:0:
182,192,16785,1,0,0:0:0:0:
256,192,17097,128,0,17410:0:0:0:0:
475,192,17175,1,0,0:0:0:0:
402,192,17227,1,0,0:0:0:0:
329,192,17279,1,0,0:0:0:0:
36,192,17644,128,0,17722:0:0:0:0:
182,192,17722,128,0,18035:0:0:0:0:
402,192,18035,1,0,0:0:0:0:
109,192,18035,128,0,18347:0:0:0:0:
36,192,18035,1,0,0:0:0:0:
475,192,18191,1,0,0:0:0:0:
329,192,18347,128,0,18503:0:0:0:0:
256,192,18503,128,0,18816:0:0:0:0:
36,192,18503,1,0,0:0:0:0:
329,192,18816,1,0,0:0:0:0:
182,192,18816,128,0,19128:0:0:0:0:
402,192,18972,1,0,0:0:0:0:
475,192,19128,128,0,19597:0:0:0:0:
329,192,19285,1,0,0:0:0:0:
256,192,19285,1,0,0:0:0:0:
36,192,19285,1,0,0:0:0:0:
402,192,19597,128,0,19910:0:0:0:0:
182,192,19753,1,0,0:0:0:0:
36,192,19753,1,0,0:0:0:0:
329,192,19910,128,0,20222:0:0:0:0:
109,192,20066,1,0,0:0:0:0:
402,192,20222,1,0,0:0:0:0:
109,192,20222,128,0,20535:0:0:0:0:
256,192,20535,128,0,20847:0:0:0:0:
36,192,20535,1,0,0:0:0:0:
475,192,20691,1,0,0:0:0:0:
329,192,20847,128,0,21160:0:0:0:0:
182,192,20847,1,0,0:0:0:0:
36,192,21003,1,0,0:0:0:0:
402,192,21160,128,0,21472:0:0:0:0:
256,192,21160,1,0,0:0:0:0:
109,192,21316,1,0,0:0:0:0:
475,192,21472,128,0,21785:0:0:0:0:
329,192,21628,128,0,21941:0:0:0:0:
109,192,21785,128,0,22253:0:0:0:0:
182,192,21785,128,0,22097:0:0:0:0:
36,192,22253,128,0,22878:0:0:0:0:
402,192,22253,1,0,0:0:0:0:
329,192,22331,1,0,0:0:0:0:
256,192,22410,1,0,0:0:0:0:
182,192,22488,1,0,0:0:0:0:
475,192,22566,1,0,0:0:0:0:
329,192,22644,1,0,0:0:0:0:
475,192,22722,1,0,0:0:0:0:
329,192,22800,1,0,0:0:0:0:
256,192,22878,1,0,0:0:0:0:
182,192,22956,1,0,0:0:0:0:
402,192,23035,1,0,0:0:0:0:
109,192,23035,128,2,23113:0:0:0:0:
109,192,23191,128,0,23269:0:0:0:0:
402,192,23347,1,0,0:0:0:0:
182,192,23347,128,2,23425:0:0:0:0:
182,192,23503,128,0,23581:0:0:0:0:
402,192,23660,1,0,0:0:0:0:
109,192,23660,128,2,23738:0:0:0:0:
109,192,23816,128,0,23894:0:0:0:0:
402,192,23972,1,0,0:0:0:0:
182,192,23972,128,2,24050:0:0:0:0:
182,192,24128,128,0,24206:0:0:0:0:
329,192,24285,128,0,24363:0:0:0:0:
109,192,24285,1,2,0:0:0:0:
329,192,24441,128,0,24519:0:0:0:0:
402,192,24597,128,0,24675:0:0:0:0:
109,192,24597,1,2,0:0:0:0:
402,192,24753,128,0,24831:0:0:0:0:
329,192,24910,128,0,24988:0:0:0:0:
109,192,24910,1,2,0:0:0:0:
329,192,25066,128,0,25144:0:0:0:0:
182,192,25066,1,0,0:0:0:0:
36,192,25066,1,8,0:0:0:0:
402,192,25222,128,0,25300:0:0:0:0:
109,192,25222,1,2,0:0:0:0:
402,192,25378,128,0,25456:0:0:0:0:
329,192,25535,1,0,0:0:0:0:
475,192,25535,1,0,0:0:0:0:
36,192,25535,128,2,25847:0:0:0:0:
182,192,25535,1,4,0:0:0:0:
475,192,25847,1,0,0:0:0:0:
329,192,25847,1,8,0:0:0:0:
256,192,25925,1,2,0:0:0:0:
182,192,26003,1,0,0:0:0:0:
36,192,26003,1,0,0:0:0:0:
475,192,26160,1,0,0:0:0:0:
402,192,26160,1,2,0:0:0:0:
329,192,26238,1,0,0:0:0:0:
182,192,26238,1,2,0:0:0:0:
109,192,26316,1,0,0:0:0:0:
36,192,26316,1,0,0:0:0:0:
329,192,26472,1,0,0:0:0:0:
182,192,26472,1,2,0:0:0:0:
402,192,26628,128,0,26941:0:0:0:0:
475,192,26628,1,0,0:0:0:0:
36,192,26628,1,2,0:0:0:0:
256,192,26628,1,4,0:0:0:0:
109,192,26941,1,0,0:0:0:0:
475,192,27097,1,0,0:0:0:0:
329,192,27097,128,0,27410:0:0:0:0:
182,192,27097,1,8,0:0:0:0:
402,192,27410,1,0,0:0:0:0:
256,192,27410,1,2,0:0:0:0:
402,192,27566,1,0,0:0:0:0:
256,192,27566,1,2,0:0:0:0:
329,192,27722,1,0,0:0:0:0:
36,192,27722,1,8,0:0:0:0:
182,192,27800,1,0,0:0:0:0:
475,192,27878,1,0,0:0:0:0:
36,192,27878,1,8,0:0:0:0:
329,192,27956,1,8,0:0:0:0:
475,192,28035,128,0,28347:0:0:0:0:
182,192,28035,1,4,0:0:0:0:
109,192,28035,1,2,0:0:0:0:
256,192,28035,1,0,0:0:0:0:
402,192,28347,128,0,28503:0:0:0:0:
182,192,28347,1,8,0:0:0:0:
256,192,28503,1,0,0:0:0:0:
329,192,28503,128,0,28660:0:0:0:0:
36,192,28503,1,2,0:0:0:0:
109,192,28503,1,4,0:0:0:0:
475,192,28660,128,0,28816:0:0:0:0:
182,192,28816,128,2,28972:0:0:0:0:
475,192,28972,1,0,0:0:0:0:
402,192,28972,1,0,0:0:0:0:
329,192,28972,128,8,29128:0:0:0:0:
182,192,29128,128,0,29285:0:0:0:0:
256,192,29285,1,0,0:0:0:0:
475,192,29285,128,0,29441:0:0:0:0:
36,192,29285,1,2,0:0:0:0:
109,192,29285,1,4,0:0:0:0:
329,192,29441,128,2,29597:0:0:0:0:
402,192,29441,1,0,0:0:0:0:
256,192,29597,1,0,0:0:0:0:
182,192,29597,128,8,29753:0:0:0:0:
329,192,29753,1,0,0:0:0:0:
475,192,29753,1,0,0:0:0:0:
36,192,29753,128,2,29910:0:0:0:0:
109,192,29753,1,4,0:0:0:0:
402,192,29910,128,0,30066:0:0:0:0:
329,192,30066,1,2,0:0:0:0:
256,192,30144,1,0,0:0:0:0:
182,192,30222,1,0,0:0:0:0:
109,192,30222,128,8,30535:0:0:0:0:
402,192,30222,1,0,0:0:0:0:
475,192,30378,128,0,30535:0:0:0:0:
329,192,30535,128,0,30691:0:0:0:0:
402,192,30535,1,0,0:0:0:0:
36,192,30535,1,2,0:0:0:0:
256,192,30535,1,4,0:0:0:0:
182,192,30691,128,0,30847:0:0:0:0:
475,192,30847,128,0,31003:0:0:0:0:
256,192,30847,1,0,0:0:0:0:
109,192,30847,1,8,0:0:0:0:
329,192,31003,128,0,31160:0:0:0:0:
182,192,31003,128,2,31160:0:0:0:0:
36,192,31003,128,4,31160:0:0:0:0:
475,192,31316,128,0,31472:0:0:0:0:
256,192,31316,128,4,31472:0:0:0:0:
109,192,31316,128,2,31472:0:0:0:0:
329,192,31628,128,0,31785:0:0:0:0:
475,192,31628,128,0,32878:0:0:0:0:
36,192,31628,128,2,31785:0:0:0:0:
182,192,31628,128,4,31785:0:0:0:0:
402,192,31941,128,0,32878:0:0:0:0:
36,192,31941,1,2,0:0:0:0:
256,192,32097,1,0,0:0:0:0:
36,192,32097,1,2,0:0:0:0:
109,192,32253,1,2,0:0:0:0:
329,192,32410,1,0,0:0:0:0:
109,192,32410,1,2,0:0:0:0:
182,192,32566,1,2,0:0:0:0:
36,192,32722,1,0,0:0:0:0:
182,192,32722,1,2,0:0:0:0:
329,192,32878,1,0,0:0:0:0:
256,192,32878,1,2,0:0:0:0:
109,192,33035,1,0,0:0:0:0:
182,192,33035,1,2,0:0:0:0:
475,192,33191,1,0,0:0:0:0:
329,192,33191,1,2,0:0:0:0:
402,192,33347,1,0,0:0:0:0:
109,192,33347,1,0,0:0:0:0:
36,192,33347,1,2,0:0:0:0:
256,192,33503,1,0,0:0:0:0:
329,192,33503,1,0,0:0:0:0:
182,192,33503,1,2,0:0:0:0:
475,192,33660,1,0,0:0:0:0:
402,192,33660,1,4,0:0:0:0:
36,192,33660,1,2,0:0:0:0:
109,192,33738,1,8,0:0:0:0:
182,192,33816,1,8,0:0:0:0:
329,192,33894,1,8,0:0:0:0:
475,192,33972,1,0,0:0:0:0:
402,192,33972,1,4,0:0:0:0:
109,192,33972,1,2,0:0:0:0:
182,192,34050,1,0,0:0:0:0:
256,192,34128,1,8,0:0:0:0:
329,192,34206,1,0,0:0:0:0:
36,192,34285,128,2,34597:0:0:0:0:
109,192,34285,128,4,34597:0:0:0:0:
402,192,34285,1,0,0:0:0:0:
475,192,34285,1,0,0:0:0:0:
256,192,34597,1,8,0:0:0:0:
329,192,34753,128,0,35066:0:0:0:0:
475,192,34753,128,0,35066:0:0:0:0:
182,192,34753,1,4,0:0:0:0:
36,192,34753,1,2,0:0:0:0:
109,192,35066,1,2,0:0:0:0:
402,192,35222,1,0,0:0:0:0:
182,192,35222,1,8,0:0:0:0:
256,192,35222,1,0,0:0:0:0:
36,192,35378,1,0,0:0:0:0:
182,192,35456,1,0,0:0:0:0:
402,192,35535,1,0,0:0:0:0:
329,192,35535,1,2,0:0:0:0:
109,192,35613,1,0,0:0:0:0:
402,192,35691,1,0,0:0:0:0:
329,192,35691,1,2,0:0:0:0:
182,192,35769,1,0,0:0:0:0:
475,192,35847,1,0,0:0:0:0:
36,192,35847,1,8,0:0:0:0:
109,192,35847,1,0,0:0:0:0:
256,192,35925,1,0,0:0:0:0:
329,192,36003,1,0,0:0:0:0:
475,192,36081,1,8,0:0:0:0:
182,192,36160,1,0,0:0:0:0:
109,192,36160,1,2,0:0:0:0:
402,192,36238,1,0,0:0:0:0:
182,192,36316,1,0,0:0:0:0:
109,192,36316,1,2,0:0:0:0:
329,192,36394,1,0,0:0:0:0:
475,192,36472,1,0,0:0:0:0:
36,192,36472,1,8,0:0:0:0:
402,192,36472,1,0,0:0:0:0:
256,192,36550,1,0,0:0:0:0:
182,192,36628,1,0,0:0:0:0:
109,192,36706,1,0,0:0:0:0:
402,192,36785,128,0,37097:0:0:0:0:
475,192,36785,128,0,37097:0:0:0:0:
329,192,36785,1,4,0:0:0:0:
36,192,36785,1,2,0:0:0:0:
256,192,37097,1,8,0:0:0:0:
182,192,37253,128,0,37566:0:0:0:0:
36,192,37253,128,2,37566:0:0:0:0:
109,192,37253,1,4,0:0:0:0:
402,192,37253,1,0,0:0:0:0:
329,192,37566,1,2,0:0:0:0:
475,192,37722,1,0,0:0:0:0:
256,192,37722,1,8,0:0:0:0:
182,192,37722,1,0,0:0:0:0:
402,192,37800,1,0,0:0:0:0:
329,192,37878,1,0,0:0:0:0:
36,192,37956,1,0,0:0:0:0:
109,192,38035,1,0,0:0:0:0:
182,192,38035,1,2,0:0:0:0:
329,192,38113,1,0,0:0:0:0:
182,192,38191,1,0,0:0:0:0:
109,192,38191,1,2,0:0:0:0:
402,192,38269,1,0,0:0:0:0:
256,192,38347,1,0,0:0:0:0:
36,192,38347,1,8,0:0:0:0:
475,192,38347,1,0,0:0:0:0:
109,192,38425,1,0,0:0:0:0:
182,192,38503,1,0,0:0:0:0:
36,192,38581,1,0,0:0:0:0:
329,192,38660,1,2,0:0:0:0:
402,192,38660,1,0,0:0:0:0:
109,192,38738,1,0,0:0:0:0:
329,192,38816,1,0,0:0:0:0:
402,192,38816,1,2,0:0:0:0:
182,192,38894,1,0,0:0:0:0:
475,192,38972,1,0,0:0:0:0:
36,192,38972,1,8,0:0:0:0:
256,192,38972,1,0,0:0:0:0:
329,192,39050,1,0,0:0:0:0:
402,192,39128,1,0,0:0:0:0:
475,192,39206,1,0,0:0:0:0:
109,192,39285,128,4,39597:0:0:0:0:
36,192,39285,128,2,39597:0:0:0:0:
329,192,39285,1,0,0:0:0:0:
182,192,39285,1,0,0:0:0:0:
256,192,39597,1,8,0:0:0:0:
329,192,39753,128,0,40066:0:0:0:0:
475,192,39753,128,0,40066:0:0:0:0:
182,192,39753,1,4,0:0:0:0:
36,192,39753,1,2,0:0:0:0:
109,192,40066,1,2,0:0:0:0:
402,192,40222,1,0,0:0:0:0:
256,192,40222,1,8,0:0:0:0:
182,192,40222,1,0,0:0:0:0:
329,192,40535,1,2,0:0:0:0:
36,192,40535,128,0,40847:0:0:0:0:
329,192,40691,1,2,0:0:0:0:
256,192,40847,1,0,0:0:0:0:
109,192,40847,128,8,41160:0:0:0:0:
402,192,40847,1,0,0:0:0:0:
182,192,41160,1,2,0:0:0:0:
475,192,41160,128,0,41472:0:0:0:0:
256,192,41238,1,2,0:0:0:0:
36,192,41316,1,2,0:0:0:0:
109,192,41394,1,2,0:0:0:0:
402,192,41472,128,0,41785:0:0:0:0:
182,192,41472,1,8,0:0:0:0:
256,192,41472,1,0,0:0:0:0:
329,192,41785,1,0,0:0:0:0:
475,192,41785,128,0,42097:0:0:0:0:
36,192,41785,1,2,0:0:0:0:
182,192,41785,1,4,0:0:0:0:
109,192,42097,1,8,0:0:0:0:
329,192,42097,128,0,42253:0:0:0:0:
402,192,42253,1,0,0:0:0:0:
475,192,42253,1,0,0:0:0:0:
36,192,42253,128,2,42566:0:0:0:0:
256,192,42253,1,4,0:0:0:0:
329,192,42566,1,0,0:0:0:0:
109,192,42566,128,2,42722:0:0:0:0:
402,192,42722,1,0,0:0:0:0:
182,192,42722,128,8,42878:0:0:0:0:
329,192,42878,1,0,0:0:0:0:
475,192,42878,128,0,43191:0:0:0:0:
36,192,42878,1,2,0:0:0:0:
256,192,42878,1,4,0:0:0:0:
329,192,43191,128,0,43347:0:0:0:0:
36,192,43191,1,2,0:0:0:0:
475,192,43347,128,0,43503:0:0:0:0:
109,192,43347,1,8,0:0:0:0:
36,192,43503,1,0,0:0:0:0:
402,192,43503,1,0,0:0:0:0:
182,192,43503,128,2,43816:0:0:0:0:
256,192,43503,1,4,0:0:0:0:
329,192,43816,1,2,0:0:0:0:
36,192,43972,1,8,0:0:0:0:
475,192,43972,1,0,0:0:0:0:
329,192,44128,1,0,0:0:0:0:
402,192,44128,1,0,0:0:0:0:
109,192,44128,128,2,44441:0:0:0:0:
182,192,44128,1,4,0:0:0:0:
475,192,44441,1,0,0:0:0:0:
256,192,44441,1,2,0:0:0:0:
402,192,44597,1,4,0:0:0:0:
109,192,44597,1,8,0:0:0:0:
36,192,44597,1,0,0:0:0:0:
256,192,44753,1,0,0:0:0:0:
182,192,44910,1,0,0:0:0:0:
36,192,44910,1,2,0:0:0:0:
329,192,44988,1,0,0:0:0:0:
182,192,45066,1,0,0:0:0:0:
329,192,45144,1,0,0:0:0:0:
475,192,45222,1,8,0:0:0:0:
256,192,45222,1,2,0:0:0:0:
402,192,45300,1,0,0:0:0:0:
329,192,45378,1,0,0:0:0:0:
182,192,45456,1,0,0:0:0:0:
109,192,45535,1,0,0:0:0:0:
36,192,45535,1,2,0:0:0:0:
329,192,45691,1,0,0:0:0:0:
256,192,45769,1,0,0:0:0:0:
182,192,45847,1,8,0:0:0:0:
109,192,45847,1,2,0:0:0:0:
329,192,46003,1,0,0:0:0:0:
182,192,46081,1,0,0:0:0:0:
475,192,46160,1,0,0:0:0:0:
36,192,46160,1,2,0:0:0:0:
329,192,46238,1,0,0:0:0:0:
182,192,46316,1,0,0:0:0:0:
402,192,46472,1,2,0:0:0:0:
109,192,46472,1,8,0:0:0:0:
329,192,46550,1,0,0:0:0:0:
475,192,46628,1,0,0:0:0:0:
182,192,46628,1,8,0:0:0:0:
402,192,46706,1,8,0:0:0:0:
256,192,46785,1,0,0:0:0:0:
329,192,46785,1,0,0:0:0:0:
36,192,46785,1,2,0:0:0:0:
109,192,46785,1,4,0:0:0:0:
402,192,46941,1,0,0:0:0:0:
182,192,46941,1,2,0:0:0:0:
475,192,47097,1,0,0:0:0:0:
256,192,47097,1,8,0:0:0:0:
109,192,47253,1,0,0:0:0:0:
402,192,47253,1,2,0:0:0:0:
329,192,47410,1,0,0:0:0:0:
36,192,47410,1,2,0:0:0:0:
402,192,47488,1,2,0:0:0:0:
475,192,47566,1,0,0:0:0:0:
182,192,47566,1,2,0:0:0:0:
256,192,47644,1,0,0:0:0:0:
329,192,47722,1,0,0:0:0:0:
36,192,47722,1,2,0:0:0:0:
109,192,47800,1,0,0:0:0:0:
182,192,47878,128,2,48113:0:0:0:0:
329,192,47878,128,4,48113:0:0:0:0:
402,192,47878,1,0,0:0:0:0:
475,192,47878,1,0,0:0:0:0:
109,192,48191,1,0,0:0:0:0:
36,192,48191,1,0,0:0:0:0:
182,192,48191,1,2,0:0:0:0:
329,192,48191,1,0,0:0:0:0:
182,192,48347,128,2,48503:0:0:0:0:
329,192,48347,128,4,48503:0:0:0:0:
402,192,48347,1,0,0:0:0:0:
475,192,48347,1,0,0:0:0:0:
475,192,49128,1,0,0:0:0:0:
36,192,49128,1,2,0:0:0:0:
109,192,49128,1,4,0:0:0:0:
402,192,49128,128,0,49441:0:0:0:0:
109,192,49441,1,0,0:0:0:0:
182,192,49441,1,2,0:0:0:0:
256,192,49519,1,0,0:0:0:0:
329,192,49597,1,0,0:0:0:0:
475,192,49597,1,8,0:0:0:0:
36,192,49753,128,0,49910:0:0:0:0:
402,192,49910,1,0,0:0:0:0:
256,192,49910,1,2,0:0:0:0:
402,192,50066,1,0,0:0:0:0:
256,192,50066,128,2,50222:0:0:0:0:
475,192,50222,1,0,0:0:0:0:
109,192,50222,128,8,50378:0:0:0:0:
329,192,50378,1,0,0:0:0:0:
36,192,50378,1,2,0:0:0:0:
182,192,50378,1,4,0:0:0:0:
402,192,50378,128,0,50691:0:0:0:0:
256,192,50691,1,0,0:0:0:0:
36,192,50691,1,2,0:0:0:0:
182,192,50769,1,0,0:0:0:0:
109,192,50847,1,8,0:0:0:0:
475,192,50847,128,0,51003:0:0:0:0:
109,192,51003,1,0,0:0:0:0:
182,192,51081,1,0,0:0:0:0:
329,192,51160,1,0,0:0:0:0:
256,192,51160,1,2,0:0:0:0:
329,192,51316,1,0,0:0:0:0:
256,192,51316,1,2,0:0:0:0:
36,192,51472,1,8,0:0:0:0:
402,192,51472,128,0,51628:0:0:0:0:
256,192,51628,1,0,0:0:0:0:
475,192,51628,128,0,51941:0:0:0:0:
109,192,51628,1,2,0:0:0:0:
182,192,51628,1,4,0:0:0:0:
329,192,51941,1,0,0:0:0:0:
182,192,51941,1,2,0:0:0:0:
475,192,52097,128,0,52253:0:0:0:0:
109,192,52097,1,8,0:0:0:0:
329,192,52253,1,0,0:0:0:0:
402,192,52253,128,0,52566:0:0:0:0:
36,192,52253,1,2,0:0:0:0:
256,192,52253,1,4,0:0:0:0:
182,192,52566,128,0,52722:0:0:0:0:
256,192,52566,1,2,0:0:0:0:
109,192,52722,128,0,52878:0:0:0:0:
329,192,52722,1,8,0:0:0:0:
36,192,52878,128,0,53503:0:0:0:0:
475,192,52878,1,0,0:0:0:0:
402,192,52878,1,2,0:0:0:0:
256,192,52878,1,4,0:0:0:0:
475,192,53191,1,0,0:0:0:0:
402,192,53191,1,2,0:0:0:0:
329,192,53347,1,0,0:0:0:0:
182,192,53347,1,8,0:0:0:0:
402,192,53503,1,0,0:0:0:0:
475,192,53503,1,0,0:0:0:0:
109,192,53503,1,2,0:0:0:0:
256,192,53503,1,4,0:0:0:0:
329,192,53816,1,0,0:0:0:0:
256,192,53816,1,2,0:0:0:0:
182,192,53972,128,0,54128:0:0:0:0:
36,192,53972,1,8,0:0:0:0:
475,192,54128,1,0,0:0:0:0:
329,192,54128,128,0,54441:0:0:0:0:
402,192,54128,1,4,0:0:0:0:
109,192,54128,1,2,0:0:0:0:
109,192,54441,128,0,54519:0:0:0:0:
36,192,54441,128,2,54519:0:0:0:0:
475,192,54597,1,2,0:0:0:0:
329,192,54597,1,8,0:0:0:0:
256,192,54675,1,0,0:0:0:0:
182,192,54753,1,0,0:0:0:0:
402,192,54831,1,0,0:0:0:0:
329,192,54910,128,0,54988:0:0:0:0:
36,192,54910,128,2,54988:0:0:0:0:
329,192,55066,128,0,55144:0:0:0:0:
36,192,55066,128,0,55144:0:0:0:0:
402,192,55222,1,2,0:0:0:0:
109,192,55222,1,8,0:0:0:0:
182,192,55300,1,0,0:0:0:0:
475,192,55378,1,0,0:0:0:0:
402,192,55456,1,0,0:0:0:0:
256,192,55535,128,0,55613:0:0:0:0:
36,192,55535,128,2,55613:0:0:0:0:
256,192,55691,128,0,55769:0:0:0:0:
36,192,55691,128,0,55769:0:0:0:0:
475,192,55847,1,2,0:0:0:0:
182,192,55847,1,8,0:0:0:0:
402,192,55925,1,0,0:0:0:0:
329,192,56003,1,0,0:0:0:0:
256,192,56081,1,0,0:0:0:0:
182,192,56160,128,0,56238:0:0:0:0:
36,192,56160,128,2,56238:0:0:0:0:
182,192,56316,128,0,56394:0:0:0:0:
36,192,56316,128,0,56394:0:0:0:0:
329,192,56472,128,2,56628:0:0:0:0:
256,192,56472,1,8,0:0:0:0:
402,192,56628,1,0,0:0:0:0:
475,192,56628,128,0,56941:0:0:0:0:
109,192,56628,1,2,0:0:0:0:
36,192,56628,1,4,0:0:0:0:
182,192,56941,1,0,0:0:0:0:
36,192,56941,128,2,57097:0:0:0:0:
256,192,57019,1,0,0:0:0:0:
402,192,57097,128,0,57253:0:0:0:0:
329,192,57097,1,8,0:0:0:0:
109,192,57253,128,0,57410:0:0:0:0:
475,192,57410,1,0,0:0:0:0:
256,192,57410,128,2,57566:0:0:0:0:
402,192,57566,1,0,0:0:0:0:
109,192,57722,1,0,0:0:0:0:
329,192,57722,128,8,57800:0:0:0:0:
329,192,57878,128,0,58191:0:0:0:0:
475,192,57878,1,0,0:0:0:0:
109,192,57878,1,2,0:0:0:0:
182,192,57878,1,4,0:0:0:0:
402,192,58191,128,0,58347:0:0:0:0:
36,192,58191,1,2,0:0:0:0:
475,192,58347,1,0,0:0:0:0:
256,192,58347,128,8,58503:0:0:0:0:
109,192,58503,128,0,58660:0:0:0:0:
182,192,58503,1,2,0:0:0:0:
329,192,58660,1,0,0:0:0:0:
36,192,58660,1,2,0:0:0:0:
402,192,58738,1,2,0:0:0:0:
182,192,58816,1,2,0:0:0:0:
475,192,58816,128,0,58972:0:0:0:0:
256,192,58894,1,2,0:0:0:0:
329,192,58972,1,0,0:0:0:0:
109,192,58972,128,2,59128:0:0:0:0:
475,192,59128,1,0,0:0:0:0:
402,192,59128,128,0,59441:0:0:0:0:
36,192,59128,1,4,0:0:0:0:
182,192,59128,1,2,0:0:0:0:
329,192,59441,1,0,0:0:0:0:
109,192,59441,1,2,0:0:0:0:
256,192,59519,1,0,0:0:0:0:
402,192,59597,1,0,0:0:0:0:
182,192,59597,1,8,0:0:0:0:
36,192,59753,128,0,59910:0:0:0:0:
475,192,59910,1,0,0:0:0:0:
182,192,59910,1,2,0:0:0:0:
475,192,60066,1,0,0:0:0:0:
182,192,60066,128,2,60222:0:0:0:0:
329,192,60222,1,0,0:0:0:0:
36,192,60222,128,8,60378:0:0:0:0:
402,192,60378,1,0,0:0:0:0:
109,192,60378,1,4,0:0:0:0:
256,192,60378,1,2,0:0:0:0:
475,192,60378,128,0,60535:0:0:0:0:
329,192,60691,1,0,0:0:0:0:
109,192,60691,1,2,0:0:0:0:
36,192,60847,1,8,0:0:0:0:
256,192,60847,128,0,61160:0:0:0:0:
475,192,61160,1,0,0:0:0:0:
182,192,61160,1,2,0:0:0:0:
475,192,61316,1,0,0:0:0:0:
182,192,61316,1,2,0:0:0:0:
109,192,61472,1,8,0:0:0:0:
329,192,61472,128,0,61628:0:0:0:0:
402,192,61628,1,0,0:0:0:0:
475,192,61628,1,0,0:0:0:0:
36,192,61628,128,4,61941:0:0:0:0:
182,192,61628,1,2,0:0:0:0:
475,192,61941,1,0,0:0:0:0:
182,192,61941,128,2,62097:0:0:0:0:
329,192,62097,1,0,0:0:0:0:
36,192,62097,128,8,62253:0:0:0:0:
402,192,62253,1,0,0:0:0:0:
475,192,62253,1,0,0:0:0:0:
109,192,62253,1,4,0:0:0:0:
256,192,62253,128,2,62566:0:0:0:0:
329,192,62566,128,0,62722:0:0:0:0:
36,192,62566,1,2,0:0:0:0:
475,192,62722,128,0,62878:0:0:0:0:
182,192,62722,1,8,0:0:0:0:
256,192,62878,128,0,63347:0:0:0:0:
402,192,62878,1,0,0:0:0:0:
36,192,62878,1,4,0:0:0:0:
109,192,62878,1,2,0:0:0:0:
475,192,63191,1,0,0:0:0:0:
329,192,63191,1,2,0:0:0:0:
182,192,63347,1,0,0:0:0:0:
36,192,63347,1,8,0:0:0:0:
402,192,63503,1,0,0:0:0:0:
475,192,63503,1,0,0:0:0:0:
109,192,63503,1,4,0:0:0:0:
256,192,63503,1,2,0:0:0:0:
329,192,63816,128,0,63972:0:0:0:0:
182,192,63816,1,2,0:0:0:0:
256,192,63972,128,0,64128:0:0:0:0:
109,192,63972,1,8,0:0:0:0:
402,192,64128,1,0,0:0:0:0:
475,192,64128,1,0,0:0:0:0:
36,192,64128,1,2,0:0:0:0:
182,192,64128,128,4,64441:0:0:0:0:
329,192,64441,128,2,64597:0:0:0:0:
402,192,64597,128,0,64753:0:0:0:0:
36,192,64597,1,8,0:0:0:0:
109,192,64753,128,0,64910:0:0:0:0:
256,192,64910,1,0,0:0:0:0:
475,192,64910,128,0,65066:0:0:0:0:
329,192,64910,1,2,0:0:0:0:
182,192,64910,1,4,0:0:0:0:
182,192,65066,1,0,0:0:0:0:
256,192,65066,1,0,0:0:0:0:
475,192,65222,128,0,65378:0:0:0:0:
36,192,65222,1,8,0:0:0:0:
329,192,65378,1,0,0:0:0:0:
402,192,65378,128,0,65535:0:0:0:0:
109,192,65378,1,2,0:0:0:0:
182,192,65378,1,4,0:0:0:0:
475,192,65691,1,0,0:0:0:0:
329,192,65691,128,2,65847:0:0:0:0:
182,192,65847,128,0,66003:0:0:0:0:
256,192,65847,1,8,0:0:0:0:
36,192,66003,128,0,66160:0:0:0:0:
402,192,66160,1,0,0:0:0:0:
475,192,66160,1,0,0:0:0:0:
109,192,66160,1,2,0:0:0:0:
256,192,66160,1,4,0:0:0:0:
475,192,66316,1,0,0:0:0:0:
109,192,66316,128,2,66472:0:0:0:0:
36,192,66472,1,8,0:0:0:0:
329,192,66472,128,0,66628:0:0:0:0:
402,192,66628,1,0,0:0:0:0:
475,192,66628,128,0,66941:0:0:0:0:
109,192,66628,1,4,0:0:0:0:
256,192,66628,1,2,0:0:0:0:
109,192,66941,1,0,0:0:0:0:
36,192,66941,1,2,0:0:0:0:
329,192,67097,128,4,67253:0:0:0:0:
256,192,67097,128,8,67253:0:0:0:0:
182,192,67253,1,0,0:0:0:0:
109,192,67253,1,2,0:0:0:0:
402,192,67410,128,4,67566:0:0:0:0:
329,192,67410,128,8,67566:0:0:0:0:
256,192,67566,1,0,0:0:0:0:
182,192,67566,1,2,0:0:0:0:
475,192,67722,128,0,67878:0:0:0:0:
402,192,67722,128,8,67878:0:0:0:0:
36,192,67878,1,0,0:0:0:0:
109,192,67878,128,0,68347:0:0:0:0:
256,192,67878,1,4,0:0:0:0:
329,192,67878,1,2,0:0:0:0:
475,192,68191,1,0,0:0:0:0:
402,192,68191,1,2,0:0:0:0:
329,192,68347,128,4,68503:0:0:0:0:
256,192,68347,128,8,68503:0:0:0:0:
36,192,68503,1,0,0:0:0:0:
109,192,68503,1,2,0:0:0:0:
256,192,68660,128,8,68816:0:0:0:0:
182,192,68660,128,4,68816:0:0:0:0:
475,192,68816,1,0,0:0:0:0:
329,192,68816,1,2,0:0:0:0:
109,192,68972,128,4,69128:0:0:0:0:
182,192,68972,128,8,69128:0:0:0:0:
256,192,69128,1,0,0:0:0:0:
402,192,69128,1,0,0:0:0:0:
36,192,69128,128,4,69441:0:0:0:0:
475,192,69128,1,2,0:0:0:0:
329,192,69441,128,0,69597:0:0:0:0:
182,192,69441,1,2,0:0:0:0:
109,192,69519,1,0,0:0:0:0:
475,192,69597,128,0,69753:0:0:0:0:
36,192,69597,1,8,0:0:0:0:
402,192,69753,128,0,69910:0:0:0:0:
256,192,69910,128,0,70066:0:0:0:0:
109,192,69910,1,2,0:0:0:0:
402,192,70066,128,0,70222:0:0:0:0:
109,192,70066,1,2,0:0:0:0:
475,192,70222,128,0,70378:0:0:0:0:
36,192,70222,1,8,0:0:0:0:
256,192,70378,128,0,70691:0:0:0:0:
182,192,70378,1,2,0:0:0:0:
329,192,70691,128,0,70847:0:0:0:0:
36,192,70691,1,2,0:0:0:0:
109,192,70769,1,0,0:0:0:0:
475,192,70847,128,0,71003:0:0:0:0:
182,192,70847,1,8,0:0:0:0:
256,192,71003,128,0,71160:0:0:0:0:
109,192,71160,128,0,71316:0:0:0:0:
402,192,71160,1,2,0:0:0:0:
329,192,71316,128,0,71472:0:0:0:0:
402,192,71316,1,2,0:0:0:0:
182,192,71472,128,0,71628:0:0:0:0:
256,192,71472,1,8,0:0:0:0:
402,192,71628,1,0,0:0:0:0:
475,192,71628,1,0,0:0:0:0:
36,192,71628,128,2,71941:0:0:0:0:
109,192,71628,1,4,0:0:0:0:
182,192,71941,1,0,0:0:0:0:
402,192,71941,128,2,72097:0:0:0:0:
256,192,72019,1,0,0:0:0:0:
329,192,72097,1,0,0:0:0:0:
475,192,72097,128,8,72253:0:0:0:0:
109,192,72253,128,0,72410:0:0:0:0:
182,192,72410,1,0,0:0:0:0:
329,192,72410,128,2,72566:0:0:0:0:
182,192,72566,1,0,0:0:0:0:
402,192,72566,128,2,72722:0:0:0:0:
256,192,72722,1,0,0:0:0:0:
36,192,72722,128,8,72878:0:0:0:0:
329,192,72878,1,0,0:0:0:0:
475,192,72878,128,0,73191:0:0:0:0:
109,192,72878,1,2,0:0:0:0:
402,192,72878,1,4,0:0:0:0:
256,192,73191,128,0,73347:0:0:0:0:
182,192,73191,1,2,0:0:0:0:
109,192,73269,1,0,0:0:0:0:
329,192,73347,128,0,73503:0:0:0:0:
36,192,73347,1,8,0:0:0:0:
475,192,73503,128,0,73660:0:0:0:0:
36,192,73660,1,0,0:0:0:0:
256,192,73660,1,2,0:0:0:0:
256,192,73816,128,0,73972:0:0:0:0:
36,192,73816,1,2,0:0:0:0:
402,192,73972,128,0,74128:0:0:0:0:
475,192,73972,1,8,0:0:0:0:
329,192,74128,1,0,0:0:0:0:
109,192,74128,1,0,0:0:0:0:
36,192,74128,128,2,74441:0:0:0:0:
182,192,74128,1,4,0:0:0:0:
256,192,74441,1,0,0:0:0:0:
182,192,74441,1,2,0:0:0:0:
475,192,74597,1,0,0:0:0:0:
402,192,74597,1,4,0:0:0:0:
36,192,74597,1,8,0:0:0:0:
329,192,74753,1,0,0:0:0:0:
256,192,74753,1,2,0:0:0:0:
475,192,74910,1,0,0:0:0:0:
109,192,74910,1,4,0:0:0:0:
36,192,74910,1,8,0:0:0:0:
402,192,75066,1,0,0:0:0:0:
329,192,75066,1,2,0:0:0:0:
256,192,75222,1,0,0:0:0:0:
182,192,75222,1,8,0:0:0:0:
109,192,75222,1,4,0:0:0:0:
475,192,75378,1,0,0:0:0:0:
36,192,75378,1,2,0:0:0:0:
402,192,75535,1,0,0:0:0:0:
329,192,75535,1,2,0:0:0:0:
182,192,75535,1,4,0:0:0:0:
329,192,75691,1,0,0:0:0:0:
182,192,75691,1,0,0:0:0:0:
109,192,75691,1,2,0:0:0:0:
256,192,76160,128,0,76628:0:0:0:0:
402,192,76628,1,0,0:0:0:0:
475,192,76628,1,0,0:0:0:0:
36,192,76628,128,2,76941:0:0:0:0:
109,192,76628,1,4,0:0:0:0:
329,192,76941,128,2,77097:0:0:0:0:
475,192,77097,1,2,0:0:0:0:
182,192,77097,128,8,77253:0:0:0:0:
109,192,77253,128,0,77410:0:0:0:0:
402,192,77410,1,0,0:0:0:0:
256,192,77410,128,2,77566:0:0:0:0:
36,192,77566,128,0,77722:0:0:0:0:
329,192,77722,1,2,0:0:0:0:
182,192,77722,128,8,77878:0:0:0:0:
109,192,77878,128,0,78191:0:0:0:0:
475,192,78035,1,0,0:0:0:0:
256,192,78035,1,2,0:0:0:0:
402,192,78191,128,0,78347:0:0:0:0:
256,192,78347,128,2,78503:0:0:0:0:
36,192,78347,1,8,0:0:0:0:
475,192,78503,128,0,78660:0:0:0:0:
329,192,78660,128,0,78816:0:0:0:0:
182,192,78660,1,2,0:0:0:0:
109,192,78816,128,0,78972:0:0:0:0:
475,192,78972,1,2,0:0:0:0:
256,192,78972,128,8,79128:0:0:0:0:
36,192,79128,128,0,79441:0:0:0:0:
329,192,79285,1,0,0:0:0:0:
182,192,79285,1,2,0:0:0:0:
256,192,79441,128,0,79597:0:0:0:0:
475,192,79597,128,2,79753:0:0:0:0:
109,192,79597,1,8,0:0:0:0:
182,192,79753,128,0,79910:0:0:0:0:
402,192,79910,128,0,80066:0:0:0:0:
36,192,79910,1,2,0:0:0:0:
109,192,80066,128,0,80222:0:0:0:0:
329,192,80222,128,2,80378:0:0:0:0:
182,192,80222,1,8,0:0:0:0:
256,192,80378,128,0,80691:0:0:0:0:
475,192,80535,1,0,0:0:0:0:
36,192,80535,1,2,0:0:0:0:
109,192,80691,128,0,80847:0:0:0:0:
182,192,80847,1,2,0:0:0:0:
402,192,80847,128,8,81003:0:0:0:0:
329,192,81003,128,0,81160:0:0:0:0:
109,192,81160,128,0,81316:0:0:0:0:
182,192,81160,1,2,0:0:0:0:
329,192,81316,1,0,0:0:0:0:
36,192,81316,128,8,81472:0:0:0:0:
256,192,81394,1,8,0:0:0:0:
475,192,81472,1,0,0:0:0:0:
182,192,81472,1,8,0:0:0:0:
402,192,81550,1,0,0:0:0:0:
256,192,81628,128,0,81941:0:0:0:0:
329,192,81628,1,0,0:0:0:0:
36,192,81628,1,2,0:0:0:0:
109,192,81628,1,4,0:0:0:0:
182,192,81941,128,2,82097:0:0:0:0:
402,192,82097,128,2,82253:0:0:0:0:
109,192,82097,1,8,0:0:0:0:
329,192,82253,128,0,82410:0:0:0:0:
182,192,82410,128,0,82566:0:0:0:0:
256,192,82410,1,2,0:0:0:0:
402,192,82566,128,0,82722:0:0:0:0:
109,192,82722,128,2,82878:0:0:0:0:
182,192,82722,1,8,0:0:0:0:
475,192,82878,128,0,83191:0:0:0:0:
109,192,83035,1,0,0:0:0:0:
36,192,83035,1,2,0:0:0:0:
402,192,83191,128,0,83347:0:0:0:0:
182,192,83347,128,2,83503:0:0:0:0:
256,192,83347,1,8,0:0:0:0:
109,192,83503,128,0,83660:0:0:0:0:
256,192,83660,1,0,0:0:0:0:
329,192,83660,128,2,83816:0:0:0:0:
475,192,83816,128,0,83972:0:0:0:0:
36,192,83816,1,8,0:0:0:0:
109,192,83894,1,0,0:0:0:0:
402,192,83972,1,0,0:0:0:0:
182,192,83972,1,2,0:0:0:0:
329,192,84128,1,0,0:0:0:0:
109,192,84128,1,2,0:0:0:0:
182,192,84206,1,0,0:0:0:0:
402,192,84285,128,0,84597:0:0:0:0:
475,192,84285,1,0,0:0:0:0:
36,192,84285,1,2,0:0:0:0:
256,192,84285,1,4,0:0:0:0:
109,192,84441,128,2,84597:0:0:0:0:
329,192,84597,1,0,0:0:0:0:
182,192,84597,1,8,0:0:0:0:
329,192,84753,1,0,0:0:0:0:
475,192,84753,1,0,0:0:0:0:
109,192,84753,128,2,85066:0:0:0:0:
182,192,84753,1,4,0:0:0:0:
402,192,84910,128,2,85066:0:0:0:0:
256,192,85066,1,0,0:0:0:0:
36,192,85066,1,8,0:0:0:0:
475,192,85222,128,0,86160:0:0:0:0:
36,192,85222,128,2,86785:0:0:0:0:
329,192,85222,1,0,0:0:0:0:
256,192,85222,1,0,0:0:0:0:
182,192,85222,1,4,0:0:0:0:
182,192,86316,128,0,86472:0:0:0:0:
329,192,86472,128,0,86628:0:0:0:0:
475,192,86628,128,0,86785:0:0:0:0:
256,192,86785,1,0,0:0:0:0:
182,192,86785,128,0,87097:0:0:0:0:
402,192,87253,128,0,87410:0:0:0:0:
329,192,87253,1,0,0:0:0:0:
36,192,87253,1,0,0:0:0:0:
182,192,87410,128,0,87566:0:0:0:0:
475,192,87566,1,0,0:0:0:0:
256,192,87566,128,0,87722:0:0:0:0:
329,192,87722,128,0,87800:0:0:0:0:
329,192,87878,128,0,88191:0:0:0:0:
36,192,87995,1,0,0:0:0:0:
109,192,88035,1,0,0:0:0:0:
182,192,88074,1,0,0:0:0:0:
402,192,88191,128,0,88503:0:0:0:0:
475,192,88503,128,0,88738:0:0:0:0:
109,192,88503,1,0,0:0:0:0:
36,192,88503,1,0,0:0:0:0:
256,192,88816,1,0,0:0:0:0:
475,192,88972,128,0,89285:0:0:0:0:
256,192,89285,1,0,0:0:0:0:
109,192,89285,128,0,89597:0:0:0:0:
36,192,89285,1,0,0:0:0:0:
329,192,89337,1,0,0:0:0:0:
402,192,89389,1,0,0:0:0:0:
182,192,89597,128,0,89753:0:0:0:0:
475,192,89753,1,0,0:0:0:0:
329,192,89753,128,0,90066:0:0:0:0:
256,192,89753,1,0,0:0:0:0:
256,192,90066,128,0,90378:0:0:0:0:
402,192,90222,1,0,0:0:0:0:
109,192,90222,1,0,0:0:0:0:
182,192,90378,128,0,90691:0:0:0:0:
475,192,90535,1,0,0:0:0:0:
36,192,90535,1,0,0:0:0:0:
475,192,90847,1,0,0:0:0:0:
36,192,90847,128,0,91160:0:0:0:0:
402,192,91003,128,0,91160:0:0:0:0:
329,192,91160,128,0,91316:0:0:0:0:
256,192,91316,128,0,91472:0:0:0:0:
182,192,91472,128,0,91628:0:0:0:0:
109,192,91628,128,0,91785:0:0:0:0:
475,192,91785,128,0,92253:0:0:0:0:
329,192,91785,1,0,0:0:0:0:
36,192,91785,128,0,92097:0:0:0:0:
109,192,92097,128,0,92253:0:0:0:0:
329,192,92253,128,0,92410:0:0:0:0:
182,192,92253,1,0,0:0:0:0:
402,192,92566,1,0,0:0:0:0:
256,192,92566,1,0,0:0:0:0:
109,192,92566,128,0,92878:0:0:0:0:
36,192,92878,128,0,93347:0:0:0:0:
475,192,93035,1,0,0:0:0:0:
329,192,93035,1,0,0:0:0:0:
182,192,93035,1,0,0:0:0:0:
256,192,93347,128,0,93660:0:0:0:0:
402,192,93503,1,0,0:0:0:0:
109,192,93503,1,0,0:0:0:0:
182,192,93660,128,0,93972:0:0:0:0:
475,192,93972,1,0,0:0:0:0:
109,192,93972,128,0,94285:0:0:0:0:
329,192,94285,1,0,0:0:0:0:
36,192,94285,1,0,0:0:0:0:
475,192,94389,1,0,0:0:0:0:
402,192,94493,1,0,0:0:0:0:
256,192,94597,1,0,0:0:0:0:
36,192,94597,1,0,0:0:0:0:
402,192,94701,1,0,0:0:0:0:
329,192,94805,1,0,0:0:0:0:
182,192,94910,1,0,0:0:0:0:
36,192,94910,1,0,0:0:0:0:
329,192,95014,1,0,0:0:0:0:
256,192,95118,1,0,0:0:0:0:
109,192,95222,1,0,0:0:0:0:
329,192,95378,1,0,0:0:0:0:
182,192,95378,1,8,0:0:0:0:
109,192,95456,1,8,0:0:0:0:
402,192,95535,1,0,0:0:0:0:
475,192,95535,1,0,0:0:0:0:
36,192,95535,1,2,0:0:0:0:
256,192,95535,1,4,0:0:0:0:
329,192,95691,1,0,0:0:0:0:
182,192,95691,1,8,0:0:0:0:
475,192,95847,1,0,0:0:0:0:
36,192,95847,1,8,0:0:0:0:
256,192,96003,128,0,96316:0:0:0:0:
402,192,96003,1,0,0:0:0:0:
182,192,96003,1,2,0:0:0:0:
109,192,96003,1,4,0:0:0:0:
475,192,96316,1,4,0:0:0:0:
329,192,96316,1,2,0:0:0:0:
182,192,96394,1,0,0:0:0:0:
402,192,96472,1,0,0:0:0:0:
36,192,96472,1,8,0:0:0:0:
109,192,96628,1,0,0:0:0:0:
402,192,96785,1,0,0:0:0:0:
475,192,96785,1,0,0:0:0:0:
182,192,96785,1,2,0:0:0:0:
256,192,96785,1,4,0:0:0:0:
109,192,96941,1,0,0:0:0:0:
36,192,96941,1,8,0:0:0:0:
329,192,97097,1,2,0:0:0:0:
256,192,97097,1,8,0:0:0:0:
109,192,97253,1,0,0:0:0:0:
182,192,97331,1,0,0:0:0:0:
475,192,97410,1,0,0:0:0:0:
256,192,97410,1,2,0:0:0:0:
36,192,97488,1,0,0:0:0:0:
329,192,97566,1,2,0:0:0:0:
109,192,97644,1,2,0:0:0:0:
475,192,97722,1,2,0:0:0:0:
402,192,97722,1,8,0:0:0:0:
182,192,97800,1,0,0:0:0:0:
256,192,97878,1,2,0:0:0:0:
329,192,97956,1,0,0:0:0:0:
475,192,98035,1,0,0:0:0:0:
36,192,98035,1,2,0:0:0:0:
402,192,98113,1,0,0:0:0:0:
256,192,98191,1,8,0:0:0:0:
109,192,98269,1,0,0:0:0:0:
329,192,98347,1,8,0:0:0:0:
36,192,98347,1,2,0:0:0:0:
402,192,98425,1,8,0:0:0:0:
182,192,98503,1,8,0:0:0:0:
109,192,98581,1,8,0:0:0:0:
475,192,98660,1,0,0:0:0:0:
256,192,98660,1,2,0:0:0:0:
36,192,98738,1,2,0:0:0:0:
402,192,98816,1,8,0:0:0:0:
182,192,98816,1,2,0:0:0:0:
329,192,98894,1,2,0:0:0:0:
109,192,98972,1,8,0:0:0:0:
256,192,98972,128,2,99285:0:0:0:0:
329,192,99285,1,0,0:0:0:0:
475,192,99285,1,0,0:0:0:0:
36,192,99285,1,2,0:0:0:0:
109,192,99285,1,4,0:0:0:0:
402,192,99597,1,0,0:0:0:0:
182,192,99597,1,8,0:0:0:0:
256,192,99675,1,0,0:0:0:0:
36,192,99675,1,2,0:0:0:0:
329,192,99753,1,0,0:0:0:0:
109,192,99753,1,2,0:0:0:0:
402,192,99910,1,0,0:0:0:0:
182,192,99910,1,8,0:0:0:0:
475,192,99988,1,0,0:0:0:0:
256,192,99988,1,2,0:0:0:0:
329,192,100066,1,0,0:0:0:0:
109,192,100066,1,2,0:0:0:0:
402,192,100222,1,0,0:0:0:0:
182,192,100222,1,2,0:0:0:0:
402,192,100378,1,0,0:0:0:0:
475,192,100378,128,0,100691:0:0:0:0:
36,192,100378,128,2,100691:0:0:0:0:
182,192,100378,1,4,0:0:0:0:
329,192,100691,1,0,0:0:0:0:
109,192,100691,1,2,0:0:0:0:
402,192,100847,1,4,0:0:0:0:
182,192,100847,1,8,0:0:0:0:
329,192,100925,1,0,0:0:0:0:
109,192,100925,1,8,0:0:0:0:
256,192,101003,1,0,0:0:0:0:
36,192,101003,1,2,0:0:0:0:
475,192,101160,1,0,0:0:0:0:
182,192,101160,1,2,0:0:0:0:
402,192,101316,1,0,0:0:0:0:
109,192,101316,1,2,0:0:0:0:
329,192,101472,1,0,0:0:0:0:
36,192,101472,1,8,0:0:0:0:
256,192,101550,1,8,0:0:0:0:
402,192,101628,1,0,0:0:0:0:
182,192,101628,1,8,0:0:0:0:
329,192,101706,1,8,0:0:0:0:
475,192,101785,1,0,0:0:0:0:
36,192,101785,1,2,0:0:0:0:
109,192,101785,1,4,0:0:0:0:
256,192,101785,128,0,101941:0:0:0:0:
475,192,101941,1,0,0:0:0:0:
182,192,102097,1,0,0:0:0:0:
36,192,102097,128,8,102253:0:0:0:0:
402,192,102253,1,0,0:0:0:0:
475,192,102253,1,0,0:0:0:0:
109,192,102253,128,2,102410:0:0:0:0:
256,192,102253,1,4,0:0:0:0:
329,192,102410,1,0,0:0:0:0:
182,192,102566,128,2,102722:0:0:0:0:
402,192,102722,128,0,102878:0:0:0:0:
256,192,102722,1,8,0:0:0:0:
109,192,102878,128,0,103035:0:0:0:0:
402,192,103035,128,0,103347:0:0:0:0:
475,192,103035,1,0,0:0:0:0:
36,192,103035,1,2,0:0:0:0:
329,192,103035,1,4,0:0:0:0:
256,192,103191,128,0,103347:0:0:0:0:
109,192,103191,1,2,0:0:0:0:
182,192,103347,1,0,0:0:0:0:
36,192,103347,128,8,103660:0:0:0:0:
402,192,103503,1,0,0:0:0:0:
475,192,103503,1,0,0:0:0:0:
256,192,103503,1,2,0:0:0:0:
329,192,103503,128,4,103660:0:0:0:0:
182,192,103660,1,0,0:0:0:0:
36,192,103816,128,0,103972:0:0:0:0:
109,192,103816,1,2,0:0:0:0:
475,192,103972,128,0,104128:0:0:0:0:
256,192,103972,1,8,0:0:0:0:
402,192,104128,128,0,104285:0:0:0:0:
329,192,104285,1,0,0:0:0:0:
36,192,104285,1,0,0:0:0:0:
109,192,104285,128,2,104441:0:0:0:0:
182,192,104285,1,4,0:0:0:0:
256,192,104441,128,0,104597:0:0:0:0:
475,192,104597,1,0,0:0:0:0:
36,192,104597,1,8,0:0:0:0:
329,192,104753,128,0,104910:0:0:0:0:
402,192,104753,128,0,104910:0:0:0:0:
109,192,104753,128,2,104910:0:0:0:0:
182,192,104753,128,4,104910:0:0:0:0:
329,192,105066,128,0,105222:0:0:0:0:
402,192,105066,128,0,105222:0:0:0:0:
109,192,105066,128,2,105222:0:0:0:0:
182,192,105066,128,4,105222:0:0:0:0:
329,192,105378,128,0,105535:0:0:0:0:
475,192,105378,128,0,105535:0:0:0:0:
36,192,105378,128,2,106628:0:0:0:0:
182,192,105378,128,4,105535:0:0:0:0:
475,192,105691,1,2,0:0:0:0:
109,192,105691,128,0,106628:0:0:0:0:
475,192,105847,1,8,0:0:0:0:
256,192,105847,1,2,0:0:0:0:
402,192,106003,1,2,0:0:0:0:
402,192,106160,1,2,0:0:0:0:
182,192,106160,1,8,0:0:0:0:
329,192,106316,1,2,0:0:0:0:
329,192,106472,1,8,0:0:0:0:
475,192,106472,1,2,0:0:0:0:
182,192,106628,1,0,0:0:0:0:
256,192,106628,1,2,0:0:0:0:
475,192,106785,1,8,0:0:0:0:
402,192,106785,1,2,0:0:0:0:
109,192,106941,1,0,0:0:0:0:
36,192,106941,1,2,0:0:0:0:
256,192,107097,1,8,0:0:0:0:
182,192,107097,1,2,0:0:0:0:
329,192,107097,1,0,0:0:0:0:
475,192,107253,1,0,0:0:0:0:
402,192,107253,1,2,0:0:0:0:
36,192,107253,1,0,0:0:0:0:
329,192,107410,1,0,0:0:0:0:
256,192,107410,1,4,0:0:0:0:
109,192,107410,1,2,0:0:0:0:
402,192,107488,1,8,0:0:0:0:
475,192,107566,1,0,0:0:0:0:
182,192,107566,1,8,0:0:0:0:
256,192,107644,1,0,0:0:0:0:
402,192,107722,1,0,0:0:0:0:
329,192,107722,1,4,0:0:0:0:
36,192,107722,1,2,0:0:0:0:
109,192,107800,1,0,0:0:0:0:
475,192,107878,1,0,0:0:0:0:
182,192,107878,1,8,0:0:0:0:
402,192,107956,1,8,0:0:0:0:
256,192,108035,128,0,108347:0:0:0:0:
329,192,108035,128,0,108347:0:0:0:0:
109,192,108035,1,4,0:0:0:0:
36,192,108035,1,2,0:0:0:0:
36,192,108347,1,8,0:0:0:0:
402,192,108503,128,0,108816:0:0:0:0:
475,192,108503,128,0,108816:0:0:0:0:
256,192,108503,1,4,0:0:0:0:
182,192,108503,1,2,0:0:0:0:
36,192,108816,1,2,0:0:0:0:
256,192,108972,1,0,0:0:0:0:
109,192,108972,1,8,0:0:0:0:
402,192,109128,1,0,0:0:0:0:
475,192,109206,1,0,0:0:0:0:
329,192,109285,1,0,0:0:0:0:
109,192,109285,1,2,0:0:0:0:
402,192,109363,1,0,0:0:0:0:
256,192,109441,1,0,0:0:0:0:
36,192,109441,1,2,0:0:0:0:
329,192,109519,1,0,0:0:0:0:
475,192,109597,1,0,0:0:0:0:
182,192,109597,1,8,0:0:0:0:
256,192,109675,1,0,0:0:0:0:
402,192,109753,1,0,0:0:0:0:
329,192,109831,1,8,0:0:0:0:
475,192,109910,1,0,0:0:0:0:
182,192,109910,1,2,0:0:0:0:
109,192,109988,1,0,0:0:0:0:
402,192,110066,1,0,0:0:0:0:
256,192,110066,1,2,0:0:0:0:
36,192,110144,1,0,0:0:0:0:
329,192,110222,1,0,0:0:0:0:
109,192,110222,1,8,0:0:0:0:
402,192,110300,1,0,0:0:0:0:
182,192,110378,1,0,0:0:0:0:
256,192,110456,1,0,0:0:0:0:
329,192,110535,128,0,110847:0:0:0:0:
36,192,110535,128,2,110847:0:0:0:0:
109,192,110535,1,4,0:0:0:0:
475,192,110535,1,0,0:0:0:0:
256,192,110847,1,8,0:0:0:0:
182,192,111003,128,4,111316:0:0:0:0:
402,192,111003,1,0,0:0:0:0:
36,192,111003,1,2,0:0:0:0:
475,192,111003,128,0,111316:0:0:0:0:
256,192,111316,1,2,0:0:0:0:
182,192,111472,1,0,0:0:0:0:
36,192,111472,1,8,0:0:0:0:
329,192,111550,1,0,0:0:0:0:
475,192,111628,1,0,0:0:0:0:
402,192,111706,1,0,0:0:0:0:
329,192,111785,1,0,0:0:0:0:
182,192,111785,1,2,0:0:0:0:
36,192,111863,1,0,0:0:0:0:
402,192,111941,1,0,0:0:0:0:
256,192,111941,1,2,0:0:0:0:
109,192,112019,1,0,0:0:0:0:
475,192,112097,1,0,0:0:0:0:
329,192,112097,1,8,0:0:0:0:
182,192,112175,1,0,0:0:0:0:
256,192,112253,1,0,0:0:0:0:
329,192,112331,1,0,0:0:0:0:
109,192,112410,1,0,0:0:0:0:
36,192,112410,1,2,0:0:0:0:
475,192,112488,1,0,0:0:0:0:
329,192,112566,1,0,0:0:0:0:
182,192,112566,1,2,0:0:0:0:
36,192,112644,1,0,0:0:0:0:
475,192,112722,1,0,0:0:0:0:
402,192,112722,1,8,0:0:0:0:
256,192,112800,1,0,0:0:0:0:
109,192,112878,1,0,0:0:0:0:
475,192,112956,1,0,0:0:0:0:
329,192,113035,128,4,113347:0:0:0:0:
256,192,113035,128,2,113347:0:0:0:0:
182,192,113035,1,0,0:0:0:0:
36,192,113035,1,0,0:0:0:0:
109,192,113347,1,8,0:0:0:0:
402,192,113503,128,0,113816:0:0:0:0:
475,192,113503,128,0,113816:0:0:0:0:
329,192,113503,1,2,0:0:0:0:
182,192,113503,1,4,0:0:0:0:
36,192,113816,1,2,0:0:0:0:
256,192,113972,1,0,0:0:0:0:
109,192,113972,1,8,0:0:0:0:
329,192,114285,1,0,0:0:0:0:
36,192,114285,128,2,114597:0:0:0:0:
329,192,114441,1,2,0:0:0:0:
182,192,114597,128,0,114910:0:0:0:0:
475,192,114597,1,8,0:0:0:0:
402,192,114675,1,0,0:0:0:0:
329,192,114753,1,0,0:0:0:0:
402,192,114910,128,0,115222:0:0:0:0:
109,192,114910,1,2,0:0:0:0:
256,192,114988,1,2,0:0:0:0:
182,192,115066,1,2,0:0:0:0:
109,192,115144,1,2,0:0:0:0:
475,192,115222,128,0,115535:0:0:0:0:
329,192,115222,1,0,0:0:0:0:
36,192,115222,1,8,0:0:0:0:
402,192,115535,1,0,0:0:0:0:
256,192,115535,128,0,115847:0:0:0:0:
36,192,115535,1,2,0:0:0:0:
329,192,115535,1,4,0:0:0:0:
329,192,115847,1,0,0:0:0:0:
109,192,115847,128,8,116003:0:0:0:0:
402,192,116003,128,0,116316:0:0:0:0:
475,192,116003,1,0,0:0:0:0:
36,192,116003,1,2,0:0:0:0:
182,192,116003,1,4,0:0:0:0:
329,192,116316,128,0,116472:0:0:0:0:
109,192,116316,1,2,0:0:0:0:
182,192,116472,1,0,0:0:0:0:
36,192,116472,128,8,116628:0:0:0:0:
329,192,116628,128,0,116941:0:0:0:0:
475,192,116628,1,0,0:0:0:0:
109,192,116628,1,2,0:0:0:0:
256,192,116628,1,4,0:0:0:0:
182,192,116941,128,0,117097:0:0:0:0:
109,192,116941,1,2,0:0:0:0:
402,192,117097,1,0,0:0:0:0:
36,192,117097,128,8,117253:0:0:0:0:
329,192,117253,1,0,0:0:0:0:
475,192,117253,1,0,0:0:0:0:
109,192,117253,1,2,0:0:0:0:
182,192,117253,128,4,117566:0:0:0:0:
475,192,117566,1,0,0:0:0:0:
256,192,117566,128,2,117722:0:0:0:0:
402,192,117722,1,0,0:0:0:0:
109,192,117722,128,8,117878:0:0:0:0:
329,192,117878,1,0,0:0:0:0:
475,192,117878,1,0,0:0:0:0:
36,192,117878,128,2,118191:0:0:0:0:
182,192,117878,1,4,0:0:0:0:
109,192,118191,1,0,0:0:0:0:
329,192,118191,1,2,0:0:0:0:
402,192,118269,1,0,0:0:0:0:
475,192,118347,1,4,0:0:0:0:
182,192,118347,1,8,0:0:0:0:
256,192,118503,1,0,0:0:0:0:
329,192,118660,1,0,0:0:0:0:
36,192,118660,1,2,0:0:0:0:
182,192,118738,1,0,0:0:0:0:
329,192,118816,1,0,0:0:0:0:
182,192,118894,1,0,0:0:0:0:
475,192,118972,1,8,0:0:0:0:
109,192,118972,1,2,0:0:0:0:
402,192,119050,1,0,0:0:0:0:
256,192,119128,1,0,0:0:0:0:
182,192,119285,1,0,0:0:0:0:
36,192,119285,1,2,0:0:0:0:
256,192,119441,1,0,0:0:0:0:
329,192,119519,1,0,0:0:0:0:
402,192,119597,1,8,0:0:0:0:
36,192,119597,1,2,0:0:0:0:
329,192,119753,1,0,0:0:0:0:
256,192,119831,1,0,0:0:0:0:
475,192,119910,1,0,0:0:0:0:
182,192,119910,1,2,0:0:0:0:
109,192,119988,1,0,0:0:0:0:
36,192,120066,1,0,0:0:0:0:
475,192,120222,1,2,0:0:0:0:
36,192,120222,1,8,0:0:0:0:
109,192,120300,1,0,0:0:0:0:
329,192,120378,1,0,0:0:0:0:
182,192,120378,1,8,0:0:0:0:
402,192,120456,1,8,0:0:0:0:
256,192,120535,1,0,0:0:0:0:
475,192,120535,1,0,0:0:0:0:
36,192,120535,1,2,0:0:0:0:
109,192,120535,1,4,0:0:0:0:
402,192,120691,1,0,0:0:0:0:
256,192,120691,1,2,0:0:0:0:
329,192,120847,1,0,0:0:0:0:
182,192,120847,1,8,0:0:0:0:
109,192,120925,1,0,0:0:0:0:
475,192,121003,1,2,0:0:0:0:
329,192,121081,1,0,0:0:0:0:
256,192,121160,1,0,0:0:0:0:
36,192,121160,1,2,0:0:0:0:
402,192,121238,1,2,0:0:0:0:
182,192,121316,1,2,0:0:0:0:
329,192,121394,1,0,0:0:0:0:
475,192,121472,1,0,0:0:0:0:
109,192,121472,1,2,0:0:0:0:
256,192,121550,1,0,0:0:0:0:
329,192,121628,128,0,121863:0:0:0:0:
402,192,121628,128,0,121863:0:0:0:0:
36,192,121628,128,2,121863:0:0:0:0:
109,192,121628,128,4,121863:0:0:0:0:
329,192,121941,1,0,0:0:0:0:
402,192,121941,1,0,0:0:0:0:
36,192,121941,1,2,0:0:0:0:
109,192,121941,1,0,0:0:0:0:
329,192,122097,128,0,122253:0:0:0:0:
402,192,122097,128,0,122253:0:0:0:0:
36,192,122097,128,2,122253:0:0:0:0:
109,192,122097,128,4,122253:0:0:0:0:
402,192,122878,1,0,0:0:0:0:
475,192,122878,1,0,0:0:0:0:
109,192,122878,1,2,0:0:0:0:
329,192,122878,1,4,0:0:0:0:
329,192,123191,1,0,0:0:0:0:
402,192,123191,1,2,0:0:0:0:
256,192,123269,1,0,0:0:0:0:
182,192,123347,1,0,0:0:0:0:
36,192,123347,1,8,0:0:0:0:
475,192,123503,128,0,123816:0:0:0:0:
256,192,123660,1,0,0:0:0:0:
109,192,123660,1,2,0:0:0:0:
256,192,123816,1,0,0:0:0:0:
109,192,123816,128,2,123972:0:0:0:0:
475,192,123972,1,0,0:0:0:0:
182,192,123972,128,8,124128:0:0:0:0:
329,192,124128,1,0,0:0:0:0:
402,192,124128,1,0,0:0:0:0:
256,192,124128,1,4,0:0:0:0:
36,192,124128,128,2,124441:0:0:0:0:
402,192,124441,1,0,0:0:0:0:
182,192,124441,1,2,0:0:0:0:
329,192,124519,1,0,0:0:0:0:
36,192,124597,1,8,0:0:0:0:
256,192,124597,128,0,124753:0:0:0:0:
402,192,124910,1,2,0:0:0:0:
109,192,124910,128,0,125066:0:0:0:0:
256,192,125066,1,0,0:0:0:0:
402,192,125066,1,2,0:0:0:0:
109,192,125222,1,0,0:0:0:0:
329,192,125222,128,8,125378:0:0:0:0:
402,192,125378,1,0,0:0:0:0:
475,192,125378,1,0,0:0:0:0:
36,192,125378,1,2,0:0:0:0:
182,192,125378,128,4,125691:0:0:0:0:
329,192,125691,128,0,125847:0:0:0:0:
109,192,125691,1,2,0:0:0:0:
402,192,125847,128,0,126003:0:0:0:0:
182,192,125847,1,8,0:0:0:0:
329,192,126003,1,0,0:0:0:0:
475,192,126003,128,0,126316:0:0:0:0:
36,192,126003,1,2,0:0:0:0:
109,192,126003,1,4,0:0:0:0:
182,192,126316,128,0,126472:0:0:0:0:
36,192,126316,1,2,0:0:0:0:
329,192,126472,128,0,126628:0:0:0:0:
256,192,126472,1,8,0:0:0:0:
475,192,126628,128,0,127410:0:0:0:0:
402,192,126628,1,0,0:0:0:0:
36,192,126628,1,2,0:0:0:0:
182,192,126628,1,4,0:0:0:0:
109,192,126941,1,0,0:0:0:0:
36,192,126941,1,2,0:0:0:0:
329,192,127097,1,0,0:0:0:0:
182,192,127097,1,8,0:0:0:0:
36,192,127253,1,0,0:0:0:0:
256,192,127253,1,0,0:0:0:0:
402,192,127253,1,2,0:0:0:0:
109,192,127253,1,4,0:0:0:0:
475,192,127566,1,0,0:0:0:0:
182,192,127566,1,2,0:0:0:0:
402,192,127722,1,0,0:0:0:0:
256,192,127722,128,8,127800:0:0:0:0:
256,192,127878,128,0,128191:0:0:0:0:
402,192,127878,1,0,0:0:0:0:
36,192,127878,1,4,0:0:0:0:
109,192,127878,1,2,0:0:0:0:
182,192,128191,128,0,128269:0:0:0:0:
36,192,128191,128,2,128269:0:0:0:0:
475,192,128347,128,2,128503:0:0:0:0:
402,192,128347,1,8,0:0:0:0:
329,192,128425,1,0,0:0:0:0:
256,192,128503,1,0,0:0:0:0:
182,192,128581,1,0,0:0:0:0:
109,192,128660,128,0,128738:0:0:0:0:
36,192,128660,128,2,128738:0:0:0:0:
109,192,128816,128,0,128894:0:0:0:0:
36,192,128816,128,0,128894:0:0:0:0:
475,192,128972,128,2,129128:0:0:0:0:
329,192,128972,1,8,0:0:0:0:
182,192,129050,1,0,0:0:0:0:
256,192,129128,1,0,0:0:0:0:
329,192,129206,1,0,0:0:0:0:
182,192,129285,128,0,129363:0:0:0:0:
36,192,129285,128,2,129363:0:0:0:0:
182,192,129441,128,0,129519:0:0:0:0:
36,192,129441,128,0,129519:0:0:0:0:
475,192,129597,128,2,129753:0:0:0:0:
256,192,129597,1,8,0:0:0:0:
109,192,129675,1,0,0:0:0:0:
402,192,129753,1,0,0:0:0:0:
329,192,129831,1,0,0:0:0:0:
256,192,129910,128,0,129988:0:0:0:0:
36,192,129910,128,2,129988:0:0:0:0:
256,192,130066,128,0,130144:0:0:0:0:
36,192,130066,128,0,130144:0:0:0:0:
329,192,130222,128,2,130378:0:0:0:0:
182,192,130222,1,8,0:0:0:0:
402,192,130378,1,0,0:0:0:0:
475,192,130378,128,0,130691:0:0:0:0:
36,192,130378,1,2,0:0:0:0:
109,192,130378,1,4,0:0:0:0:
109,192,130691,1,0,0:0:0:0:
329,192,130691,128,2,131003:0:0:0:0:
36,192,130847,1,0,0:0:0:0:
402,192,130847,128,8,131003:0:0:0:0:
182,192,131003,128,0,131316:0:0:0:0:
475,192,131003,1,0,0:0:0:0:
402,192,131160,1,0,0:0:0:0:
109,192,131160,128,2,131316:0:0:0:0:
329,192,131316,1,0,0:0:0:0:
256,192,131472,1,0,0:0:0:0:
109,192,131472,128,8,131785:0:0:0:0:
402,192,131628,1,0,0:0:0:0:
475,192,131628,1,0,0:0:0:0:
36,192,131628,128,2,131941:0:0:0:0:
329,192,131628,1,4,0:0:0:0:
475,192,131941,128,0,132097:0:0:0:0:
256,192,131941,1,2,0:0:0:0:
182,192,132019,1,0,0:0:0:0:
402,192,132097,128,0,132253:0:0:0:0:
109,192,132097,1,8,0:0:0:0:
329,192,132253,128,0,132410:0:0:0:0:
36,192,132253,1,2,0:0:0:0:
475,192,132410,1,0,0:0:0:0:
182,192,132410,1,2,0:0:0:0:
256,192,132488,1,2,0:0:0:0:
36,192,132566,1,2,0:0:0:0:
329,192,132566,128,0,132722:0:0:0:0:
109,192,132644,1,2,0:0:0:0:
182,192,132722,1,2,0:0:0:0:
475,192,132722,128,0,132878:0:0:0:0:
256,192,132878,1,0,0:0:0:0:
36,192,132878,128,0,133191:0:0:0:0:
402,192,132878,1,4,0:0:0:0:
109,192,132878,1,2,0:0:0:0:
329,192,133191,1,0,0:0:0:0:
182,192,133191,1,2,0:0:0:0:
402,192,133269,1,0,0:0:0:0:
36,192,133347,1,0,0:0:0:0:
475,192,133347,1,8,0:0:0:0:
329,192,133503,128,0,133660:0:0:0:0:
182,192,133660,1,0,0:0:0:0:
36,192,133660,1,2,0:0:0:0:
36,192,133816,1,2,0:0:0:0:
182,192,133816,128,0,133972:0:0:0:0:
402,192,133972,1,8,0:0:0:0:
256,192,133972,128,0,134128:0:0:0:0:
329,192,134128,1,0,0:0:0:0:
36,192,134128,1,4,0:0:0:0:
109,192,134128,1,2,0:0:0:0:
475,192,134128,128,0,134597:0:0:0:0:
182,192,134441,1,2,0:0:0:0:
329,192,134441,1,0,0:0:0:0:
109,192,134519,1,0,0:0:0:0:
36,192,134597,1,8,0:0:0:0:
256,192,134597,128,0,134753:0:0:0:0:
329,192,134910,1,0,0:0:0:0:
36,192,134910,128,2,135066:0:0:0:0:
329,192,135066,1,0,0:0:0:0:
182,192,135066,1,2,0:0:0:0:
475,192,135222,1,0,0:0:0:0:
256,192,135222,128,8,135378:0:0:0:0:
329,192,135378,1,0,0:0:0:0:
402,192,135378,1,0,0:0:0:0:
36,192,135378,1,4,0:0:0:0:
109,192,135378,128,2,135691:0:0:0:0:
475,192,135691,128,0,135847:0:0:0:0:
182,192,135691,1,2,0:0:0:0:
402,192,135847,128,0,136003:0:0:0:0:
36,192,135847,1,8,0:0:0:0:
329,192,136003,1,0,0:0:0:0:
475,192,136003,1,0,0:0:0:0:
109,192,136003,1,4,0:0:0:0:
256,192,136003,128,2,136316:0:0:0:0:
329,192,136316,128,0,136472:0:0:0:0:
36,192,136316,1,2,0:0:0:0:
475,192,136472,1,0,0:0:0:0:
182,192,136472,128,8,136628:0:0:0:0:
256,192,136628,1,0,0:0:0:0:
402,192,136628,1,0,0:0:0:0:
36,192,136628,128,4,137253:0:0:0:0:
109,192,136628,1,2,0:0:0:0:
475,192,136941,1,0,0:0:0:0:
329,192,136941,1,2,0:0:0:0:
182,192,137097,1,0,0:0:0:0:
256,192,137097,1,8,0:0:0:0:
402,192,137253,1,0,0:0:0:0:
475,192,137253,1,0,0:0:0:0:
109,192,137253,1,4,0:0:0:0:
329,192,137253,1,2,0:0:0:0:
329,192,137566,128,0,137722:0:0:0:0:
36,192,137566,1,2,0:0:0:0:
256,192,137722,128,0,137878:0:0:0:0:
109,192,137722,1,8,0:0:0:0:
402,192,137878,1,0,0:0:0:0:
475,192,137878,1,0,0:0:0:0:
36,192,137878,1,2,0:0:0:0:
182,192,137878,128,4,138191:0:0:0:0:
329,192,138191,128,2,138347:0:0:0:0:
475,192,138347,128,0,138503:0:0:0:0:
109,192,138347,1,8,0:0:0:0:
256,192,138503,128,0,138660:0:0:0:0:
182,192,138503,1,0,0:0:0:0:
402,192,138660,128,0,138972:0:0:0:0:
475,192,138660,1,0,0:0:0:0:
36,192,138660,1,2,0:0:0:0:
109,192,138660,1,4,0:0:0:0:
109,192,138816,1,0,0:0:0:0:
36,192,138816,1,0,0:0:0:0:
329,192,138972,1,0,0:0:0:0:
182,192,138972,128,8,139128:0:0:0:0:
402,192,139128,1,0,0:0:0:0:
36,192,139128,1,0,0:0:0:0:
256,192,139128,1,2,0:0:0:0:
475,192,139128,128,4,139441:0:0:0:0:
256,192,139441,1,0,0:0:0:0:
36,192,139441,128,2,139597:0:0:0:0:
475,192,139597,1,0,0:0:0:0:
109,192,139597,128,8,139753:0:0:0:0:
182,192,139753,128,0,139910:0:0:0:0:
475,192,139910,1,0,0:0:0:0:
256,192,139910,1,4,0:0:0:0:
36,192,139910,1,2,0:0:0:0:
475,192,140066,1,0,0:0:0:0:
256,192,140066,128,2,140222:0:0:0:0:
329,192,140222,128,0,140378:0:0:0:0:
36,192,140222,1,8,0:0:0:0:
402,192,140378,128,0,140691:0:0:0:0:
475,192,140378,1,0,0:0:0:0:
109,192,140378,1,4,0:0:0:0:
182,192,140378,1,2,0:0:0:0:
256,192,140691,128,0,140847:0:0:0:0:
109,192,140691,128,2,140847:0:0:0:0:
402,192,140847,128,4,141003:0:0:0:0:
329,192,140847,128,8,141003:0:0:0:0:
109,192,141003,128,0,141160:0:0:0:0:
36,192,141003,128,0,141160:0:0:0:0:
475,192,141160,128,4,141316:0:0:0:0:
402,192,141160,128,8,141316:0:0:0:0:
182,192,141316,1,0,0:0:0:0:
109,192,141316,1,2,0:0:0:0:
475,192,141472,128,0,141628:0:0:0:0:
36,192,141472,128,8,141628:0:0:0:0:
256,192,141628,128,0,142097:0:0:0:0:
402,192,141628,1,0,0:0:0:0:
109,192,141628,1,4,0:0:0:0:
182,192,141628,1,2,0:0:0:0:
475,192,141941,128,0,142097:0:0:0:0:
402,192,141941,128,2,142097:0:0:0:0:
182,192,142097,128,4,142253:0:0:0:0:
36,192,142097,128,8,142253:0:0:0:0:
475,192,142253,1,0,0:0:0:0:
402,192,142253,1,2,0:0:0:0:
329,192,142410,128,8,142566:0:0:0:0:
182,192,142410,128,4,142566:0:0:0:0:
109,192,142566,1,0,0:0:0:0:
36,192,142566,1,2,0:0:0:0:
475,192,142722,128,4,142878:0:0:0:0:
329,192,142722,128,8,142878:0:0:0:0:
402,192,142878,1,0,0:0:0:0:
182,192,142878,1,2,0:0:0:0:
36,192,142878,128,4,143191:0:0:0:0:
256,192,142878,1,0,0:0:0:0:
329,192,143191,128,0,143347:0:0:0:0:
182,192,143191,1,2,0:0:0:0:
109,192,143269,1,0,0:0:0:0:
475,192,143347,128,0,143503:0:0:0:0:
36,192,143347,1,8,0:0:0:0:
402,192,143503,128,0,143660:0:0:0:0:
256,192,143660,128,0,143816:0:0:0:0:
109,192,143660,1,2,0:0:0:0:
475,192,143816,128,0,143972:0:0:0:0:
109,192,143816,1,2,0:0:0:0:
329,192,143972,128,0,144128:0:0:0:0:
402,192,143972,1,8,0:0:0:0:
36,192,144128,1,0,0:0:0:0:
182,192,144128,128,2,144441:0:0:0:0:
329,192,144441,128,0,144597:0:0:0:0:
36,192,144441,1,2,0:0:0:0:
109,192,144519,1,0,0:0:0:0:
475,192,144597,128,0,144753:0:0:0:0:
182,192,144597,1,8,0:0:0:0:
402,192,144753,128,0,144910:0:0:0:0:
256,192,144910,128,0,145066:0:0:0:0:
109,192,144910,1,2,0:0:0:0:
475,192,145066,128,0,145222:0:0:0:0:
109,192,145066,1,2,0:0:0:0:
402,192,145222,128,0,145378:0:0:0:0:
329,192,145222,1,8,0:0:0:0:
182,192,145378,1,0,0:0:0:0:
256,192,145378,128,0,145691:0:0:0:0:
36,192,145378,1,2,0:0:0:0:
109,192,145378,1,4,0:0:0:0:
182,192,145691,1,2,0:0:0:0:
329,192,145691,128,0,145847:0:0:0:0:
109,192,145769,1,0,0:0:0:0:
475,192,145847,128,0,146003:0:0:0:0:
36,192,145847,1,8,0:0:0:0:
256,192,146003,128,0,146160:0:0:0:0:
109,192,146160,1,0,0:0:0:0:
402,192,146160,128,2,146316:0:0:0:0:
109,192,146316,1,0,0:0:0:0:
329,192,146316,128,2,146472:0:0:0:0:
256,192,146472,1,0,0:0:0:0:
182,192,146472,128,8,146628:0:0:0:0:
402,192,146628,1,0,0:0:0:0:
109,192,146628,1,0,0:0:0:0:
36,192,146628,1,2,0:0:0:0:
475,192,146628,128,4,146941:0:0:0:0:
329,192,146941,128,0,147097:0:0:0:0:
182,192,146941,1,2,0:0:0:0:
109,192,147019,1,0,0:0:0:0:
402,192,147097,128,0,147253:0:0:0:0:
36,192,147097,1,8,0:0:0:0:
475,192,147253,128,0,147566:0:0:0:0:
109,192,147410,1,2,0:0:0:0:
182,192,147410,1,0,0:0:0:0:
109,192,147566,128,2,147722:0:0:0:0:
182,192,147566,1,0,0:0:0:0:
475,192,147722,1,0,0:0:0:0:
256,192,147722,128,8,147878:0:0:0:0:
182,192,147878,1,0,0:0:0:0:
329,192,147878,1,0,0:0:0:0:
36,192,147878,1,2,0:0:0:0:
402,192,147878,128,4,148191:0:0:0:0:
182,192,148191,128,2,148347:0:0:0:0:
256,192,148191,128,0,148347:0:0:0:0:
475,192,148347,1,0,0:0:0:0:
402,192,148347,1,4,0:0:0:0:
36,192,148347,1,8,0:0:0:0:
109,192,148503,128,2,148660:0:0:0:0:
182,192,148503,128,0,148660:0:0:0:0:
475,192,148660,1,0,0:0:0:0:
402,192,148660,1,4,0:0:0:0:
329,192,148660,1,8,0:0:0:0:
36,192,148816,128,2,148972:0:0:0:0:
109,192,148816,128,0,148972:0:0:0:0:
402,192,148972,1,0,0:0:0:0:
329,192,148972,1,4,0:0:0:0:
256,192,148972,1,8,0:0:0:0:
475,192,149128,1,0,0:0:0:0:
182,192,149128,1,2,0:0:0:0:
402,192,149285,1,0,0:0:0:0:
109,192,149285,1,2,0:0:0:0:
36,192,149285,1,4,0:0:0:0:
475,192,149441,1,0,0:0:0:0:
402,192,149441,1,0,0:0:0:0:
109,192,149441,1,2,0:0:0:0:
182,192,149910,128,0,150378:0:0:0:0:
475,192,150378,1,0,0:0:0:0:
329,192,150378,1,0,0:0:0:0:
36,192,150378,128,0,154285:0:0:0:0:
256,192,150847,1,0,0:0:0:0:
402,192,150847,1,0,0:0:0:0:
182,192,151160,1,0,0:0:0:0:
329,192,151160,1,0,0:0:0:0:
402,192,151316,1,0,0:0:0:0:
475,192,151472,1,0,0:0:0:0:
182,192,151628,1,0,0:0:0:0:
329,192,151628,1,0,0:0:0:0:
402,192,151785,1,0,0:0:0:0:
256,192,151785,1,0,0:0:0:0:
475,192,151941,1,0,0:0:0:0:
109,192,152097,128,0,152410:0:0:0:0:
256,192,152253,128,0,152566:0:0:0:0:
402,192,152410,128,0,152722:0:0:0:0:
109,192,152566,128,0,153347:0:0:0:0:
256,192,152722,128,0,153191:0:0:0:0:
402,192,152878,128,0,153035:0:0:0:0:
475,192,153035,1,0,0:0:0:0:
329,192,153191,1,0,0:0:0:0:
182,192,153347,1,0,0:0:0:0:
402,192,153503,1,0,0:0:0:0:
256,192,153660,1,0,0:0:0:0:
109,192,153660,1,0,0:0:0:0:
402,192,153972,1,0,0:0:0:0:
256,192,154128,1,0,0:0:0:0:
109,192,154128,1,0,0:0:0:0:
475,192,154285,1,0,0:0:0:0:
402,192,154285,1,0,0:0:0:0:
256,192,154441,1,0,0:0:0:0:
109,192,154597,128,0,154910:0:0:0:0:
256,192,154753,128,0,155066:0:0:0:0:
402,192,154910,128,0,155222:0:0:0:0:
109,192,155066,128,0,155847:0:0:0:0:
256,192,155222,128,0,155691:0:0:0:0:
402,192,155378,128,0,155535:0:0:0:0:
475,192,155535,1,0,0:0:0:0:
329,192,155691,1,0,0:0:0:0:
182,192,155847,1,0,0:0:0:0:
402,192,156003,1,0,0:0:0:0:
109,192,156160,1,0,0:0:0:0:
256,192,156160,1,0,0:0:0:0:
402,192,156472,1,0,0:0:0:0:
36,192,156628,1,0,0:0:0:0:
256,192,156628,1,0,0:0:0:0:
182,192,156785,1,0,0:0:0:0:
475,192,156785,1,0,0:0:0:0:
402,192,156941,1,0,0:0:0:0:
329,192,157097,128,0,157410:0:0:0:0:
256,192,157253,128,0,157566:0:0:0:0:
182,192,157410,128,0,157722:0:0:0:0:
329,192,157566,128,0,158347:0:0:0:0:
256,192,157722,128,0,158191:0:0:0:0:
182,192,157878,128,0,158035:0:0:0:0:
109,192,158035,1,0,0:0:0:0:
182,192,158191,1,0,0:0:0:0:
256,192,158347,1,0,0:0:0:0:
36,192,158503,1,0,0:0:0:0:
182,192,158660,1,0,0:0:0:0:
329,192,158660,1,0,0:0:0:0:
36,192,158972,1,0,0:0:0:0:
182,192,159128,1,0,0:0:0:0:
329,192,159128,1,0,0:0:0:0:
256,192,159285,1,0,0:0:0:0:
402,192,159285,1,0,0:0:0:0:
109,192,159441,1,0,0:0:0:0:
182,192,159597,128,0,159910:0:0:0:0:
256,192,159753,128,0,160066:0:0:0:0:
329,192,159910,128,0,160222:0:0:0:0:
182,192,160066,128,0,160847:0:0:0:0:
256,192,160222,128,0,160691:0:0:0:0:
329,192,160378,128,0,160535:0:0:0:0:
475,192,160535,128,0,164910:0:0:0:0:
36,192,160535,128,0,164910:0:0:0:0:
402,192,160535,1,0,0:0:0:0:
329,192,160691,1,0,0:0:0:0:
256,192,160847,1,0,0:0:0:0:
402,192,161003,1,0,0:0:0:0:
182,192,161160,1,0,0:0:0:0:
329,192,161160,1,0,0:0:0:0:
402,192,161472,1,0,0:0:0:0:
182,192,161628,1,0,0:0:0:0:
329,192,161628,1,0,0:0:0:0:
256,192,161785,1,0,0:0:0:0:
109,192,161785,1,0,0:0:0:0:
109,192,162097,128,0,162410:0:0:0:0:
329,192,162253,128,0,162566:0:0:0:0:
402,192,162410,128,0,162722:0:0:0:0:
109,192,162566,128,0,163347:0:0:0:0:
182,192,162722,128,0,163191:0:0:0:0:
329,192,162878,128,0,163035:0:0:0:0:
402,192,163035,1,0,0:0:0:0:
256,192,163191,1,0,0:0:0:0:
182,192,163347,1,0,0:0:0:0:
329,192,163503,1,0,0:0:0:0:
256,192,163660,1,0,0:0:0:0:
109,192,163660,1,0,0:0:0:0:
329,192,163972,1,0,0:0:0:0:
256,192,164128,1,0,0:0:0:0:
109,192,164128,1,0,0:0:0:0:
329,192,164285,1,0,0:0:0:0:
402,192,164285,1,0,0:0:0:0:
109,192,164597,128,0,164910:0:0:0:0:
256,192,164753,128,0,165066:0:0:0:0:
402,192,164910,128,0,165222:0:0:0:0:
36,192,165066,128,0,165847:0:0:0:0:
109,192,165222,128,0,165691:0:0:0:0:
182,192,165378,128,0,165535:0:0:0:0:
402,192,165535,128,0,169285:0:0:0:0:
475,192,165535,128,0,169285:0:0:0:0:
256,192,165535,1,0,0:0:0:0:
182,192,165691,1,0,0:0:0:0:
109,192,165847,1,0,0:0:0:0:
256,192,166003,1,0,0:0:0:0:
36,192,166160,1,0,0:0:0:0:
182,192,166160,1,0,0:0:0:0:
256,192,166472,1,0,0:0:0:0:
36,192,166628,1,0,0:0:0:0:
182,192,166628,1,0,0:0:0:0:
256,192,166785,1,0,0:0:0:0:
329,192,166785,1,0,0:0:0:0:
36,192,167097,128,0,167410:0:0:0:0:
109,192,167253,128,0,167566:0:0:0:0:
182,192,167410,128,0,167722:0:0:0:0:
36,192,167566,128,0,168347:0:0:0:0:
109,192,167722,128,0,168191:0:0:0:0:
182,192,167878,128,0,168035:0:0:0:0:
256,192,168035,1,0,0:0:0:0:
182,192,168191,1,0,0:0:0:0:
109,192,168347,1,0,0:0:0:0:
329,192,168503,1,0,0:0:0:0:
36,192,168660,1,0,0:0:0:0:
182,192,168660,1,0,0:0:0:0:
329,192,168972,1,0,0:0:0:0:
36,192,169128,1,0,0:0:0:0:
182,192,169128,1,0,0:0:0:0:
329,192,169285,1,0,0:0:0:0:
256,192,169285,1,0,0:0:0:0:
182,192,169441,5,0,0:0:0:0:
475,192,169597,128,0,169910:0:0:0:0:
329,192,169753,128,0,170066:0:0:0:0:
182,192,169910,128,0,170222:0:0:0:0:
475,192,170066,128,0,170222:0:0:0:0:
329,192,170222,128,0,170378:0:0:0:0:
182,192,170378,128,0,170535:0:0:0:0:
475,192,170535,5,0,0:0:0:0:
402,192,170535,1,0,0:0:0:0:
36,192,170535,128,2,170691:0:0:0:0:
109,192,170691,128,0,170847:0:0:0:0:
475,192,170847,1,0,0:0:0:0:
182,192,170847,128,2,171003:0:0:0:0:
256,192,171003,1,0,0:0:0:0:
475,192,171160,1,0,0:0:0:0:
36,192,171160,128,2,171316:0:0:0:0:
182,192,171316,128,0,171628:0:0:0:0:
475,192,171472,1,2,0:0:0:0:
36,192,171628,128,0,171785:0:0:0:0:
475,192,171785,1,0,0:0:0:0:
256,192,171785,128,2,171941:0:0:0:0:
182,192,171941,128,0,172097:0:0:0:0:
475,192,172097,1,0,0:0:0:0:
36,192,172097,128,2,172253:0:0:0:0:
256,192,172253,128,0,172410:0:0:0:0:
109,192,172253,128,0,172410:0:0:0:0:
475,192,172410,1,2,0:0:0:0:
182,192,172566,128,0,172722:0:0:0:0:
36,192,172566,128,0,172722:0:0:0:0:
475,192,172722,1,2,0:0:0:0:
329,192,172878,128,0,173035:0:0:0:0:
475,192,173035,128,0,173191:0:0:0:0:
36,192,173035,1,2,0:0:0:0:
402,192,173191,128,0,173347:0:0:0:0:
329,192,173347,128,0,173503:0:0:0:0:
36,192,173347,1,2,0:0:0:0:
402,192,173503,128,0,173660:0:0:0:0:
475,192,173660,128,0,173816:0:0:0:0:
36,192,173660,1,2,0:0:0:0:
256,192,173816,128,0,173972:0:0:0:0:
402,192,173972,128,0,174128:0:0:0:0:
36,192,173972,1,2,0:0:0:0:
329,192,174128,128,0,174285:0:0:0:0:
475,192,174285,128,0,174441:0:0:0:0:
36,192,174285,1,2,0:0:0:0:
256,192,174441,128,0,174597:0:0:0:0:
475,192,174597,128,0,174753:0:0:0:0:
36,192,174597,1,2,0:0:0:0:
329,192,174753,128,0,174910:0:0:0:0:
182,192,174753,128,0,174910:0:0:0:0:
36,192,174910,1,2,0:0:0:0:
402,192,175066,128,0,175222:0:0:0:0:
256,192,175066,128,0,175222:0:0:0:0:
36,192,175222,1,2,0:0:0:0:
329,192,175378,128,0,175535:0:0:0:0:
475,192,175535,1,0,0:0:0:0:
256,192,175535,1,0,0:0:0:0:
36,192,175535,128,2,175691:0:0:0:0:
109,192,175691,128,0,175847:0:0:0:0:
475,192,175847,1,0,0:0:0:0:
182,192,175847,128,2,176003:0:0:0:0:
109,192,176003,128,0,176160:0:0:0:0:
475,192,176160,1,0,0:0:0:0:
36,192,176160,128,2,176316:0:0:0:0:
182,192,176316,128,0,176472:0:0:0:0:
475,192,176472,1,0,0:0:0:0:
36,192,176472,128,2,176628:0:0:0:0:
109,192,176628,128,0,176785:0:0:0:0:
475,192,176785,1,0,0:0:0:0:
256,192,176785,128,2,176941:0:0:0:0:
182,192,176941,128,0,177097:0:0:0:0:
475,192,177097,1,0,0:0:0:0:
36,192,177097,128,2,177253:0:0:0:0:
256,192,177253,128,0,177410:0:0:0:0:
109,192,177253,128,0,177410:0:0:0:0:
475,192,177410,1,2,0:0:0:0:
182,192,177566,128,0,177722:0:0:0:0:
36,192,177566,128,0,177722:0:0:0:0:
475,192,177722,1,2,0:0:0:0:
329,192,177878,128,0,178035:0:0:0:0:
475,192,178035,128,0,178191:0:0:0:0:
36,192,178035,1,2,0:0:0:0:
402,192,178191,128,0,178347:0:0:0:0:
329,192,178347,128,0,178503:0:0:0:0:
36,192,178347,1,2,0:0:0:0:
402,192,178503,128,0,178660:0:0:0:0:
475,192,178660,128,0,178816:0:0:0:0:
36,192,178660,1,2,0:0:0:0:
329,192,178816,128,0,178972:0:0:0:0:
475,192,178972,128,0,179128:0:0:0:0:
36,192,178972,1,2,0:0:0:0:
402,192,179128,128,0,179285:0:0:0:0:
256,192,179285,128,0,179441:0:0:0:0:
36,192,179285,1,2,0:0:0:0:
329,192,179441,128,0,179597:0:0:0:0:
475,192,179597,128,0,179753:0:0:0:0:
36,192,179597,1,2,0:0:0:0:
402,192,179753,128,0,179910:0:0:0:0:
182,192,179753,128,0,179910:0:0:0:0:
36,192,179910,1,2,0:0:0:0:
475,192,180066,128,0,180222:0:0:0:0:
256,192,180066,128,0,180222:0:0:0:0:
36,192,180222,1,2,0:0:0:0:
329,192,180378,128,0,180535:0:0:0:0:
475,192,180535,1,0,0:0:0:0:
256,192,180535,1,0,0:0:0:0:
36,192,180535,128,2,180691:0:0:0:0:
182,192,180691,128,0,180847:0:0:0:0:
475,192,180847,1,0,0:0:0:0:
36,192,180847,128,2,181003:0:0:0:0:
109,192,181003,128,0,181160:0:0:0:0:
475,192,181160,1,0,0:0:0:0:
182,192,181160,128,2,181316:0:0:0:0:
36,192,181316,128,0,181472:0:0:0:0:
475,192,181472,1,0,0:0:0:0:
256,192,181472,128,2,181628:0:0:0:0:
182,192,181628,128,0,181785:0:0:0:0:
475,192,181785,1,0,0:0:0:0:
402,192,181785,1,0,0:0:0:0:
109,192,181785,128,2,182097:0:0:0:0:
475,192,182097,1,0,0:0:0:0:
256,192,182097,128,2,182253:0:0:0:0:
182,192,182253,128,0,182410:0:0:0:0:
36,192,182253,128,0,182410:0:0:0:0:
475,192,182410,1,2,0:0:0:0:
256,192,182566,128,0,182722:0:0:0:0:
109,192,182566,128,0,182722:0:0:0:0:
475,192,182722,1,2,0:0:0:0:
402,192,182878,128,0,183035:0:0:0:0:
475,192,183035,1,0,0:0:0:0:
256,192,183035,128,0,183191:0:0:0:0:
36,192,183035,1,2,0:0:0:0:
402,192,183191,128,0,183347:0:0:0:0:
329,192,183347,128,0,183503:0:0:0:0:
36,192,183347,1,2,0:0:0:0:
182,192,183503,128,0,183660:0:0:0:0:
329,192,183660,128,0,183816:0:0:0:0:
36,192,183660,1,2,0:0:0:0:
402,192,183816,128,0,183972:0:0:0:0:
256,192,183972,128,0,184128:0:0:0:0:
36,192,183972,1,2,0:0:0:0:
329,192,184128,128,0,184285:0:0:0:0:
475,192,184285,128,0,184597:0:0:0:0:
402,192,184285,128,0,184597:0:0:0:0:
36,192,184285,1,2,0:0:0:0:
182,192,184597,128,0,184753:0:0:0:0:
36,192,184597,1,2,0:0:0:0:
475,192,184753,128,0,184910:0:0:0:0:
256,192,184753,128,0,184910:0:0:0:0:
36,192,184910,1,2,0:0:0:0:
402,192,185066,128,0,185222:0:0:0:0:
182,192,185066,128,0,185222:0:0:0:0:
36,192,185222,1,2,0:0:0:0:
109,192,185378,128,0,185535:0:0:0:0:
475,192,185535,1,0,0:0:0:0:
256,192,185535,128,0,185691:0:0:0:0:
36,192,185535,1,2,0:0:0:0:
109,192,185691,128,0,185847:0:0:0:0:
475,192,185847,1,0,0:0:0:0:
182,192,185847,128,2,186003:0:0:0:0:
36,192,186003,128,0,186160:0:0:0:0:
475,192,186160,1,0,0:0:0:0:
109,192,186160,128,2,186472:0:0:0:0:
475,192,186472,1,0,0:0:0:0:
256,192,186472,128,2,186628:0:0:0:0:
182,192,186628,128,0,186785:0:0:0:0:
475,192,186785,1,0,0:0:0:0:
329,192,186785,1,0,0:0:0:0:
36,192,186785,128,2,186941:0:0:0:0:
109,192,186941,128,0,187097:0:0:0:0:
475,192,187097,1,0,0:0:0:0:
256,192,187097,128,2,187253:0:0:0:0:
182,192,187253,128,0,187410:0:0:0:0:
36,192,187253,128,0,187410:0:0:0:0:
475,192,187410,1,2,0:0:0:0:
256,192,187566,128,0,187722:0:0:0:0:
109,192,187566,128,0,187722:0:0:0:0:
475,192,187722,1,0,0:0:0:0:
329,192,187722,1,2,0:0:0:0:
256,192,187878,1,8,0:0:0:0:
182,192,187956,1,8,0:0:0:0:
402,192,188035,1,0,0:0:0:0:
475,192,188035,1,0,0:0:0:0:
36,192,188035,1,2,0:0:0:0:
109,192,188035,1,4,0:0:0:0:
329,192,188347,1,2,0:0:0:0:
182,192,188347,1,0,0:0:0:0:
329,192,188503,128,2,189285:0:0:0:0:
182,192,188503,128,0,189285:0:0:0:0:
402,192,188660,1,10,0:0:0:0:
109,192,188660,1,0,0:0:0:0:
402,192,188816,128,10,189285:0:0:0:0:
109,192,188816,128,0,189285:0:0:0:0:
475,192,188972,1,10,0:0:0:0:
36,192,188972,1,0,0:0:0:0:
475,192,189128,128,10,189285:0:0:0:0:
36,192,189128,128,0,189285:0:0:0:0:
256,192,189285,1,6,0:0:0:0:
109,192,189441,128,2,189753:0:0:0:0:
329,192,189441,128,0,189753:0:0:0:0:
182,192,189597,128,2,189910:0:0:0:0:
402,192,189597,128,0,189910:0:0:0:0:
256,192,189753,128,8,190066:0:0:0:0:
475,192,189753,128,0,190066:0:0:0:0:
36,192,189910,128,2,190066:0:0:0:0:
109,192,189910,128,0,190066:0:0:0:0:
329,192,190066,128,2,190222:0:0:0:0:
402,192,190066,128,0,190222:0:0:0:0:
109,192,190222,128,0,190378:0:0:0:0:
182,192,190222,128,8,190378:0:0:0:0:
36,192,190378,1,2,0:0:0:0:
475,192,190378,128,0,193035:0:0:0:0:
402,192,190378,128,0,193035:0:0:0:0:
256,192,190378,1,4,0:0:0:0:
109,192,190613,1,0,0:0:0:0:
182,192,190691,1,0,0:0:0:0:
256,192,190769,1,0,0:0:0:0:
329,192,190847,1,12,0:0:0:0:
36,192,190847,1,2,0:0:0:0:
109,192,190899,1,0,0:0:0:0:
182,192,190951,1,0,0:0:0:0:
109,192,191081,1,0,0:0:0:0:
182,192,191160,1,2,0:0:0:0:
256,192,191238,1,0,0:0:0:0:
329,192,191316,1,0,0:0:0:0:
36,192,191394,1,0,0:0:0:0:
182,192,191472,1,10,0:0:0:0:
329,192,191550,1,0,0:0:0:0:
36,192,191628,1,0,0:0:0:0:
109,192,191667,1,0,0:0:0:0:
256,192,191785,1,2,0:0:0:0:
182,192,191837,1,0,0:0:0:0:
109,192,191941,1,0,0:0:0:0:
36,192,192019,1,0,0:0:0:0:
256,192,192097,1,10,0:0:0:0:
109,192,192175,1,0,0:0:0:0:
329,192,192253,1,0,0:0:0:0:
182,192,192331,1,0,0:0:0:0:
36,192,192410,1,2,0:0:0:0:
256,192,192488,128,0,192722:0:0:0:0:
36,192,192722,1,10,0:0:0:0:
109,192,192800,1,0,0:0:0:0:
182,192,192878,1,0,0:0:0:0:
256,192,192956,1,0,0:0:0:0:
329,192,193035,1,2,0:0:0:0:
182,192,193191,1,0,0:0:0:0:
256,192,193269,1,0,0:0:0:0:
475,192,193347,128,0,193816:0:0:0:0:
329,192,193347,128,8,193503:0:0:0:0:
36,192,193347,128,2,194128:0:0:0:0:
109,192,193503,128,0,194128:0:0:0:0:
256,192,193660,1,2,0:0:0:0:
182,192,193816,128,0,194128:0:0:0:0:
329,192,193972,128,0,194128:0:0:0:0:
402,192,193972,1,8,0:0:0:0:
475,192,193972,1,2,0:0:0:0:
256,192,194128,128,0,194285:0:0:0:0:
182,192,194285,128,2,194363:0:0:0:0:
329,192,194363,128,0,194441:0:0:0:0:
475,192,194441,128,0,195222:0:0:0:0:
256,192,194597,128,8,194675:0:0:0:0:
36,192,194597,128,0,194675:0:0:0:0:
109,192,194597,128,2,194675:0:0:0:0:
329,192,194675,128,0,194753:0:0:0:0:
402,192,194753,128,0,195222:0:0:0:0:
36,192,194910,128,0,195066:0:0:0:0:
329,192,194910,128,2,195222:0:0:0:0:
182,192,195066,128,0,195222:0:0:0:0:
256,192,195222,1,8,0:0:0:0:
109,192,195222,1,2,0:0:0:0:
36,192,195222,1,0,0:0:0:0:
475,192,195378,128,2,195769:0:0:0:0:
182,192,195378,1,4,0:0:0:0:
402,192,195378,128,0,195769:0:0:0:0:
329,192,195378,128,0,195769:0:0:0:0:
109,192,195691,128,0,195769:0:0:0:0:
36,192,195691,128,0,195769:0:0:0:0:
475,192,195847,128,0,196316:0:0:0:0:
36,192,195847,128,4,196003:0:0:0:0:
109,192,195847,128,2,196003:0:0:0:0:
329,192,195847,1,8,0:0:0:0:
182,192,196003,128,0,196472:0:0:0:0:
36,192,196160,128,0,196472:0:0:0:0:
109,192,196160,128,2,196472:0:0:0:0:
402,192,196472,128,0,196628:0:0:0:0:
256,192,196472,1,8,0:0:0:0:
329,192,196472,128,2,196628:0:0:0:0:
475,192,196628,128,0,197019:0:0:0:0:
109,192,196785,1,2,0:0:0:0:
329,192,196941,128,0,197019:0:0:0:0:
182,192,196941,128,0,197019:0:0:0:0:
329,192,197097,128,0,197253:0:0:0:0:
182,192,197097,128,8,197253:0:0:0:0:
36,192,197097,128,2,197566:0:0:0:0:
475,192,197253,128,0,197722:0:0:0:0:
329,192,197410,128,0,197722:0:0:0:0:
182,192,197410,128,2,197722:0:0:0:0:
402,192,197722,1,0,0:0:0:0:
109,192,197722,1,8,0:0:0:0:
36,192,197722,1,2,0:0:0:0:
475,192,197878,128,0,198816:0:0:0:0:
329,192,197878,128,0,198347:0:0:0:0:
36,192,198035,1,2,0:0:0:0:
109,192,198191,128,0,198503:0:0:0:0:
256,192,198347,1,8,0:0:0:0:
182,192,198347,128,2,198660:0:0:0:0:
402,192,198347,128,0,198816:0:0:0:0:
36,192,198503,128,0,198972:0:0:0:0:
329,192,198660,128,0,198816:0:0:0:0:
109,192,198660,128,2,198972:0:0:0:0:
256,192,198816,128,0,198972:0:0:0:0:
402,192,198972,1,8,0:0:0:0:
329,192,198972,1,2,0:0:0:0:
475,192,198972,1,0,0:0:0:0:
182,192,199128,128,0,199441:0:0:0:0:
256,192,199128,128,0,199441:0:0:0:0:
109,192,199128,128,4,199441:0:0:0:0:
36,192,199128,128,2,199441:0:0:0:0:
475,192,199441,128,2,199753:0:0:0:0:
36,192,199597,1,0,0:0:0:0:
329,192,199597,128,0,199910:0:0:0:0:
402,192,199597,128,8,199753:0:0:0:0:
256,192,199753,128,2,199910:0:0:0:0:
182,192,199753,128,0,200066:0:0:0:0:
109,192,199753,128,0,200066:0:0:0:0:
36,192,199753,128,4,200066:0:0:0:0:
329,192,200066,128,2,200378:0:0:0:0:
475,192,200222,1,0,0:0:0:0:
182,192,200222,128,8,200535:0:0:0:0:
256,192,200222,128,0,200378:0:0:0:0:
402,192,200378,128,0,200691:0:0:0:0:
475,192,200378,128,0,200691:0:0:0:0:
36,192,200378,128,4,200535:0:0:0:0:
109,192,200378,128,2,200535:0:0:0:0:
256,192,200691,128,2,200847:0:0:0:0:
402,192,200847,128,4,201160:0:0:0:0:
475,192,200847,128,0,201160:0:0:0:0:
36,192,200847,128,8,201003:0:0:0:0:
109,192,200847,128,2,201003:0:0:0:0:
256,192,201003,128,0,201160:0:0:0:0:
182,192,201160,128,0,201472:0:0:0:0:
36,192,201160,128,2,201472:0:0:0:0:
329,192,201316,128,0,201472:0:0:0:0:
475,192,201472,1,0,0:0:0:0:
402,192,201472,1,2,0:0:0:0:
109,192,201472,1,8,0:0:0:0:
329,192,201628,128,0,201706:0:0:0:0:
182,192,201628,128,0,201706:0:0:0:0:
329,192,201785,128,0,201941:0:0:0:0:
182,192,201785,128,2,201941:0:0:0:0:
109,192,201941,128,0,202097:0:0:0:0:
36,192,201941,128,0,202097:0:0:0:0:
475,192,202097,128,0,202253:0:0:0:0:
402,192,202097,128,2,202253:0:0:0:0:
256,192,202097,1,8,0:0:0:0:
329,192,202253,128,0,202410:0:0:0:0:
182,192,202253,128,0,202410:0:0:0:0:
109,192,202410,128,0,202566:0:0:0:0:
36,192,202410,128,2,202566:0:0:0:0:
402,192,202566,128,0,202722:0:0:0:0:
475,192,202566,128,0,202722:0:0:0:0:
256,192,202722,1,0,0:0:0:0:
109,192,202722,128,2,202878:0:0:0:0:
36,192,202722,128,8,202878:0:0:0:0:
329,192,202878,128,0,203035:0:0:0:0:
182,192,202878,128,0,203035:0:0:0:0:
475,192,203035,1,0,0:0:0:0:
402,192,203035,1,2,0:0:0:0:
256,192,203191,128,0,203347:0:0:0:0:
475,192,203347,128,0,203660:0:0:0:0:
36,192,203347,128,8,203660:0:0:0:0:
329,192,203347,1,2,0:0:0:0:
256,192,203503,128,0,203660:0:0:0:0:
402,192,203660,128,0,203972:0:0:0:0:
109,192,203660,128,2,203972:0:0:0:0:
182,192,203816,128,0,203972:0:0:0:0:
475,192,203972,1,0,0:0:0:0:
256,192,203972,1,2,0:0:0:0:
36,192,203972,1,8,0:0:0:0:
402,192,204128,128,0,204285:0:0:0:0:
109,192,204128,128,0,204285:0:0:0:0:
182,192,204285,128,0,204441:0:0:0:0:
36,192,204285,128,2,204441:0:0:0:0:
475,192,204441,128,0,204597:0:0:0:0:
329,192,204441,128,0,204597:0:0:0:0:
402,192,204597,128,0,204753:0:0:0:0:
256,192,204597,1,8,0:0:0:0:
109,192,204597,128,2,204753:0:0:0:0:
182,192,204753,128,0,204910:0:0:0:0:
36,192,204753,128,0,204910:0:0:0:0:
475,192,204910,128,0,205066:0:0:0:0:
402,192,204910,128,2,205066:0:0:0:0:
182,192,205066,128,0,205222:0:0:0:0:
36,192,205066,128,0,205222:0:0:0:0:
402,192,205222,128,0,205378:0:0:0:0:
329,192,205222,128,8,205378:0:0:0:0:
256,192,205222,1,2,0:0:0:0:
182,192,205378,1,0,0:0:0:0:
475,192,205378,128,0,205691:0:0:0:0:
36,192,205378,1,2,0:0:0:0:
109,192,205378,1,4,0:0:0:0:
182,192,205691,128,0,205847:0:0:0:0:
36,192,205691,128,2,205847:0:0:0:0:
475,192,205847,1,8,0:0:0:0:
329,192,205847,1,2,0:0:0:0:
256,192,205847,1,4,0:0:0:0:
182,192,206003,128,0,206160:0:0:0:0:
36,192,206003,128,2,206160:0:0:0:0:
402,192,206160,1,0,0:0:0:0:
256,192,206160,1,0,0:0:0:0:
109,192,206160,1,8,0:0:0:0:
329,192,206316,128,0,206472:0:0:0:0:
182,192,206316,128,2,206472:0:0:0:0:
475,192,206472,1,0,0:0:0:0:
109,192,206472,1,0,0:0:0:0:
36,192,206472,1,8,0:0:0:0:
475,192,206628,128,0,206785:0:0:0:0:
329,192,206628,128,2,206785:0:0:0:0:
256,192,206785,1,0,0:0:0:0:
182,192,206785,1,0,0:0:0:0:
36,192,206785,1,8,0:0:0:0:
475,192,206941,128,0,207097:0:0:0:0:
329,192,206941,128,2,207097:0:0:0:0:
402,192,207097,1,0,0:0:0:0:
256,192,207097,1,0,0:0:0:0:
109,192,207097,1,8,0:0:0:0:
329,192,207253,128,0,207410:0:0:0:0:
182,192,207253,128,2,207410:0:0:0:0:
475,192,207410,1,0,0:0:0:0:
402,192,207410,1,0,0:0:0:0:
36,192,207410,1,8,0:0:0:0:
182,192,207566,128,0,207722:0:0:0:0:
36,192,207566,128,2,207722:0:0:0:0:
475,192,207722,1,0,0:0:0:0:
329,192,207722,1,0,0:0:0:0:
256,192,207722,1,8,0:0:0:0:
182,192,207878,128,0,208191:0:0:0:0:
402,192,207878,1,0,0:0:0:0:
36,192,207878,128,2,208191:0:0:0:0:
109,192,207878,128,4,208191:0:0:0:0:
475,192,208191,1,0,0:0:0:0:
329,192,208191,1,2,0:0:0:0:
256,192,208347,1,0,0:0:0:0:
109,192,208347,1,2,0:0:0:0:
36,192,208347,1,8,0:0:0:0:
402,192,208503,128,0,208816:0:0:0:0:
475,192,208503,128,0,208816:0:0:0:0:
182,192,208503,1,2,0:0:0:0:
329,192,208503,128,4,208816:0:0:0:0:
109,192,208816,1,0,0:0:0:0:
36,192,208816,1,2,0:0:0:0:
475,192,208972,1,2,0:0:0:0:
256,192,208972,1,8,0:0:0:0:
329,192,209050,1,0,0:0:0:0:
182,192,209128,128,0,209441:0:0:0:0:
402,192,209128,1,0,0:0:0:0:
36,192,209128,128,4,209441:0:0:0:0:
109,192,209128,128,2,209441:0:0:0:0:
475,192,209441,1,0,0:0:0:0:
402,192,209441,1,2,0:0:0:0:
256,192,209597,1,0,0:0:0:0:
182,192,209597,1,0,0:0:0:0:
36,192,209597,1,8,0:0:0:0:
402,192,209753,128,0,210066:0:0:0:0:
475,192,209753,128,0,210066:0:0:0:0:
109,192,209753,1,2,0:0:0:0:
329,192,209753,128,4,210066:0:0:0:0:
182,192,210066,1,0,0:0:0:0:
109,192,210066,1,2,0:0:0:0:
475,192,210222,1,0,0:0:0:0:
402,192,210222,1,0,0:0:0:0:
256,192,210222,1,8,0:0:0:0:
182,192,210378,128,0,210691:0:0:0:0:
329,192,210378,1,0,0:0:0:0:
36,192,210378,128,4,210691:0:0:0:0:
109,192,210378,128,2,210691:0:0:0:0:
256,192,210691,1,2,0:0:0:0:
475,192,210847,1,0,0:0:0:0:
182,192,210847,1,8,0:0:0:0:
402,192,210925,1,0,0:0:0:0:
109,192,210925,1,8,0:0:0:0:
329,192,211003,1,4,0:0:0:0:
36,192,211003,1,2,0:0:0:0:
256,192,211081,1,0,0:0:0:0:
402,192,211160,1,0,0:0:0:0:
182,192,211160,1,2,0:0:0:0:
329,192,211238,1,2,0:0:0:0:
475,192,211316,1,0,0:0:0:0:
109,192,211316,1,2,0:0:0:0:
256,192,211394,1,2,0:0:0:0:
402,192,211472,1,0,0:0:0:0:
182,192,211472,1,2,0:0:0:0:
329,192,211628,1,0,0:0:0:0:
475,192,211628,128,0,211941:0:0:0:0:
36,192,211628,128,2,211941:0:0:0:0:
109,192,211628,1,4,0:0:0:0:
329,192,211941,1,0,0:0:0:0:
402,192,211941,1,0,0:0:0:0:
109,192,211941,1,2,0:0:0:0:
182,192,211941,1,0,0:0:0:0:
329,192,212097,1,0,0:0:0:0:
402,192,212097,128,0,212410:0:0:0:0:
109,192,212097,128,2,212410:0:0:0:0:
182,192,212097,1,0,0:0:0:0:
402,192,212878,128,0,213113:0:0:0:0:
475,192,212878,128,0,213113:0:0:0:0:
36,192,212878,128,2,213113:0:0:0:0:
109,192,212878,128,4,213113:0:0:0:0:
182,192,213191,1,2,0:0:0:0:
329,192,213191,1,8,0:0:0:0:
109,192,213269,1,0,0:0:0:0:
402,192,213269,1,0,0:0:0:0:
36,192,213347,1,2,0:0:0:0:
475,192,213347,1,8,0:0:0:0:
182,192,213503,128,0,213816:0:0:0:0:
329,192,213660,1,0,0:0:0:0:
402,192,213816,128,0,213972:0:0:0:0:
256,192,213972,128,0,214128:0:0:0:0:
109,192,214128,128,0,214285:0:0:0:0:
329,192,214285,1,0,0:0:0:0:
182,192,214363,1,0,0:0:0:0:
329,192,214441,1,0,0:0:0:0:
475,192,214519,1,0,0:0:0:0:
402,192,214597,128,0,214753:0:0:0:0:
109,192,214597,1,0,0:0:0:0:
36,192,214753,1,0,0:0:0:0:
182,192,214831,1,0,0:0:0:0:
36,192,214910,1,0,0:0:0:0:
182,192,214988,1,0,0:0:0:0:
475,192,215066,1,0,0:0:0:0:
329,192,215144,1,0,0:0:0:0:
475,192,215222,128,0,215378:0:0:0:0:
256,192,215378,128,0,215691:0:0:0:0:
329,192,215378,128,0,215691:0:0:0:0:
36,192,215378,128,2,215691:0:0:0:0:
109,192,215378,128,4,215691:0:0:0:0:
402,192,215691,1,0,0:0:0:0:
182,192,215691,1,2,0:0:0:0:
475,192,215847,1,0,0:0:0:0:
256,192,215847,1,0,0:0:0:0:
36,192,215847,1,8,0:0:0:0:
329,192,216003,128,0,216316:0:0:0:0:
402,192,216003,128,0,216316:0:0:0:0:
109,192,216003,128,2,216316:0:0:0:0:
182,192,216003,128,4,216316:0:0:0:0:
475,192,216316,1,0,0:0:0:0:
256,192,216316,1,2,0:0:0:0:
329,192,216472,1,0,0:0:0:0:
109,192,216472,1,0,0:0:0:0:
36,192,216472,1,8,0:0:0:0:
402,192,216628,128,0,216941:0:0:0:0:
475,192,216628,128,0,216941:0:0:0:0:
182,192,216628,128,2,216941:0:0:0:0:
256,192,216628,128,4,216941:0:0:0:0:
109,192,216941,1,0,0:0:0:0:
36,192,216941,1,2,0:0:0:0:
329,192,217097,1,0,0:0:0:0:
256,192,217097,1,0,0:0:0:0:
182,192,217097,1,8,0:0:0:0:
402,192,217253,128,0,217566:0:0:0:0:
475,192,217253,128,0,217566:0:0:0:0:
36,192,217253,128,2,217566:0:0:0:0:
109,192,217253,128,4,217566:0:0:0:0:
329,192,217566,1,0,0:0:0:0:
182,192,217566,1,2,0:0:0:0:
475,192,217722,1,0,0:0:0:0:
402,192,217722,1,0,0:0:0:0:
256,192,217722,1,8,0:0:0:0:
182,192,217878,128,0,218191:0:0:0:0:
329,192,217878,128,0,218191:0:0:0:0:
36,192,217878,128,4,218191:0:0:0:0:
109,192,217878,128,2,218191:0:0:0:0:
475,192,218191,128,0,218269:0:0:0:0:
402,192,218191,128,2,218269:0:0:0:0:
109,192,218347,1,2,0:0:0:0:
36,192,218347,1,8,0:0:0:0:
182,192,218347,1,0,0:0:0:0:
329,192,218425,1,0,0:0:0:0:
256,192,218503,1,0,0:0:0:0:
182,192,218581,1,0,0:0:0:0:
475,192,218660,128,0,218738:0:0:0:0:
329,192,218660,128,2,218738:0:0:0:0:
475,192,218816,128,0,218894:0:0:0:0:
329,192,218816,128,0,218894:0:0:0:0:
36,192,218972,1,0,0:0:0:0:
329,192,218972,1,2,0:0:0:0:
109,192,218972,1,8,0:0:0:0:
182,192,219050,1,0,0:0:0:0:
402,192,219128,1,0,0:0:0:0:
329,192,219206,1,0,0:0:0:0:
256,192,219285,128,0,219363:0:0:0:0:
475,192,219285,128,2,219363:0:0:0:0:
256,192,219441,128,0,219519:0:0:0:0:
475,192,219441,128,0,219519:0:0:0:0:
475,192,219597,1,0,0:0:0:0:
36,192,219597,1,2,0:0:0:0:
109,192,219597,1,8,0:0:0:0:
402,192,219675,1,0,0:0:0:0:
329,192,219753,1,0,0:0:0:0:
256,192,219831,1,0,0:0:0:0:
475,192,219910,128,0,219988:0:0:0:0:
182,192,219910,128,2,219988:0:0:0:0:
475,192,220066,128,0,220144:0:0:0:0:
182,192,220066,128,0,220144:0:0:0:0:
256,192,220144,1,0,0:0:0:0:
329,192,220222,1,0,0:0:0:0:
109,192,220222,1,2,0:0:0:0:
402,192,220222,1,8,0:0:0:0:
182,192,220378,128,0,220535:0:0:0:0:
475,192,220378,1,0,0:0:0:0:
36,192,220378,128,2,220691:0:0:0:0:
256,192,220378,1,4,0:0:0:0:
475,192,220691,128,0,221003:0:0:0:0:
109,192,220691,1,2,0:0:0:0:
329,192,220847,128,0,221003:0:0:0:0:
256,192,220847,1,0,0:0:0:0:
182,192,220847,128,8,221003:0:0:0:0:
402,192,221003,128,0,221316:0:0:0:0:
256,192,221160,128,0,221316:0:0:0:0:
36,192,221160,128,2,221316:0:0:0:0:
182,192,221316,1,0,0:0:0:0:
402,192,221472,1,0,0:0:0:0:
329,192,221472,128,0,221550:0:0:0:0:
109,192,221472,1,8,0:0:0:0:
329,192,221628,128,0,221941:0:0:0:0:
475,192,221628,1,0,0:0:0:0:
36,192,221628,1,2,0:0:0:0:
182,192,221628,128,4,221785:0:0:0:0:
182,192,221941,128,2,222097:0:0:0:0:
475,192,222097,1,8,0:0:0:0:
329,192,222097,128,0,222410:0:0:0:0:
109,192,222097,1,0,0:0:0:0:
182,192,222253,128,2,222488:0:0:0:0:
475,192,222410,1,2,0:0:0:0:
329,192,222488,1,2,0:0:0:0:
182,192,222566,128,2,222722:0:0:0:0:
402,192,222644,1,2,0:0:0:0:
36,192,222722,128,0,222878:0:0:0:0:
329,192,222722,128,2,222878:0:0:0:0:
402,192,222878,1,0,0:0:0:0:
475,192,222878,1,0,0:0:0:0:
256,192,222878,128,4,223191:0:0:0:0:
109,192,222878,128,2,223191:0:0:0:0:
475,192,223191,1,0,0:0:0:0:
182,192,223191,1,2,0:0:0:0:
402,192,223269,1,0,0:0:0:0:
329,192,223347,1,0,0:0:0:0:
109,192,223347,1,8,0:0:0:0:
36,192,223347,1,0,0:0:0:0:
256,192,223503,128,0,223660:0:0:0:0:
36,192,223660,1,2,0:0:0:0:
402,192,223660,128,0,223816:0:0:0:0:
36,192,223816,1,2,0:0:0:0:
109,192,223816,128,0,223972:0:0:0:0:
475,192,223972,1,0,0:0:0:0:
329,192,223972,1,8,0:0:0:0:
256,192,223972,128,0,224128:0:0:0:0:
182,192,224128,1,0,0:0:0:0:
402,192,224128,1,4,0:0:0:0:
109,192,224128,1,2,0:0:0:0:
36,192,224128,128,0,224441:0:0:0:0:
329,192,224441,1,0,0:0:0:0:
109,192,224441,1,2,0:0:0:0:
402,192,224519,1,0,0:0:0:0:
475,192,224597,1,0,0:0:0:0:
256,192,224597,1,8,0:0:0:0:
182,192,224597,128,0,224910:0:0:0:0:
402,192,224910,1,2,0:0:0:0:
109,192,224910,128,0,225066:0:0:0:0:
256,192,225066,1,0,0:0:0:0:
402,192,225066,1,2,0:0:0:0:
329,192,225222,1,0,0:0:0:0:
182,192,225222,1,8,0:0:0:0:
36,192,225222,128,0,225378:0:0:0:0:
402,192,225378,128,0,225691:0:0:0:0:
475,192,225378,128,0,225691:0:0:0:0:
109,192,225378,1,4,0:0:0:0:
256,192,225378,1,2,0:0:0:0:
329,192,225691,128,0,225847:0:0:0:0:
36,192,225691,1,2,0:0:0:0:
475,192,225847,128,0,226003:0:0:0:0:
256,192,225847,1,0,0:0:0:0:
182,192,225847,1,8,0:0:0:0:
329,192,226003,1,0,0:0:0:0:
402,192,226003,1,0,0:0:0:0:
36,192,226003,128,4,226316:0:0:0:0:
109,192,226003,128,2,226316:0:0:0:0:
475,192,226316,1,0,0:0:0:0:
182,192,226316,128,2,226472:0:0:0:0:
329,192,226472,1,0,0:0:0:0:
256,192,226472,1,0,0:0:0:0:
36,192,226472,128,8,226628:0:0:0:0:
402,192,226628,128,0,226941:0:0:0:0:
475,192,226628,128,0,226941:0:0:0:0:
109,192,226628,1,4,0:0:0:0:
182,192,226628,1,2,0:0:0:0:
256,192,226941,1,0,0:0:0:0:
36,192,226941,1,2,0:0:0:0:
475,192,227097,1,0,0:0:0:0:
329,192,227097,1,0,0:0:0:0:
182,192,227097,1,8,0:0:0:0:
256,192,227253,1,0,0:0:0:0:
402,192,227253,1,0,0:0:0:0:
36,192,227253,128,4,227566:0:0:0:0:
109,192,227253,128,2,227566:0:0:0:0:
329,192,227566,1,0,0:0:0:0:
182,192,227566,128,2,227722:0:0:0:0:
402,192,227722,1,0,0:0:0:0:
256,192,227722,128,0,227878:0:0:0:0:
109,192,227722,1,8,0:0:0:0:
329,192,227878,128,0,228191:0:0:0:0:
475,192,227878,1,0,0:0:0:0:
36,192,227878,128,2,228035:0:0:0:0:
182,192,227878,1,4,0:0:0:0:
36,192,228191,128,2,228503:0:0:0:0:
109,192,228191,1,0,0:0:0:0:
475,192,228347,1,0,0:0:0:0:
256,192,228347,1,0,0:0:0:0:
329,192,228347,128,8,228503:0:0:0:0:
182,192,228503,128,0,228660:0:0:0:0:
109,192,228660,1,0,0:0:0:0:
402,192,228660,1,0,0:0:0:0:
36,192,228660,128,2,228816:0:0:0:0:
475,192,228660,1,4,0:0:0:0:
402,192,228816,1,0,0:0:0:0:
475,192,228816,1,0,0:0:0:0:
109,192,228972,1,0,0:0:0:0:
182,192,228972,128,0,229128:0:0:0:0:
36,192,228972,1,8,0:0:0:0:
402,192,229128,1,0,0:0:0:0:
475,192,229128,128,0,229285:0:0:0:0:
329,192,229128,128,2,229441:0:0:0:0:
256,192,229128,1,4,0:0:0:0:
475,192,229441,128,0,229753:0:0:0:0:
182,192,229441,1,2,0:0:0:0:
329,192,229597,128,0,229753:0:0:0:0:
109,192,229597,1,0,0:0:0:0:
36,192,229597,1,8,0:0:0:0:
182,192,229753,128,0,229910:0:0:0:0:
402,192,229910,1,0,0:0:0:0:
475,192,229910,1,0,0:0:0:0:
36,192,229910,1,2,0:0:0:0:
256,192,229910,1,4,0:0:0:0:
36,192,230066,1,2,0:0:0:0:
402,192,230066,128,0,230222:0:0:0:0:
475,192,230222,1,0,0:0:0:0:
329,192,230222,1,8,0:0:0:0:
256,192,230222,128,0,230378:0:0:0:0:
182,192,230378,1,0,0:0:0:0:
402,192,230378,1,0,0:0:0:0:
36,192,230378,128,4,230691:0:0:0:0:
109,192,230378,128,2,230691:0:0:0:0:
402,192,230691,1,0,0:0:0:0:
256,192,230691,1,2,0:0:0:0:
329,192,230847,128,0,231003:0:0:0:0:
182,192,230847,128,4,231003:0:0:0:0:
109,192,230847,1,8,0:0:0:0:
475,192,231003,1,0,0:0:0:0:
402,192,231003,1,0,0:0:0:0:
256,192,231160,1,0,0:0:0:0:
109,192,231160,128,4,231316:0:0:0:0:
36,192,231160,128,8,231316:0:0:0:0:
329,192,231316,1,0,0:0:0:0:
182,192,231316,1,2,0:0:0:0:
475,192,231472,128,0,231628:0:0:0:0:
402,192,231472,128,0,231628:0:0:0:0:
256,192,231472,1,8,0:0:0:0:
182,192,231628,1,0,0:0:0:0:
329,192,231628,1,0,0:0:0:0:
36,192,231628,128,4,232097:0:0:0:0:
109,192,231628,128,2,231941:0:0:0:0:
402,192,231941,1,0,0:0:0:0:
256,192,231941,1,2,0:0:0:0:
475,192,232097,128,0,232253:0:0:0:0:
329,192,232097,128,4,232253:0:0:0:0:
182,192,232097,1,8,0:0:0:0:
256,192,232253,1,0,0:0:0:0:
109,192,232253,1,2,0:0:0:0:
329,192,232410,128,0,232566:0:0:0:0:
182,192,232410,128,8,232566:0:0:0:0:
36,192,232410,1,4,0:0:0:0:
475,192,232566,1,0,0:0:0:0:
402,192,232566,1,2,0:0:0:0:
256,192,232722,1,0,0:0:0:0:
182,192,232722,128,4,232878:0:0:0:0:
36,192,232722,128,8,232878:0:0:0:0:
402,192,232878,1,0,0:0:0:0:
475,192,232878,128,0,233191:0:0:0:0:
109,192,232878,128,4,233191:0:0:0:0:
329,192,232878,1,2,0:0:0:0:
182,192,233191,1,2,0:0:0:0:
402,192,233191,128,0,233347:0:0:0:0:
256,192,233269,1,0,0:0:0:0:
475,192,233347,1,0,0:0:0:0:
329,192,233347,128,0,233503:0:0:0:0:
36,192,233347,1,8,0:0:0:0:
109,192,233503,128,0,233660:0:0:0:0:
402,192,233660,1,0,0:0:0:0:
182,192,233660,128,2,233816:0:0:0:0:
36,192,233816,1,0,0:0:0:0:
402,192,233816,128,2,233972:0:0:0:0:
329,192,233972,1,0,0:0:0:0:
182,192,233972,1,0,0:0:0:0:
109,192,233972,128,8,234128:0:0:0:0:
475,192,234128,128,0,234441:0:0:0:0:
256,192,234128,128,2,234441:0:0:0:0:
182,192,234441,1,0,0:0:0:0:
402,192,234441,128,2,234597:0:0:0:0:
109,192,234519,1,0,0:0:0:0:
475,192,234597,1,0,0:0:0:0:
256,192,234597,128,0,234753:0:0:0:0:
36,192,234597,1,8,0:0:0:0:
329,192,234753,128,0,234910:0:0:0:0:
182,192,234910,1,0,0:0:0:0:
475,192,234910,128,2,235066:0:0:0:0:
182,192,235066,1,0,0:0:0:0:
36,192,235066,128,2,235222:0:0:0:0:
329,192,235222,1,0,0:0:0:0:
402,192,235222,1,0,0:0:0:0:
256,192,235222,128,8,235378:0:0:0:0:
109,192,235378,1,0,0:0:0:0:
475,192,235378,128,0,235691:0:0:0:0:
36,192,235378,1,2,0:0:0:0:
182,192,235378,128,4,235691:0:0:0:0:
402,192,235691,128,0,235847:0:0:0:0:
329,192,235691,1,2,0:0:0:0:
256,192,235769,1,0,0:0:0:0:
109,192,235847,1,0,0:0:0:0:
182,192,235847,128,0,236003:0:0:0:0:
36,192,235847,1,8,0:0:0:0:
329,192,236003,128,0,236160:0:0:0:0:
109,192,236160,128,0,236316:0:0:0:0:
402,192,236160,1,2,0:0:0:0:
256,192,236316,128,0,236472:0:0:0:0:
402,192,236316,1,2,0:0:0:0:
182,192,236472,128,0,236628:0:0:0:0:
329,192,236472,1,0,0:0:0:0:
36,192,236472,1,8,0:0:0:0:
475,192,236628,128,0,236941:0:0:0:0:
402,192,236628,1,0,0:0:0:0:
109,192,236628,128,2,236941:0:0:0:0:
256,192,236628,1,4,0:0:0:0:
329,192,236941,1,0,0:0:0:0:
182,192,236941,128,2,237097:0:0:0:0:
402,192,237019,1,0,0:0:0:0:
475,192,237097,1,0,0:0:0:0:
36,192,237097,1,0,0:0:0:0:
256,192,237097,128,8,237253:0:0:0:0:
329,192,237253,128,0,237410:0:0:0:0:
402,192,237410,1,0,0:0:0:0:
36,192,237410,1,2,0:0:0:0:
402,192,237566,1,0,0:0:0:0:
182,192,237566,128,2,237722:0:0:0:0:
256,192,237722,1,0,0:0:0:0:
329,192,237722,128,0,237878:0:0:0:0:
109,192,237722,1,8,0:0:0:0:
475,192,237878,128,0,238191:0:0:0:0:
36,192,237878,128,2,238191:0:0:0:0:
182,192,237878,1,4,0:0:0:0:
402,192,237878,1,0,0:0:0:0:
329,192,238191,1,0,0:0:0:0:
182,192,238191,1,2,0:0:0:0:
402,192,238347,1,0,0:0:0:0:
475,192,238347,1,0,0:0:0:0:
36,192,238347,1,8,0:0:0:0:
109,192,238347,1,4,0:0:0:0:
329,192,238503,1,0,0:0:0:0:
182,192,238503,1,2,0:0:0:0:
402,192,238660,1,0,0:0:0:0:
475,192,238660,1,0,0:0:0:0:
36,192,238660,1,8,0:0:0:0:
109,192,238660,1,4,0:0:0:0:
329,192,238816,1,0,0:0:0:0:
182,192,238816,1,2,0:0:0:0:
402,192,238972,1,0,0:0:0:0:
256,192,238972,1,8,0:0:0:0:
109,192,238972,1,4,0:0:0:0:
475,192,239128,1,0,0:0:0:0:
182,192,239128,1,0,0:0:0:0:
36,192,239128,1,2,0:0:0:0:
329,192,239285,1,0,0:0:0:0:
402,192,239285,1,0,0:0:0:0:
109,192,239285,1,4,0:0:0:0:
256,192,239285,1,2,0:0:0:0:
329,192,239441,1,0,0:0:0:0:
402,192,239441,1,0,0:0:0:0:
182,192,239441,1,2,0:0:0:0:
256,192,239441,1,0,0:0:0:0:
329,192,239910,128,0,240378:0:0:0:0:
182,192,239910,128,0,240378:0:0:0:0:
402,192,240378,1,0,0:0:0:0:
475,192,240378,1,0,0:0:0:0:
256,192,240378,1,0,0:0:0:0:
36,192,240378,128,2,243035:0:0:0:0:
109,192,240378,1,4,0:0:0:0:
475,192,240691,128,2,240847:0:0:0:0:
402,192,240847,128,0,241003:0:0:0:0:
256,192,240847,128,2,241003:0:0:0:0:
109,192,240847,1,8,0:0:0:0:
329,192,241003,128,0,241160:0:0:0:0:
475,192,241160,128,0,241316:0:0:0:0:
182,192,241160,1,2,0:0:0:0:
329,192,241316,128,0,241472:0:0:0:0:
402,192,241472,128,0,241628:0:0:0:0:
256,192,241472,128,2,241628:0:0:0:0:
109,192,241472,1,8,0:0:0:0:
475,192,241628,128,0,241941:0:0:0:0:
329,192,241785,128,0,241941:0:0:0:0:
182,192,241785,1,0,0:0:0:0:
109,192,241785,1,2,0:0:0:0:
256,192,241941,128,0,242097:0:0:0:0:
475,192,242097,128,0,242253:0:0:0:0:
329,192,242097,128,2,242253:0:0:0:0:
182,192,242097,1,8,0:0:0:0:
109,192,242253,128,0,242410:0:0:0:0:
402,192,242410,1,0,0:0:0:0:
256,192,242410,128,2,242566:0:0:0:0:
109,192,242566,128,0,242722:0:0:0:0:
475,192,242722,128,0,242878:0:0:0:0:
329,192,242722,128,2,242878:0:0:0:0:
182,192,242722,1,8,0:0:0:0:
402,192,242878,128,0,243191:0:0:0:0:
256,192,243035,128,0,243191:0:0:0:0:
109,192,243035,128,0,243191:0:0:0:0:
182,192,243035,1,2,0:0:0:0:
329,192,243191,128,0,243347:0:0:0:0:
475,192,243347,1,0,0:0:0:0:
182,192,243347,128,2,243503:0:0:0:0:
36,192,243347,128,8,243503:0:0:0:0:
402,192,243503,128,0,243660:0:0:0:0:
256,192,243660,1,0,0:0:0:0:
109,192,243660,128,2,243816:0:0:0:0:
329,192,243816,128,0,243972:0:0:0:0:
475,192,243972,1,0,0:0:0:0:
182,192,243972,128,2,244128:0:0:0:0:
36,192,243972,128,8,244128:0:0:0:0:
402,192,244128,128,0,244441:0:0:0:0:
329,192,244285,128,0,244441:0:0:0:0:
256,192,244285,1,0,0:0:0:0:
36,192,244285,128,2,244441:0:0:0:0:
109,192,244441,1,0,0:0:0:0:
182,192,244519,1,0,0:0:0:0:
475,192,244597,1,0,0:0:0:0:
402,192,244597,128,2,244753:0:0:0:0:
256,192,244597,128,8,244753:0:0:0:0:
329,192,244753,128,0,244910:0:0:0:0:
182,192,244753,128,0,244910:0:0:0:0:
109,192,244910,128,0,245222:0:0:0:0:
36,192,244910,128,2,245222:0:0:0:0:
475,192,245066,1,0,0:0:0:0:
402,192,245066,1,0,0:0:0:0:
256,192,245066,1,8,0:0:0:0:
182,192,245144,1,8,0:0:0:0:
329,192,245222,1,8,0:0:0:0:
256,192,245300,1,8,0:0:0:0:
402,192,245378,1,0,0:0:0:0:
475,192,245378,128,0,247878:0:0:0:0:
182,192,245378,1,0,0:0:0:0:
36,192,245378,1,2,0:0:0:0:
109,192,245378,1,4,0:0:0:0:
36,192,245691,128,2,245847:0:0:0:0:
402,192,245847,1,0,0:0:0:0:
256,192,245847,128,2,246003:0:0:0:0:
109,192,245847,128,8,246003:0:0:0:0:
182,192,246003,128,0,246160:0:0:0:0:
329,192,246160,1,0,0:0:0:0:
36,192,246160,128,2,246316:0:0:0:0:
182,192,246316,128,0,246472:0:0:0:0:
402,192,246472,1,0,0:0:0:0:
256,192,246472,128,2,246628:0:0:0:0:
109,192,246472,128,8,246628:0:0:0:0:
36,192,246628,128,0,246941:0:0:0:0:
402,192,246785,1,0,0:0:0:0:
329,192,246785,1,0,0:0:0:0:
182,192,246785,128,2,246941:0:0:0:0:
256,192,246941,128,0,247097:0:0:0:0:
329,192,247097,1,0,0:0:0:0:
182,192,247097,128,2,247253:0:0:0:0:
36,192,247097,128,8,247253:0:0:0:0:
402,192,247253,128,0,247410:0:0:0:0:
256,192,247410,128,0,247566:0:0:0:0:
109,192,247410,128,2,247566:0:0:0:0:
402,192,247566,1,0,0:0:0:0:
329,192,247566,128,0,247722:0:0:0:0:
182,192,247566,128,8,247722:0:0:0:0:
109,192,247722,128,0,247878:0:0:0:0:
36,192,247722,128,2,247878:0:0:0:0:
402,192,247878,128,0,248035:0:0:0:0:
329,192,247878,128,2,248035:0:0:0:0:
475,192,248035,1,0,0:0:0:0:
256,192,248035,1,0,0:0:0:0:
36,192,248035,128,2,248191:0:0:0:0:
109,192,248035,128,4,248191:0:0:0:0:
402,192,248191,128,2,248347:0:0:0:0:
329,192,248347,1,0,0:0:0:0:
109,192,248347,128,0,248503:0:0:0:0:
36,192,248347,1,8,0:0:0:0:
182,192,248503,1,2,0:0:0:0:
256,192,248503,1,4,0:0:0:0:
402,192,248503,128,0,248660:0:0:0:0:
475,192,248503,128,0,248660:0:0:0:0:
109,192,248660,128,2,248816:0:0:0:0:
36,192,248816,1,8,0:0:0:0:
329,192,248816,128,0,248972:0:0:0:0:
475,192,248816,128,0,248972:0:0:0:0:
256,192,248972,128,0,251628:0:0:0:0:
182,192,248972,128,0,251706:0:0:0:0:
36,192,248972,128,2,251863:0:0:0:0:
109,192,248972,128,4,251785:0:0:0:0:
402,192,248972,1,0,0:0:0:0:
