osu file format v14

[General]
AudioFilename: audio.mp3
AudioLeadIn: 0
PreviewTime: 55278
Countdown: 0
SampleSet: Soft
StackLeniency: 0.4
Mode: 0
LetterboxInBreaks: 0
WidescreenStoryboard: 1

[Editor]
Bookmarks: 11732,21528,31324,41120,55814,77854,87650,97446,163569,173212,190507,213773,233212
DistanceSpacing: 1
BeatDivisor: 4
GridSize: 4
TimelineZoom: 1.9

[Metadata]
Title:Rinne Tensei
TitleUnicode:輪廻転生
Artist:mafumafu
ArtistUnicode:まふまふ
Creator:AirinCat
Version:Normal
Source:
Tags:japanese jp rock j-rock jrock Reincarnation 明日色ワールドエンド ashita iro Tomorrow colored World End utaite
BeatmapID:2328393
BeatmapSetID:1083811

[Difficulty]
HPDrainRate:3
CircleSize:3.4
OverallDifficulty:4
ApproachRate:5.4
SliderMultiplier:1
SliderTickRate:1

[Events]
//Background and Video events
0,0,"aa.jpg",0,0
Video,-2040,"ifuseethisucute.mp4"
//Break Periods
//Storyboard Layer 0 (Background)
//Storyboard Layer 1 (Fail)
//Storyboard Layer 2 (Pass)
//Storyboard Layer 3 (Foreground)
//Storyboard Layer 4 (Overlay)
//Storyboard Sound Samples

[TimingPoints]
707,306.122448979592,4,2,2,60,1,0
860,-111.111111111111,4,2,2,60,0,0
1931,-100,4,2,1,80,0,0
19380,-100,4,2,2,30,0,0
19992,-100,4,2,2,30,0,0
20298,-100,4,2,2,30,0,0
21217,-117.647058823529,4,2,2,40,0,0
30094,-105.263157894737,4,2,2,60,0,0
41115,-117.647058823529,4,2,2,60,0,0
41268,-117.647058823529,4,2,2,50,0,0
44788,-111.111111111111,4,2,2,60,0,0
45400,-111.111111111111,4,2,2,70,0,0
46013,-117.647058823529,4,2,2,70,0,0
46166,-117.647058823529,4,2,2,50,0,0
48462,-111.111111111111,4,2,2,70,0,0
50911,-111.111111111111,4,2,2,70,0,0
53360,-111.111111111111,4,2,2,70,0,0
53666,-111.111111111111,4,2,2,64,0,0
53819,-111.111111111111,4,2,2,68,0,0
53972,-111.111111111111,4,2,2,72,0,0
54125,-111.111111111111,4,2,2,76,0,0
54278,-111.111111111111,4,2,2,78,0,0
54431,-111.111111111111,4,2,2,82,0,0
55349,-111.111111111111,4,2,2,52,0,0
55502,-111.111111111111,4,2,2,52,0,0
55809,-100,4,2,2,85,0,1
56115,-100,4,2,2,85,0,1
63155,-100,4,2,2,88,0,1
65604,-100,4,2,2,85,0,1
74329,-100,4,2,2,85,0,1
74712,-100,4,2,2,5,0,1
74788,-100,4,2,2,85,0,1
75018,-100,4,2,2,5,0,1
75094,-100,4,2,2,85,0,1
75400,-100,4,2,2,70,0,0
76625,-100,4,2,2,80,0,0
77543,-100,4,2,2,60,0,0
77849,-100,4,2,1,80,0,0
94992,-111.111111111111,4,2,2,70,0,0
95298,-111.111111111111,4,2,2,55,0,0
97441,-117.647058823529,4,2,2,45,0,0
105707,-117.647058823529,4,2,2,55,0,0
106013,-111.111111111111,4,2,2,60,0,0
117033,-117.647058823529,4,2,2,60,0,0
117186,-117.647058823529,4,2,2,50,0,0
120707,-111.111111111111,4,2,2,60,0,0
121319,-111.111111111111,4,2,2,70,0,0
121931,-117.647058823529,4,2,2,70,0,0
122084,-117.647058823529,4,2,2,50,0,0
124380,-111.111111111111,4,2,2,70,0,0
127135,-111.111111111111,4,2,2,60,0,0
127900,-111.111111111111,4,2,2,80,0,0
129278,-111.111111111111,4,2,2,70,0,0
129584,-111.111111111111,4,2,2,60,0,0
129737,-111.111111111111,4,2,2,64,0,0
129890,-111.111111111111,4,2,2,68,0,0
130043,-111.111111111111,4,2,2,72,0,0
130196,-111.111111111111,4,2,2,76,0,0
130349,-111.111111111111,4,2,2,80,0,0
131115,-111.111111111111,4,2,2,70,0,0
131421,-111.111111111111,4,2,2,60,0,0
131727,-100,4,2,2,85,0,1
132033,-100,4,2,2,85,0,1
139074,-100,4,2,2,88,0,1
141523,-100,4,2,2,85,0,1
150247,-100,4,2,2,85,0,1
151319,-100,4,2,2,70,0,0
152543,-100,4,2,2,80,0,0
152773,-111.111111111111,4,2,2,70,0,0
153768,-111.111111111111,4,2,2,74,0,0
154074,-111.111111111111,4,2,2,50,0,0
154686,-111.111111111111,4,2,2,74,0,0
154992,-111.111111111111,4,2,2,50,0,0
155604,-111.111111111111,4,2,2,34,0,0
156217,-111.111111111111,4,2,2,74,0,0
156523,-111.111111111111,4,2,2,50,0,0
157135,-111.111111111111,4,2,2,74,0,0
157441,-111.111111111111,4,2,2,50,0,0
158053,-111.111111111111,4,2,2,74,0,0
158666,-125,4,2,2,74,0,0
161115,-105.263157894737,4,2,2,80,0,0
163104,-105.263157894737,4,2,2,74,0,0
163411,-105.263157894737,4,2,2,68,0,0
163717,-111.111111111111,4,2,2,50,0,0
168462,-111.111111111111,4,2,2,56,0,0
169686,-111.111111111111,4,2,2,50,0,0
169839,-111.111111111111,4,2,2,54,0,0
169992,-111.111111111111,4,2,2,58,0,0
170145,-111.111111111111,4,2,2,62,0,0
170298,-111.111111111111,4,2,2,66,0,0
170451,-111.111111111111,4,2,2,70,0,0
170604,-111.111111111111,4,2,2,74,0,0
170758,-111.111111111111,4,2,2,78,0,0
170911,-100,4,2,2,80,0,0
171064,-100,4,2,2,70,0,0
173207,-100,4,2,2,82,0,1
173666,-100,4,2,2,82,0,0
179329,-100,4,2,2,82,0,0
179635,-100,4,2,2,82,0,0
183155,-111.111111111111,4,2,2,62,0,0
185298,-111.111111111111,4,2,2,82,0,0
185604,-111.111111111111,4,2,2,70,0,0
185911,-111.111111111111,4,2,2,64,0,0
186064,-111.111111111111,4,2,2,68,0,0
186217,-111.111111111111,4,2,2,72,0,0
186370,-111.111111111111,4,2,2,76,0,0
186523,-111.111111111111,4,2,2,80,0,0
186676,-111.111111111111,4,2,2,84,0,0
188053,-125,4,2,44,35,0,0
188360,-125,4,2,44,30,0,0
188666,-125,4,2,44,25,0,0
188972,-125,4,2,44,20,0,0
189278,-125,4,2,44,44,0,0
189584,-125,4,2,2,50,0,0
189890,-125,4,2,2,60,0,0
190196,-125,4,2,2,70,0,0
190502,-100,4,2,2,85,0,1
190809,-100,4,2,2,85,0,1
197849,-100,4,2,2,88,0,1
200145,-100,4,2,2,80,0,0
200604,-100,4,2,2,85,0,1
200911,-100,4,2,2,85,0,1
209023,-100,4,2,2,85,0,1
210094,-100,4,2,2,70,0,0
212237,-125,4,2,2,70,0,0
213768,-100,4,2,1,80,0,0
230911,-111.111111111111,4,2,1,80,0,0
231217,-111.111111111111,4,2,2,64,0,0
231370,-111.111111111111,4,2,2,64,0,0
233283,-111.111111111111,4,2,2,34,0,0
235809,-111.111111111111,4,2,2,28,0,0
236115,-111.111111111111,4,2,2,24,0,0
236421,-111.111111111111,4,2,2,20,0,0
236727,-111.111111111111,4,2,2,28,0,0
237033,-111.111111111111,4,2,2,34,0,0
237339,-111.111111111111,4,2,2,42,0,0
237645,-111.111111111111,4,2,2,50,0,0
237951,-111.111111111111,4,2,2,58,0,0
238258,-111.111111111111,4,2,2,8,0,0

[Colours]
Combo1 : 190,120,120
Combo2 : 225,132,132
Combo3 : 247,171,108
Combo4 : 239,208,152

[HitObjects]
45,283,860,5,0,1:2:0:0:
45,283,1013,2,0,B|-1:238|33:184|33:184|117:187|121:125,1,224.999993133545,10|8,1:2|0:2,0:0:0:0:
117,79,1931,6,0,L|233:89,1,100,6|10,1:2|1:2,0:0:0:0:
287,16,2543,1,2,1:2:0:0:
376,60,2849,2,0,L|370:127,1,50,10|2,1:2|0:2,0:0:0:0:
368,159,3155,1,0,1:2:0:0:
455,207,3462,1,8,1:2:0:0:
448,306,3768,1,0,1:2:0:0:
364,360,4074,2,0,L|298:355,1,50,8|2,1:2|0:2,0:0:0:0:
264,357,4380,6,0,P|286:313|277:263,1,100,6|10,1:2|1:2,0:0:0:0:
208,192,4992,1,2,1:3:0:0:
114,228,5298,1,10,1:2:0:0:
24,183,5604,2,0,L|39:74,1,100,0|8,1:2|1:2,0:0:0:0:
49,38,6064,1,2,0:2:0:0:
49,38,6217,1,2,1:2:0:0:
146,16,6523,2,0,L|204:23,1,50,10|8,1:2|0:2,0:0:0:0:
245,24,6829,6,0,P|218:67|229:131,1,100,6|10,1:2|1:2,0:0:0:0:
266,203,7441,1,2,1:2:0:0:
358,164,7747,2,0,L|415:169,1,50,10|2,1:2|0:2,0:0:0:0:
457,171,8053,1,0,1:2:0:0:
496,263,8360,1,8,1:2:0:0:
445,349,8666,1,0,1:2:0:0:
350,315,8972,2,0,L|297:315,1,50,8|2,1:2|0:2,0:0:0:0:
251,328,9278,6,0,L|249:214,1,100,6|10,1:2|1:2,0:0:0:0:
325,163,9890,1,2,1:2:0:0:
317,63,10196,1,10,1:2:0:0:
228,17,10502,2,0,L|157:20,1,50,4|8,1:2|0:2,0:0:0:0:
127,22,10809,2,0,L|127:75,1,50,8|8,1:2|0:3,0:0:0:0:
127,121,11115,1,8,1:3:0:0:
37,166,11421,2,0,L|37:219,1,50,2|2,1:2|1:2,0:0:0:0:
33,265,11727,6,0,P|80:245|129:262,1,100,6|10,1:2|1:2,0:0:0:0:
212,306,12339,1,2,1:2:0:0:
297,254,12645,2,0,L|351:260,1,50,10|2,1:2|0:2,0:0:0:0:
395,268,12951,1,0,1:2:0:0:
484,222,13258,1,8,1:2:0:0:
476,122,13564,1,0,1:2:0:0:
388,74,13870,2,0,L|325:68,1,50,8|2,1:2|0:2,0:0:0:0:
298,38,14176,6,0,L|291:144,1,100,6|10,1:2|1:2,0:0:0:0:
357,212,14788,1,2,1:3:0:0:
309,309,15094,1,10,1:2:0:0:
213,278,15400,2,0,L|93:287,1,100,0|8,1:2|1:2,0:0:0:0:
66,289,15860,1,2,0:2:0:0:
66,289,16013,1,2,1:2:0:0:
2,211,16319,2,0,L|-3:145,1,50,10|8,1:2|0:2,0:0:0:0:
8,112,16625,6,0,P|54:128|101:114,1,100,6|10,1:2|1:2,0:0:0:0:
185,60,17237,1,2,1:2:0:0:
272,107,17543,2,0,L|336:94,1,50,10|2,1:2|0:2,0:0:0:0:
368,80,17849,1,8,1:3:0:0:
457,123,18155,1,4,1:3:0:0:
420,216,18462,1,8,1:2:0:0:
471,301,18768,1,8,1:2:0:0:
410,381,19074,5,6,1:3:0:0:
410,381,19227,1,6,1:3:0:0:
410,381,21217,5,8,0:2:0:0:
343,327,21523,6,0,L|249:342,1,85.0000016212464,4|2,1:2|1:2,0:0:0:0:
177,316,22135,2,0,P|159:277|167:236,1,85.0000016212464,2|2,1:2|1:2,0:0:0:0:
209,163,22747,1,2,1:2:0:0:
150,101,23053,1,2,1:2:0:0:
206,37,23360,2,0,L|305:42,1,85.0000016212464,2|2,1:2|1:2,0:0:0:0:
368,6,23972,5,2,1:2:0:0:
422,71,24278,1,2,1:2:0:0:
367,136,24584,2,0,L|365:234,1,85.0000016212464,2|2,1:2|1:2,0:0:0:0:
405,295,25196,2,0,P|364:306|323:297,1,85.0000016212464,2|2,1:2|1:2,0:0:0:0:
281,302,25655,2,0,L|283:207,2,85.0000016212464,2|2|2,0:2|0:2|0:2,0:0:0:0:
201,333,26574,6,0,P|165:310|124:311,1,85.0000016212464,2|2,0:2|0:2,0:0:0:0:
85,328,27033,1,2,1:2:0:0:
16,277,27339,1,2,1:2:0:0:
53,201,27645,2,0,L|43:116,1,85.0000016212464,2|2,1:2|1:2,0:0:0:0:
94,48,28258,2,0,P|136:31|177:40,1,85.0000016212464,2|2,1:2|1:2,0:0:0:0:
253,68,28870,5,2,1:2:0:0:
210,141,29176,1,2,1:2:0:0:
272,199,29482,2,0,L|371:189,1,85.0000016212464,2|0,1:2|1:2,0:0:0:0:
402,190,29941,1,10,0:2:0:0:
402,190,30094,6,0,L|411:293,1,94.9999974632264,14|10,1:2|1:2,0:0:0:0:
427,328,30553,2,0,P|366:300|304:344,1,142.49999619484,6|8,1:2|0:2,0:0:0:0:
217,369,31319,6,0,L|124:355,1,94.9999974632264,4|10,1:2|1:2,0:0:0:0:
30,334,31931,2,0,P|11:291|30:249,1,94.9999974632264,2|10,1:2|1:2,0:0:0:0:
103,188,32543,2,0,L|159:190,1,47.4999987316132,2|2,1:2|0:2,0:0:0:0:
197,196,32849,1,10,1:2:0:0:
247,276,33155,1,2,1:2:0:0:
341,284,33462,1,10,1:2:0:0:
420,232,33768,6,0,P|417:188|412:129,1,94.9999974632264,2|10,1:2|1:2,0:0:0:0:
418,93,34227,1,2,0:2:0:0:
418,93,34380,1,2,1:2:0:0:
344,32,34686,2,0,L|287:36,1,47.4999987316132,10|2,1:2|0:2,0:0:0:0:
249,28,34992,6,0,L|254:132,1,94.9999974632264,2|10,1:2|1:2,0:0:0:0:
244,169,35451,2,0,P|198:188|148:169,1,94.9999974632264,2|2,0:2|0:2,0:0:0:0:
124,140,35911,1,8,1:2:0:0:
31,161,36217,6,0,L|29:261,1,94.9999974632264,4|8,1:2|1:2,0:0:0:0:
22,306,36676,1,2,0:2:0:0:
22,306,36829,2,0,L|127:308,1,94.9999974632264,2|10,1:2|1:2,0:0:0:0:
211,299,37441,1,2,1:2:0:0:
279,364,37747,2,0,L|334:364,1,47.4999987316132,10|2,1:2|0:2,0:0:0:0:
373,362,38053,2,0,P|389:324|369:266,1,94.9999974632264,2|10,1:2|1:2,0:0:0:0:
318,197,38666,6,0,L|322:94,1,94.9999974632264,6|10,1:2|1:2,0:0:0:0:
323,51,39125,1,2,0:2:0:0:
323,51,39278,1,2,1:2:0:0:
421,55,39584,1,10,1:2:0:0:
421,55,39737,2,0,L|414:167,1,94.9999974632264,6|0,1:2|1:2,0:0:0:0:
413,197,40196,1,8,0:2:0:0:
474,269,40502,1,8,0:3:0:0:
427,351,40809,2,0,L|362:349,1,47.4999987316132,8|8,0:2|0:2,0:0:0:0:
337,353,41115,6,0,L|340:268,1,85.0000016212464,4|0,1:2|1:2,0:0:0:0:
256,260,41727,2,0,L|252:352,1,85.0000016212464,2|2,1:2|1:2,0:0:0:0:
167,342,42339,1,2,1:2:0:0:
86,336,42645,1,2,1:2:0:0:
86,336,42798,2,0,L|89:251,1,85.0000016212464,2|2,0:2|0:2,0:0:0:0:
15,208,43411,6,0,L|18:123,1,85.0000016212464,2|2,0:2|0:2,0:0:0:0:
19,80,43870,1,2,1:2:0:0:
103,83,44176,2,0,L|99:167,1,85.0000016212464,2|2,1:2|1:2,0:0:0:0:
162,231,44788,1,6,1:3:0:0:
232,286,45094,1,2,1:3:0:0:
306,336,45400,2,0,L|368:328,1,44.999998626709,10|6,1:3|1:3,0:0:0:0:
388,355,45707,2,0,L|452:345,1,44.999998626709,6|6,1:3|1:3,0:0:0:0:
473,357,46013,6,0,L|463:269,1,85.0000016212464,4|0,1:2|1:2,0:0:0:0:
455,188,46625,2,0,L|445:100,1,85.0000016212464,2|2,1:2|1:2,0:0:0:0:
429,20,47237,2,0,L|336:28,1,85.0000016212464,2|2,1:2|1:2,0:0:0:0:
306,46,47696,2,0,L|316:145,2,85.0000016212464,2|2|2,0:2|0:2|0:2,0:0:0:0:
260,43,48462,6,0,L|158:51,1,89.9999972534181,4|8,1:2|1:2,0:0:0:0:
112,118,49074,1,8,0:3:0:0:
182,182,49380,1,8,1:3:0:0:
182,182,49533,2,0,L|282:168,1,89.9999972534181,6|0,1:2|1:2,0:0:0:0:
316,168,49992,1,10,1:2:0:0:
391,216,50298,1,4,1:3:0:0:
375,304,50604,1,2,1:2:0:0:
288,322,50911,6,0,B|241:297|186:330|225:343|171:375|123:352,1,179.999994506836,6|2,1:2|0:2,0:0:0:0:
46,317,51829,1,8,0:2:0:0:
46,317,51982,2,0,P|58:261|55:170,1,134.999995880127,6|8,1:2|0:3,0:0:0:0:
4,110,52747,2,0,P|42:87|92:100,1,89.9999972534181,4|8,0:3|0:2,0:0:0:0:
159,147,53360,6,0,B|211:150|233:99|233:99|280:53|354:93|354:93|333:139,1,269.999991760254,6|8,1:2|1:3,0:0:0:0:
322,176,54431,1,4,1:2:0:0:
385,239,54737,1,4,1:3:0:0:
468,201,55043,1,4,1:3:0:0:
468,201,55196,1,4,1:3:0:0:
305,317,55809,6,0,B|265:285|265:285|216:298,1,100,4|8,1:1|1:2,0:0:0:0:
130,341,56421,1,2,1:2:0:0:
130,341,56574,2,0,L|80:331,1,50,2|8,0:2|1:2,0:0:0:0:
3,268,57033,1,2,1:2:0:0:
23,170,57339,1,10,1:2:0:0:
122,156,57645,2,0,P|175:152|209:102,1,100,2|10,1:2|1:2,0:0:0:0:
230,78,58104,1,2,0:2:0:0:
230,78,58258,6,0,P|280:75|340:69,1,100,6|10,1:2|1:2,0:0:0:0:
379,62,58717,1,2,0:2:0:0:
465,112,59023,1,2,0:2:0:0:
436,207,59329,2,0,P|435:256|432:312,1,100,2|2,0:2|0:2,0:0:0:0:
464,345,59788,1,10,1:2:0:0:
369,376,60094,2,0,L|250:361,1,100,2|10,1:2|1:2,0:0:0:0:
238,332,60553,1,10,0:2:0:0:
238,332,60707,6,0,P|259:287|246:240,1,100,6|10,1:2|1:2,0:0:0:0:
213,202,61166,2,0,L|100:217,1,100,2|2,0:2|0:2,0:0:0:0:
20,180,61778,2,0,B|-7:137|-7:137|17:90,1,100,2|0,3:2|0:2,0:0:0:0:
59,67,62237,1,10,1:2:0:0:
59,67,62390,2,0,L|166:57,1,100,2|0,0:2|0:0,0:0:0:0:
250,108,63002,1,2,3:2:0:0:
250,108,63155,6,0,B|254:148|254:148|249:159|249:159|255:218,1,100,6|4,1:2|0:3,0:0:0:0:
258,256,63615,1,8,1:3:0:0:
198,336,63921,1,8,1:3:0:0:
290,374,64227,2,0,B|330:369|330:369|341:374|341:374|400:368,1,100,6|0,1:2|1:2,0:0:0:0:
440,362,64686,1,8,1:2:0:0:
440,362,64839,2,0,L|434:261,1,100,8|10,1:3|1:2,0:0:0:0:
470,228,65298,2,0,L|469:171,1,50,10|10,1:2|1:2,0:0:0:0:
440,136,65604,6,0,B|394:114|394:114|350:135,1,100,4|8,1:1|1:2,0:0:0:0:
268,191,66217,1,2,1:2:0:0:
268,191,66370,2,0,L|272:244,1,50,2|8,0:2|1:2,0:0:0:0:
221,327,66829,1,2,1:2:0:0:
121,330,67135,1,10,1:2:0:0:
43,267,67441,2,0,P|50:215|56:162,1,100,2|10,1:2|1:2,0:0:0:0:
0,85,68053,6,0,P|47:63|94:76,1,100,6|10,1:2|1:2,0:0:0:0:
137,97,68513,1,2,0:2:0:0:
207,26,68819,1,2,0:2:0:0:
293,76,69125,2,0,P|349:67|400:57,1,100,2|2,0:2|0:2,0:0:0:0:
440,48,69584,1,10,1:2:0:0:
512,117,69890,1,2,1:2:0:0:
459,202,70196,2,0,L|400:211,1,50,10|8,1:2|0:2,0:0:0:0:
374,245,70502,6,0,L|358:142,2,100,6|8|8,1:2|1:2|1:2,0:0:0:0:
323,331,71421,2,0,L|256:339,1,50,10|2,1:2|1:2,0:0:0:0:
224,347,71727,1,8,1:2:0:0:
159,271,72033,1,8,1:2:0:0:
217,189,72339,1,8,1:2:0:0:
309,226,72645,1,12,1:2:0:0:
400,185,72951,6,0,P|413:137|393:92,1,100,6|0,1:2|1:2,0:0:0:0:
383,43,73411,2,0,P|327:54|271:56,1,100,6|8,1:2|1:3,0:0:0:0:
248,91,73870,2,0,B|212:81|212:81|194:89|194:89|137:77,1,100,6|4,1:2|1:3,0:0:0:0:
112,111,74329,2,0,B|86:153|86:153|102:200,1,100,6|0,1:2|0:0,0:0:0:0:
121,246,74788,1,6,1:2:0:0:
55,321,75094,1,2,1:2:0:0:
145,363,75400,6,0,B|180:357|180:357|216:368|216:368|258:330|258:330|307:362|307:362|360:331|360:331|378:276|378:276|431:283|431:283|454:331,1,400,4|4,1:1|1:3,0:0:0:0:
461,136,77543,2,0,L|469:78,1,50,8|8,0:2|0:2,0:0:0:0:
440,44,77849,6,0,L|336:30,1,100,6|10,1:2|1:2,0:0:0:0:
262,92,78462,1,2,1:2:0:0:
184,29,78768,2,0,L|116:24,1,50,10|2,1:2|0:2,0:0:0:0:
84,20,79074,1,0,1:2:0:0:
0,74,79380,1,8,1:2:0:0:
28,169,79686,1,0,1:2:0:0:
127,157,79992,2,0,L|190:161,1,50,8|2,1:2|0:2,0:0:0:0:
216,191,80298,6,0,P|192:233|201:281,1,100,6|10,1:2|1:2,0:0:0:0:
278,346,80911,1,2,1:3:0:0:
372,312,81217,1,10,1:2:0:0:
465,347,81523,2,0,L|474:233,1,100,0|8,1:2|1:2,0:0:0:0:
484,201,81982,1,2,0:2:0:0:
484,201,82135,1,2,1:2:0:0:
429,117,82441,2,0,L|371:113,1,50,10|8,1:2|0:2,0:0:0:0:
330,100,82747,6,0,P|327:146|326:201,1,100,6|10,1:2|1:2,0:0:0:0:
389,277,83360,1,2,1:2:0:0:
323,352,83666,2,0,L|257:344,1,50,10|2,1:2|0:2,0:0:0:0:
223,338,83972,1,0,1:2:0:0:
150,268,84278,1,8,1:2:0:0:
71,329,84584,1,0,1:2:0:0:
3,262,84890,2,0,L|9:205,1,50,8|2,1:2|0:2,0:0:0:0:
11,162,85196,6,0,P|56:181|103:167,1,100,6|10,1:2|1:2,0:0:0:0:
172,95,85809,1,2,1:2:0:0:
257,146,86115,1,10,1:2:0:0:
339,90,86421,2,0,L|400:93,1,50,4|10,1:2|0:2,0:0:0:0:
438,96,86727,2,0,L|435:157,1,50,8|8,1:2|0:3,0:0:0:0:
432,195,87033,1,8,1:3:0:0:
372,275,87339,2,0,L|322:272,1,50,10|10,1:2|1:2,0:0:0:0:
272,266,87645,6,0,P|291:220|275:173,1,100,6|10,1:2|1:2,0:0:0:0:
212,96,88258,1,2,1:2:0:0:
114,118,88564,2,0,L|112:180,1,50,10|2,1:2|0:2,0:0:0:0:
106,217,88870,1,0,1:2:0:0:
39,292,89176,1,8,1:2:0:0:
109,363,89482,1,0,1:2:0:0:
181,294,89788,2,0,L|236:292,1,50,8|2,1:2|0:2,0:0:0:0:
272,320,90094,6,0,P|316:299|366:319,1,100,6|10,1:2|1:2,0:0:0:0:
454,354,90707,1,2,1:3:0:0:
512,272,91013,1,10,1:2:0:0:
442,199,91319,2,0,L|452:94,1,100,0|8,1:2|1:2,0:0:0:0:
458,53,91778,1,2,0:2:0:0:
458,53,91931,1,2,1:2:0:0:
358,65,92237,2,0,L|302:57,1,50,10|8,1:2|0:2,0:0:0:0:
261,34,92543,6,0,P|256:84|248:139,1,100,6|10,1:2|1:2,0:0:0:0:
300,219,93155,1,2,1:2:0:0:
235,295,93462,2,0,L|179:287,1,50,10|2,1:2|0:2,0:0:0:0:
137,272,93768,1,0,1:2:0:0:
37,273,94074,1,8,1:2:0:0:
1,179,94380,1,0,1:2:0:0:
79,117,94686,1,8,1:2:0:0:
166,164,94992,6,0,B|189:121|189:121|169:76,2,89.9999972534181,6|8|8,1:2|0:2|3:2,0:0:0:0:
232,225,95911,1,8,0:2:0:0:
304,171,96217,2,0,L|402:175,1,89.9999972534181,8|8,0:2|3:2,0:0:0:0:
483,179,96829,1,8,0:2:0:0:
490,268,97135,1,8,0:3:0:0:
418,314,97441,6,0,L|318:309,1,85.0000016212464,6|10,1:2|0:2,0:0:0:0:
256,345,98053,1,2,1:2:0:0:
171,330,98360,1,10,0:2:0:0:
91,360,98666,2,0,P|86:314|112:270,1,85.0000016212464,2|10,0:2|0:2,0:0:0:0:
134,252,99125,2,0,L|45:236,1,85.0000016212464,0|0,1:2|1:2,0:0:0:0:
8,230,99584,1,10,0:2:0:0:
26,147,99890,6,0,L|39:62,1,85.0000016212464,2|10,1:2|0:2,0:0:0:0:
114,23,100502,1,2,1:2:0:0:
198,33,100809,1,10,0:2:0:0:
254,95,101115,2,0,L|245:182,1,85.0000016212464,2|10,0:2|0:2,0:0:0:0:
236,221,101574,2,0,P|197:204|157:214,1,85.0000016212464,0|0,1:2|1:2,0:0:0:0:
123,239,102033,1,10,0:2:0:0:
148,320,102339,6,0,P|186:336|226:326,1,85.0000016212464,4|10,1:2|0:2,0:0:0:0:
304,291,102951,1,2,1:2:0:0:
387,310,103258,1,10,0:2:0:0:
452,256,103564,2,0,P|455:212|460:165,1,85.0000016212464,2|10,0:2|0:2,0:0:0:0:
476,132,104023,2,0,P|433:126|391:121,1,85.0000016212464,0|0,1:2|1:2,0:0:0:0:
350,109,104482,1,10,0:2:0:0:
296,42,104788,5,2,1:2:0:0:
211,45,105094,1,10,0:2:0:0:
164,116,105400,2,0,L|168:164,1,42.5000008106232,2|0,1:2|1:2,0:0:0:0:
201,184,105707,2,0,L|204:226,1,42.5000008106232,10|8,0:2|0:2,0:0:0:0:
240,252,106013,6,0,B|280:230|280:230|320:250,1,89.9999972534181,6|10,1:2|0:2,0:0:0:0:
353,281,106472,2,0,P|399:271|458:266,1,89.9999972534181,4|0,1:2|1:2,0:0:0:0:
486,267,106931,1,10,1:2:0:0:
467,179,107237,6,0,P|457:135|479:94,1,89.9999972534181,6|10,1:2|1:2,0:0:0:0:
437,15,107849,1,2,1:2:0:0:
347,10,108155,1,10,1:2:0:0:
285,76,108462,2,0,L|234:66,1,44.999998626709,2|2,1:2|0:3,0:0:0:0:
205,39,108768,2,0,P|199:83|196:135,1,89.9999972534181,10|0,1:2|1:2,0:0:0:0:
120,177,109380,1,10,1:2:0:0:
30,185,109686,6,0,P|6:222|11:267,1,89.9999972534181,2|10,1:2|1:2,0:0:0:0:
60,341,110298,1,2,1:2:0:0:
147,321,110604,1,10,1:2:0:0:
222,370,110911,2,0,L|281:363,1,44.999998626709,2|2,1:2|0:3,0:0:0:0:
310,373,111217,2,0,P|302:328|296:284,1,89.9999972534181,10|0,1:2|1:2,0:0:0:0:
360,220,111829,2,0,L|411:215,1,44.999998626709,10|8,1:2|0:2,0:0:0:0:
448,225,112135,6,0,P|430:184|442:142,1,89.9999972534181,6|10,1:2|1:2,0:0:0:0:
470,56,112747,1,2,1:2:0:0:
398,0,113053,1,10,1:2:0:0:
321,48,113360,1,2,1:2:0:0:
345,134,113666,1,10,1:2:0:0:
270,184,113972,2,0,P|228:178|168:170,1,89.9999972534181,2|10,1:2|1:2,0:0:0:0:
120,105,114584,6,0,L|128:54,2,44.999998626709,4|2|10,1:2|0:2|1:2,0:0:0:0:
48,159,115196,2,0,L|36:260,1,89.9999972534181,2|10,1:2|0:2,0:0:0:0:
19,289,115655,2,0,P|75:261|139:306,1,134.999995880127,6|8,1:2|0:2,0:0:0:0:
188,365,116421,1,8,0:3:0:0:
272,334,116727,2,0,L|331:341,1,44.999998626709,8|8,0:2|0:2,0:0:0:0:
358,345,117033,6,0,L|366:244,1,85.0000016212464,4|2,1:2|1:2,0:0:0:0:
376,176,117645,2,0,L|291:168,1,85.0000016212464,2|2,1:2|1:2,0:0:0:0:
206,160,118258,1,2,1:2:0:0:
200,248,118564,1,2,1:2:0:0:
200,248,118717,2,0,L|192:332,1,85.0000016212464,2|2,0:2|0:2,0:0:0:0:
108,322,119329,6,0,L|115:237,1,85.0000016212464,2|2,0:2|0:2,0:0:0:0:
120,195,119788,1,0,1:2:0:0:
35,187,120094,1,0,1:2:0:0:
38,102,120400,1,0,1:2:0:0:
123,105,120707,5,2,1:3:0:0:
196,156,121013,1,2,1:3:0:0:
271,205,121319,2,0,L|321:201,1,44.999998626709,10|10,1:3|1:3,0:0:0:0:
350,230,121625,2,0,L|400:226,1,44.999998626709,6|6,1:3|1:3,0:0:0:0:
436,236,121931,6,0,L|428:151,1,85.0000016212464,4|0,1:2|1:2,0:0:0:0:
411,68,122543,2,0,L|326:75,1,85.0000016212464,2|2,1:2|1:2,0:0:0:0:
241,73,123155,2,0,L|248:157,1,85.0000016212464,2|2,1:2|1:2,0:0:0:0:
242,199,123615,2,0,L|150:205,2,85.0000016212464,2|2|2,0:2|0:2|0:2,0:0:0:0:
281,220,124380,6,0,P|298:260|287:302,1,89.9999972534181,4|10,1:2|0:2,0:0:0:0:
230,372,124992,1,8,0:3:0:0:
155,332,125298,1,8,1:3:0:0:
155,332,125451,2,0,P|109:334|45:335,1,89.9999972534181,6|0,1:2|1:2,0:0:0:0:
19,334,125911,1,10,1:2:0:0:
2,245,126217,1,8,1:2:0:0:
75,192,126523,1,8,1:2:0:0:
203,248,126982,5,0,1:2:0:0:
203,248,127135,2,0,B|238:211|219:141|198:177|191:111|222:76,1,179.999994506836,12|8,1:2|0:2,0:0:0:0:
253,47,127900,2,0,P|315:66|398:62,1,134.999995880127,6|4,1:2|0:3,0:0:0:0:
460,15,128666,2,0,P|475:56|466:100,1,89.9999972534181,4|12,0:3|0:2,0:0:0:0:
405,166,129278,6,0,B|361:140|317:169|317:169|331:226|308:256|308:256|274:244|274:244|215:267,1,269.999991760254,6|8,1:2|1:3,0:0:0:0:
191,288,130349,1,4,1:2:0:0:
117,236,130655,1,8,1:3:0:0:
49,295,130962,1,4,1:3:0:0:
49,295,131115,1,8,1:3:0:0:
70,96,131727,6,0,B|116:74|116:74|160:93,1,100,4|8,1:0|1:2,0:0:0:0:
247,152,132339,1,2,1:2:0:0:
247,152,132492,2,0,L|308:151,1,50,2|8,0:2|1:2,0:0:0:0:
372,85,132951,1,2,1:2:0:0:
468,113,133258,1,10,1:2:0:0:
472,212,133564,1,2,1:2:0:0:
378,248,133870,2,0,L|383:303,1,50,10|2,1:2|0:2,0:0:0:0:
412,337,134176,6,0,L|312:348,1,100,6|10,1:2|1:2,0:0:0:0:
263,359,134635,1,2,0:2:0:0:
187,292,134941,1,2,0:2:0:0:
241,207,135247,2,0,P|255:159|237:114,1,100,2|2,0:2|0:2,0:0:0:0:
201,79,135707,1,10,1:2:0:0:
111,35,136013,1,2,1:2:0:0:
28,91,136319,2,0,L|29:151,1,50,10|10,1:2|0:2,0:0:0:0:
12,188,136625,6,0,L|116:182,1,100,2|10,1:2|1:2,0:0:0:0:
161,190,137084,2,0,P|184:232|175:281,1,100,2|2,0:2|0:2,0:0:0:0:
248,349,137696,2,0,L|363:336,1,100,2|0,3:2|0:2,0:0:0:0:
399,353,138155,1,10,1:2:0:0:
399,353,138309,2,0,P|422:310|414:261,1,100,2|0,0:2|0:0,0:0:0:0:
362,183,138921,1,2,3:2:0:0:
362,183,139074,6,0,B|361:139|361:139|371:131|371:131|367:70,1,100,6|4,1:2|0:3,0:0:0:0:
356,38,139533,1,8,1:3:0:0:
262,3,139839,1,8,1:3:0:0:
176,54,140145,2,0,B|176:97|176:97|167:106|167:106|171:167,1,100,6|0,1:2|1:2,0:0:0:0:
176,203,140604,1,8,1:2:0:0:
176,203,140758,2,0,L|60:201,1,100,8|10,1:3|1:2,0:0:0:0:
28,216,141217,2,0,L|29:269,1,50,10|10,1:2|1:2,0:0:0:0:
19,315,141523,6,0,P|68:294|117:315,1,100,4|8,1:0|1:2,0:0:0:0:
189,377,142135,1,2,1:2:0:0:
189,377,142288,2,0,L|257:370,1,50,2|8,0:2|1:2,0:0:0:0:
335,346,142747,1,2,1:2:0:0:
356,248,143053,1,10,1:2:0:0:
266,202,143360,1,2,1:2:0:0:
182,256,143666,2,0,L|121:263,1,50,10|2,1:2|0:2,0:0:0:0:
82,262,143972,6,0,P|59:216|75:166,1,100,6|10,1:2|1:2,0:0:0:0:
107,134,144431,1,2,0:2:0:0:
199,171,144737,1,2,0:2:0:0:
282,116,145043,2,0,P|336:117|394:109,1,100,2|2,0:2|0:2,0:0:0:0:
430,99,145502,1,10,1:2:0:0:
510,158,145809,1,2,1:2:0:0:
466,248,146115,2,0,L|396:255,1,50,10|10,1:2|0:2,0:0:0:0:
367,263,146421,6,0,P|390:304|380:353,2,100,14|8|8,1:2|1:2|1:2,0:0:0:0:
277,218,147339,2,0,L|209:222,1,50,10|2,1:2|1:2,0:0:0:0:
177,230,147645,1,8,1:2:0:0:
102,296,147951,1,8,1:2:0:0:
11,253,148258,1,8,1:2:0:0:
26,154,148564,1,12,1:2:0:0:
124,135,148870,6,0,B|149:90|149:90|130:45,1,100,6|8,1:2|0:2,0:0:0:0:
175,24,149329,2,0,P|226:24|285:17,1,100,14|8,1:2|0:3,0:0:0:0:
320,39,149788,2,0,B|319:78|319:78|324:88|324:88|324:149,1,100,6|8,1:2|1:3,0:0:0:0:
356,176,150247,2,0,B|392:157|392:157|419:167|419:167|465:162,1,100,6|0,1:2|0:0,0:0:0:0:
499,156,150707,1,6,1:2:0:0:
473,252,151013,1,2,1:2:0:0:
423,338,151319,6,0,B|366:322|366:322|326:340|326:340|290:294|290:294|253:317|253:317|216:328|216:328|179:321|179:321|157:362|157:362|130:344|130:344|88:355,1,400,4|4,1:0|1:3,0:0:0:0:
13,190,153155,1,0,1:2:0:0:
83,133,153462,2,0,L|142:141,1,44.999998626709,8|8,0:2|0:2,0:0:0:0:
171,149,153768,5,4,1:3:0:0:
181,192,153921,1,4,1:3:0:0:
400,239,154686,5,4,1:3:0:0:
391,283,154839,1,4,1:3:0:0:
136,342,156217,5,4,1:3:0:0:
124,298,156370,1,4,1:3:0:0:
334,218,157135,5,4,1:3:0:0:
342,182,157288,1,4,1:3:0:0:
159,51,158053,5,4,0:3:0:0:
147,210,158666,6,0,B|145:231|160:278|194:291|250:309|298:277|337:209|276:141|276:141|349:166|390:110|390:110|457:119|457:119|435:184,1,560,4|2,1:2|0:2,0:0:0:0:
408,260,161115,6,0,B|390:303|390:303|413:347,1,94.9999974632264,4|8,1:2|0:2,0:0:0:0:
370,369,161574,2,0,P|323:370|263:375,1,94.9999974632264,4|8,1:2|0:2,0:0:0:0:
245,337,162033,2,0,B|205:333|205:333|191:324|191:324|154:319,1,94.9999974632264,4|8,1:2|0:2,0:0:0:0:
118,351,162492,1,4,1:2:0:0:
46,297,162798,1,8,0:2:0:0:
46,297,162951,2,0,L|57:233,1,47.4999987316132,10|8,1:2|1:3,0:0:0:0:
25,211,163258,2,0,L|36:147,1,47.4999987316132,2|4,1:2|1:3,0:0:0:0:
53,121,163564,6,0,L|166:135,1,94.9999974632264,6|0,1:2|1:2,0:0:0:0:
219,78,164176,1,2,1:2:0:0:
306,100,164482,1,2,1:2:0:0:
301,189,164788,2,0,L|289:290,1,89.9999972534181,2|2,1:2|1:2,0:0:0:0:
257,309,165247,2,0,P|218:289|161:310,2,89.9999972534181,2|2|2,0:2|0:2|0:2,0:0:0:0:
334,356,166166,6,0,L|432:340,1,89.9999972534181,2|2,0:2|0:2,0:0:0:0:
467,333,166625,1,2,1:2:0:0:
494,247,166931,2,0,L|486:192,1,44.999998626709,2|2,1:2|0:2,0:0:0:0:
454,171,167237,2,0,P|410:162|366:182,1,89.9999972534181,2|2,1:2|1:2,0:0:0:0:
324,172,167696,2,0,L|308:82,1,89.9999972534181,2|2,0:2|0:2,0:0:0:0:
242,29,168309,1,8,0:2:0:0:
242,29,168462,6,0,L|142:42,1,89.9999972534181,4|2,1:2|1:2,0:0:0:0:
70,4,169074,2,0,P|56:46|70:88,1,89.9999972534181,2|2,1:2|1:2,0:0:0:0:
92,133,169533,1,2,0:2:0:0:
92,133,169686,2,0,L|75:231,1,89.9999972534181,2|0,1:2|1:2,0:0:0:0:
66,265,170145,1,10,1:2:0:0:
155,276,170451,1,10,1:2:0:0:
248,287,170758,1,10,1:2:0:0:
248,287,170911,6,0,B|342:300|266:356|383:366,1,150,4|0,1:2|1:2,0:0:0:0:
415,355,171523,2,0,P|392:292|451:240,1,150,12|0,1:2|1:2,0:0:0:0:
496,230,172135,1,6,1:3:0:0:
496,230,172288,1,6,1:3:0:0:
494,130,172594,1,6,1:3:0:0:
394,123,172900,1,6,1:3:0:0:
301,85,173207,6,0,B|292:131|292:131|304:162|304:162|288:185|288:185|292:248,1,150,4|8,1:0|0:2,0:0:0:0:
244,315,173972,2,0,L|193:308,1,50,2|2,1:2|1:2,0:0:0:0:
151,328,174278,1,10,0:2:0:0:
151,328,174431,2,0,P|60:322|50:264,1,150,6|8,1:2|0:2,0:0:0:0:
81,183,175196,2,0,L|75:128,1,50,2|2,1:2|1:2,0:0:0:0:
42,104,175502,1,10,0:2:0:0:
42,104,175655,6,0,B|96:92|96:92|131:105|131:105|201:93,1,150,6|8,1:2|0:2,0:0:0:0:
262,28,176421,2,0,L|327:18,1,50,2|2,1:2|1:2,0:0:0:0:
365,27,176727,1,10,0:2:0:0:
365,27,176880,2,0,L|382:140,1,100,6|2,1:2|1:2,0:0:0:0:
398,177,177339,1,10,0:2:0:0:
398,177,177492,2,0,B|436:149|436:149|487:164,1,100,6|2,1:2|1:2,0:0:0:0:
496,264,178104,6,0,B|457:291|457:291|406:276,1,100,6|2,1:2|1:2,0:0:0:0:
358,261,178564,1,10,0:2:0:0:
296,339,178870,1,10,0:2:0:0:
215,288,179176,1,10,0:2:0:0:
215,288,179329,2,0,B|169:297|169:297|158:294|158:294|104:303,1,100,6|2,1:2|1:2,0:0:0:0:
69,318,179788,1,10,0:2:0:0:
8,238,180094,1,10,0:2:0:0:
75,164,180400,1,10,0:2:0:0:
75,164,180553,6,0,B|94:116|94:116|59:59,1,100,6|2,1:2|1:2,0:0:0:0:
103,39,181013,1,8,0:2:0:0:
103,39,181166,2,0,P|150:34|221:31,1,100,6|2,1:2|1:2,0:0:0:0:
255,47,181625,1,8,0:2:0:0:
255,47,181778,2,0,B|301:59|339:31|339:31|345:70|387:90,1,150,6|8,1:2|0:2,0:0:0:0:
466,112,182543,1,8,0:3:0:0:
478,211,182849,1,4,0:3:0:0:
385,240,183155,6,0,B|330:216|274:250|326:269|277:300|205:275,1,179.999994506836,6|2,1:2|0:2,0:0:0:0:
146,244,184074,1,8,0:2:0:0:
146,244,184227,2,0,P|165:195|180:110,1,134.999995880127,6|8,1:2|0:3,0:0:0:0:
232,41,184992,2,0,P|189:21|146:36,1,89.9999972534181,4|8,0:3|0:2,0:0:0:0:
68,72,185604,6,0,B|43:110|61:155|61:155|14:170|15:230|15:230|61:251|63:306,1,269.999991760254,4|8,1:2|1:3,0:0:0:0:
69,342,186676,1,4,1:2:0:0:
150,380,186982,1,4,1:3:0:0:
213,316,187288,1,4,1:3:0:0:
213,316,187441,1,4,1:3:0:0:
423,381,189584,6,0,L|437:297,1,80,0|0,3:2|1:2,0:0:0:0:
429,262,190043,1,2,1:2:0:0:
429,262,190196,2,0,L|373:256,1,40,6|4,1:3|1:3,0:0:0:0:
353,251,190502,6,0,B|379:206|379:206|363:160,1,100,4|8,1:0|1:2,0:0:0:0:
291,99,191115,1,2,1:2:0:0:
291,99,191268,2,0,L|235:101,1,50,2|8,0:2|1:2,0:0:0:0:
178,23,191727,1,2,1:2:0:0:
79,38,192033,1,10,1:2:0:0:
66,137,192339,1,2,1:2:0:0:
156,178,192645,2,0,L|156:231,1,50,10|2,1:2|0:2,0:0:0:0:
166,276,192951,6,0,P|120:251|72:263,1,100,6|10,1:2|1:2,0:0:0:0:
38,295,193411,1,2,0:2:0:0:
104,369,193717,1,2,0:2:0:0:
202,351,194023,2,0,P|256:354|313:354,1,100,2|2,0:2|0:2,0:0:0:0:
351,363,194482,1,10,1:2:0:0:
417,288,194788,1,2,1:2:0:0:
345,217,195094,2,0,L|348:161,1,50,10|10,1:2|0:2,0:0:0:0:
372,123,195400,6,0,P|418:105|463:127,1,100,6|10,1:2|1:2,0:0:0:0:
500,158,195860,2,0,P|495:199|489:271,1,100,2|2,0:2|0:2,0:0:0:0:
419,328,196472,2,0,L|304:313,1,100,2|0,3:2|0:2,0:0:0:0:
279,342,196931,1,10,1:2:0:0:
279,342,197084,2,0,P|233:359|178:333,1,100,2|0,0:2|0:0,0:0:0:0:
117,279,197696,1,2,3:2:0:0:
117,279,197849,6,0,B|115:230|115:230|122:221|122:221|119:170,1,100,6|4,1:2|0:3,0:0:0:0:
119,130,198309,1,8,1:3:0:0:
43,64,198615,1,8,1:3:0:0:
121,1,198921,2,0,B|169:0|169:0|179:6|179:6|230:3,1,100,6|0,1:2|1:2,0:0:0:0:
272,14,199380,1,8,1:2:0:0:
272,14,199533,2,0,B|302:52|302:52|284:100,1,100,8|10,1:3|1:2,0:0:0:0:
244,130,199992,2,0,L|191:132,1,50,10|10,1:2|0:2,0:0:0:0:
105,174,200451,5,0,1:2:0:0:
105,174,200604,2,0,L|105:280,1,100,4|2,1:0|1:2,0:0:0:0:
129,317,201064,2,0,P|173:296|218:313,1,100,2|2,0:2|0:2,0:0:0:0:
256,345,201523,1,2,1:2:0:0:
350,377,201829,1,10,1:2:0:0:
401,291,202135,1,2,1:2:0:0:
322,229,202441,2,0,L|329:176,1,50,10|2,1:2|0:2,0:0:0:0:
302,136,202747,6,0,P|347:140|421:150,1,100,6|10,1:2|1:2,0:0:0:0:
451,152,203207,1,2,0:2:0:0:
512,77,203513,1,2,0:2:0:0:
431,17,203819,2,0,P|374:12|313:7,1,100,2|2,0:2|0:2,0:0:0:0:
281,3,204278,1,10,1:2:0:0:
225,85,204584,1,2,1:2:0:0:
296,155,204890,2,0,L|289:213,1,50,10|10,1:2|0:2,0:0:0:0:
302,252,205196,6,0,P|348:235|397:259,2,100,14|8|8,1:2|1:2|1:2,0:0:0:0:
236,328,206115,2,0,L|182:316,1,50,10|2,1:2|1:2,0:0:0:0:
137,310,206421,1,8,1:2:0:0:
44,348,206727,1,8,1:2:0:0:
0,259,207033,1,8,1:2:0:0:
92,220,207339,1,12,1:2:0:0:
191,233,207645,6,0,P|189:183|157:146,1,100,6|8,1:2|0:2,0:0:0:0:
161,96,208104,2,0,P|217:85|258:74,1,100,6|8,1:2|0:3,0:0:0:0:
294,39,208564,2,0,B|340:40|340:40|347:48|347:48|410:61,1,100,6|4,1:2|1:3,0:0:0:0:
431,84,209023,2,0,B|397:122|397:122|411:184,1,100,4|0,1:2|0:0,0:0:0:0:
426,216,209482,1,4,1:2:0:0:
504,277,209788,1,2,1:2:0:0:
442,355,210094,6,0,B|389:346|389:346|370:303|370:303|331:294|331:294|288:308|288:308|255:246|255:246|302:212|302:212|275:172|275:172|301:120,1,400,4|4,1:0|1:3,0:0:0:0:
291,138,212237,6,0,B|246:123|246:123|212:144|212:144|182:133|150:131|150:131|124:158|124:158|88:168|88:168|68:167|68:167|72:205|72:205|45:246,1,320,2|8,0:0|0:2,0:0:0:0:
117,311,213768,6,0,P|163:297|210:319,1,100,6|10,1:2|1:2,0:0:0:0:
291,374,214380,1,2,1:2:0:0:
382,334,214686,2,0,L|372:275,1,50,10|2,1:2|0:2,0:0:0:0:
363,235,214992,1,0,1:2:0:0:
448,183,215298,1,8,1:2:0:0:
448,83,215604,1,0,1:2:0:0:
365,25,215911,2,0,L|302:33,1,50,8|2,1:2|0:2,0:0:0:0:
269,11,216217,6,0,L|279:110,1,100,6|10,1:2|1:2,0:0:0:0:
362,164,216829,1,2,1:3:0:0:
325,257,217135,1,10,1:2:0:0:
226,238,217441,2,0,L|115:250,1,100,0|8,1:2|1:2,0:0:0:0:
81,260,217900,1,2,0:2:0:0:
81,260,218053,1,2,1:2:0:0:
11,188,218360,2,0,L|10:130,1,50,10|8,1:2|0:2,0:0:0:0:
33,93,218666,6,0,P|75:73|128:88,1,100,6|10,1:2|1:2,0:0:0:0:
218,123,219278,1,2,1:2:0:0:
288,52,219584,2,0,L|353:59,1,50,10|2,1:2|0:2,0:0:0:0:
387,61,219890,1,0,1:2:0:0:
471,114,220196,1,8,1:2:0:0:
467,213,220502,1,0,1:2:0:0:
368,230,220809,2,0,L|313:223,1,50,8|2,1:2|0:2,0:0:0:0:
268,227,221115,6,0,P|289:182|273:134,1,100,6|10,1:2|1:2,0:0:0:0:
201,69,221727,1,2,1:2:0:0:
101,73,222033,1,10,1:2:0:0:
50,159,222339,2,0,L|55:220,1,50,4|8,1:2|0:2,0:0:0:0:
61,258,222645,2,0,L|122:253,1,50,8|8,1:2|0:3,0:0:0:0:
160,251,222951,1,0,1:2:0:0:
247,299,223258,2,0,L|252:360,1,50,2|2,1:2|1:2,0:0:0:0:
296,369,223564,6,0,P|339:346|387:357,1,100,6|10,1:2|1:2,0:0:0:0:
485,336,224176,1,2,1:2:0:0:
453,241,224482,2,0,L|460:186,1,50,10|2,1:2|0:2,0:0:0:0:
464,141,224788,1,0,1:2:0:0:
402,62,225094,1,8,1:2:0:0:
309,99,225400,1,0,1:2:0:0:
351,189,225707,2,0,L|342:250,1,50,8|2,1:2|0:2,0:0:0:0:
341,288,226013,6,0,P|288:277|232:266,1,100,6|10,1:2|1:2,0:0:0:0:
146,241,226625,1,2,1:3:0:0:
70,306,226931,1,8,1:2:0:0:
0,234,227237,2,0,P|10:185|18:127,1,100,0|8,1:2|1:2,0:0:0:0:
62,111,227696,1,2,0:2:0:0:
62,111,227849,2,0,B|103:117|103:117|119:109|119:109|168:119,1,100,2|10,1:2|1:2,0:0:0:0:
211,110,228309,1,8,0:2:0:0:
211,110,228462,6,0,B|237:69|237:69|215:7,2,100,6|10|2,1:2|1:2|1:2,0:0:0:0:
266,193,229380,1,10,1:2:0:0:
353,145,229686,1,0,1:2:0:0:
442,190,229992,1,8,1:2:0:0:
437,289,230298,1,0,1:2:0:0:
349,338,230604,2,0,L|288:323,1,50,8|2,1:2|0:2,0:0:0:0:
257,311,230911,6,0,B|214:298|214:298|175:321,2,89.9999972534181,4|8|8,1:2|0:2|0:2,0:0:0:0:
314,242,231829,1,8,0:2:0:0:
390,289,232135,2,0,L|408:195,1,89.9999972534181,8|8,0:2|0:2,0:0:0:0:
397,161,232594,1,2,1:3:0:0:
397,161,232747,2,0,B|361:149|361:149|346:151|346:151|297:138,1,89.9999972534181,8|10,1:2|1:2,0:0:0:0:
268,125,233207,5,4,1:0:0:0:
256,192,233360,12,0,238258,0:2:0:0:
