osu file format v14

[General]
AudioFilename: revenge syndrome.mp3
AudioLeadIn: 0
PreviewTime: 43374
Countdown: 0
SampleSet: Normal
StackLeniency: 0.7
Mode: 0
LetterboxInBreaks: 1
WidescreenStoryboard: 0

[Editor]
Bookmarks: 27741
DistanceSpacing: 2
BeatDivisor: 4
GridSize: 4
TimelineZoom: 2.2

[Metadata]
Title:Revenge Syndrome
TitleUnicode:仇返しシンドローム
Artist:mafumafu
ArtistUnicode:まふまふ
Creator:Rizia
Version:Revenge
Source:Vocaloid
Tags:kawaiwkyik
BeatmapID:937709
BeatmapSetID:200308

[Difficulty]
HPDrainRate:4
CircleSize:4
OverallDifficulty:10
ApproachRate:10
SliderMultiplier:1.8
SliderTickRate:1

[Events]
//Background and Video events
0,0,"bg.jpg",0,0
//Break Periods
2,10300,16410
2,59314,63734
2,135170,140953
//Storyboard Layer 0 (Background)
//Storyboard Layer 1 (Fail)
//Storyboard Layer 2 (Pass)
//Storyboard Layer 3 (Foreground)
//Storyboard Sound Samples

[TimingPoints]
65,211.267605633803,4,1,1,70,1,0
30487,-133.333333333333,4,1,1,70,0,0
35557,-100,4,1,1,70,0,0
43903,-100,4,1,1,70,0,1
59114,-100,4,1,1,70,0,0
77811,-100,4,1,1,70,0,0
84572,-133.333333333333,4,1,1,70,0,0
89642,-100,4,1,1,70,0,0
97987,-100,4,1,1,70,0,1
110874,-100,4,1,1,40,0,1
111508,-100,4,1,1,70,0,0
141719,-200,4,1,1,70,0,0
142248,-100,4,1,1,70,0,1
153762,-83.3333333333333,4,1,1,70,0,1
167283,-66.6666666666667,4,1,1,70,0,0

[Colours]
Combo1 : 17,254,176
Combo2 : 173,255,95
Combo3 : 255,88,100
Combo4 : 255,94,55

[HitObjects]
176,124,170,6,0,L|80:112,2,90,12|0|0,0:0|0:0|0:0,0:0:0:0:
276,200,487,2,0,L|372:188,2,90,8|0|0,0:0|0:0|0:0,0:0:0:0:
172,272,804,2,0,L|76:260,2,90,8|0|0,0:0|0:0|0:0,0:0:0:0:
280,340,1121,1,8,0:0:0:0:
308,336,1174,1,0,0:0:0:0:
336,332,1226,1,12,0:3:0:0:
364,328,1279,1,0,0:0:0:0:
392,324,1332,1,0,0:0:0:0:
480,356,1438,1,8,0:0:0:0:
164,100,1860,6,0,P|208:108|344:36,1,180,4|0,0:0|0:0,0:0:0:0:
475,202,2177,2,0,P|399:155|310:158,1,180,8|0,0:0|0:0,0:0:0:0:
172,272,2494,2,0,P|188:324|196:384,1,90,12|0,0:0|0:0,0:0:0:0:
60,224,2705,6,0,L|0:232,2,60,0|8|8,0:0|0:3|0:3,0:0:0:0:
96,232,2917,2,0,P|116:184|80:52,1,180,8|0,0:0|0:0,0:0:0:0:
20,136,3234,1,8,0:0:0:0:
220,176,3339,6,0,L|408:156,1,180,4|0,0:0|0:0,0:0:0:0:
368,272,3656,2,0,L|278:281,1,90,8|0,0:0|0:0,0:0:0:0:
156,288,3867,1,0,0:0:0:0:
312,180,3973,1,0,0:0:0:0:
332,368,4079,1,8,0:0:0:0:
192,196,4184,6,0,P|172:148|212:32,1,180,0|0,0:0|0:0,0:0:0:0:
424,32,4501,1,8,0:0:0:0:
364,108,4607,1,2,0:0:0:0:
364,108,4660,1,0,0:0:0:0:
364,108,4712,2,0,L|264:100,2,90,0|2|8,0:0|0:0|0:0,0:0:0:0:
444,164,5029,6,0,P|436:224|424:356,1,180,4|0,0:0|0:0,0:0:0:0:
252,360,5346,1,8,0:0:0:0:
324,272,5452,1,0,0:0:0:0:
224,116,5557,2,0,P|172:112|120:144,1,90,0|0,0:0|0:0,0:0:0:0:
84,232,5769,1,8,0:0:0:0:
224,336,5874,6,0,P|304:320|440:304,1,180,0|0,0:0|0:0,0:0:0:0:
401,307,6138,1,0,0:0:0:0:
401,307,6191,1,8,0:0:0:0:
444,164,6297,1,0,0:0:0:0:
196,24,6403,2,0,P|240:29|284:38,1,90,0|0,0:0|0:0,0:0:0:0:
356,188,6614,1,8,0:0:0:0:
232,275,6719,6,0,P|196:219|244:99,1,180,4|0,0:0|0:0,0:0:0:0:
368,228,7036,1,8,0:0:0:0:
328,360,7142,1,0,0:0:0:0:
200,240,7248,2,0,B|160:232|160:232|111:241,1,90,0|0,0:0|0:0,0:0:0:0:
36,328,7458,1,8,0:0:0:0:
84,152,7565,6,0,B|162:136|162:136|279:159,1,180,0|0,0:0|0:0,0:0:0:0:
368,228,7881,2,0,P|392:172|380:112,1,90,8|0,0:0|0:0,0:0:0:0:
304,12,8093,2,0,L|320:112,1,90,0|0,0:0|0:0,0:0:0:0:
360,316,8304,1,8,0:0:0:0:
464,192,8410,6,0,P|432:152|304:144,1,180,4|0,0:0|0:0,0:0:0:0:
184,240,8726,2,0,L|124:232,1,45,8|0,0:0|0:0,0:0:0:0:
76,68,8832,2,0,L|136:76,1,45,8|0,0:0|0:0,0:0:0:0:
173,163,8938,2,0,L|83:151,1,90,0|0,0:0|0:0,0:0:0:0:
0,56,9149,1,8,0:0:0:0:
248,192,9255,6,0,P|300:204|400:108,1,180,0|0,0:0|0:0,0:0:0:0:
394,133,9519,1,0,0:0:0:0:
394,133,9572,1,8,0:0:0:0:
296,88,9677,1,8,0:0:0:0:
168,356,9783,5,8,0:0:0:0:
264,336,9888,1,8,0:0:0:0:
360,316,9994,1,8,0:0:0:0:
456,344,10100,1,12,0:0:0:0:
112,72,16860,6,0,P|120:124|132:284,1,180,4|0,0:0|0:0,0:0:0:0:
220,344,17177,2,0,P|228:276|244:228,1,90,8|0,0:0|0:0,0:0:0:0:
316,120,17388,2,0,P|326:163|329:208,1,90,0|0,0:0|0:0,0:0:0:0:
416,348,17600,2,0,P|419:303|429:259,1,90,8|0,0:0|0:0,0:0:0:0:
500,164,17811,5,0,0:0:0:0:
412,92,17917,1,0,0:0:0:0:
328,228,18022,1,8,0:0:0:0:
493,147,18128,2,0,P|425:139|297:115,1,180,0|0,0:0|0:0,0:0:0:0:
232,48,18445,1,8,0:0:0:0:
60,176,18550,6,0,P|108:200|228:120,1,180,0|0,0:0|0:0,0:0:0:0:
122,24,18867,2,0,P|116:68|128:112,1,90,8|0,0:0|0:0,0:0:0:0:
312,200,19079,2,0,P|323:156|317:112,1,90,0|0,0:0|0:0,0:0:0:0:
232,48,19290,1,8,0:0:0:0:
184,296,19395,6,0,B|236:288|236:288|304:308|304:308|388:292,1,180,0|0,0:0|0:0,0:0:0:0:
488,276,19712,1,8,0:0:0:0:
308,224,19818,1,0,0:0:0:0:
392,288,19924,1,0,0:0:0:0:
320,176,20029,1,0,0:0:0:0:
184,296,20135,1,8,0:0:0:0:
120,176,20241,6,0,P|128:132|256:92,1,180,4|0,0:0|0:0,0:0:0:0:
496,192,20557,2,0,P|440:204|356:140,1,135,8|0,0:0|0:0,0:0:0:0:
344,160,20769,2,0,L|360:272,1,90,0|0,0:0|0:0,0:0:0:0:
196,384,20980,2,0,L|180:272,1,90,8|0,0:0|0:0,0:0:0:0:
248,116,21191,5,0,0:0:0:0:
248,116,21297,2,0,L|264:228,1,90,0|8,0:0|0:0,0:0:0:0:
88,352,21508,2,0,L|72:240,1,90,0|0,0:0|0:0,0:0:0:0:
140,48,21719,1,0,0:0:0:0:
28,132,21825,1,8,0:0:0:0:
172,212,21931,6,0,P|230:235|353:172,1,180,4|0,0:0|0:0,0:0:0:0:
320,24,22248,2,0,P|262:1|139:64,1,180,8|0,0:0|0:0,0:0:0:0:
335,196,22565,1,0,0:0:0:0:
416,36,22670,1,8,0:0:0:0:
248,116,22776,6,0,P|260:176|276:328,1,180,0|0,0:0|0:0,0:0:0:0:
274,293,23040,1,0,0:0:0:0:
274,293,23093,1,8,0:0:0:0:
172,212,23198,1,8,0:0:0:0:
200,368,23304,1,8,0:0:0:0:
376,264,23410,1,8,0:0:0:0:
112,324,23515,1,8,0:0:0:0:
420,344,23621,6,0,P|464:288|432:192,1,180,4|0,0:0|0:0,0:0:0:0:
241,28,23938,2,0,P|235:72|248:116,1,90,8|0,0:0|0:0,0:0:0:0:
416,60,24149,2,0,P|371:53|328:66,1,90,0|0,0:0|0:0,0:0:0:0:
212,208,24360,2,0,P|256:214|299:201,1,90,8|0,0:0|0:0,0:0:0:0:
432,192,24572,5,0,0:0:0:0:
420,344,24677,2,0,L|320:332,1,90,0|8,0:0|0:0,0:0:0:0:
200,248,24888,2,0,L|289:237,1,90,0|0,0:0|0:0,0:0:0:0:
316,88,25100,1,0,0:0:0:0:
432,192,25205,1,8,0:0:0:0:
160,64,25311,6,0,P|104:124|132:236,1,180,4|0,0:0|0:0,0:0:0:0:
211,337,25628,2,0,L|199:241,1,90,8|0,0:0|0:0,0:0:0:0:
16,176,25839,2,0,L|27:265,1,90,0|0,0:0|0:0,0:0:0:0:
304,280,26050,1,8,0:0:0:0:
356,128,26156,6,0,L|267:139,1,90,0|0,0:0|0:0,0:0:0:0:
214,291,26367,1,0,0:0:0:0:
214,291,26420,1,0,0:0:0:0:
214,291,26473,2,0,L|303:280,1,90,8|0,0:0|0:0,0:0:0:0:
420,312,26684,1,0,0:0:0:0:
288,184,26790,1,0,0:0:0:0:
468,136,26895,1,8,0:0:0:0:
349,361,27001,6,0,P|263:361|213:290,1,180,4|0,0:0|0:0,0:0:0:0:
308,51,27318,2,0,P|303:118|288:184,1,135,8|0,0:0|0:0,0:0:0:0:
280,200,27529,2,0,P|228:184|176:176,1,90,0|0,0:0|0:0,0:0:0:0:
28,92,27741,2,0,P|72:83|114:69,1,90,8|0,0:0|0:0,0:0:0:0:
124,336,27952,5,0,0:0:0:0:
92,176,28057,1,0,0:0:0:0:
124,336,28163,1,8,0:0:0:0:
276,292,28269,2,0,B|316:280|316:280|372:288,1,90,0|0,0:0|0:0,0:0:0:0:
437,356,28480,2,0,B|397:368|397:368|341:360,1,90,0|8,0:0|0:0,0:0:0:0:
280,200,28691,6,0,P|254:152|336:44,1,180,4|0,0:0|0:0,0:0:0:0:
480,124,29008,1,8,0:0:0:0:
476,152,29061,1,0,0:0:0:0:
472,180,29114,1,8,0:0:0:0:
468,208,29167,1,0,0:0:0:0:
464,236,29219,1,0,0:0:0:0:
280,200,29325,1,0,0:0:0:0:
392,64,29431,1,8,0:0:0:0:
392,64,29484,1,0,0:0:0:0:
392,64,29536,2,0,L|408:176,1,90,0|0,0:0|0:0,0:0:0:0:
200,360,29748,5,8,0:0:0:0:
200,360,29800,1,0,0:0:0:0:
200,360,29853,1,8,0:0:0:0:
236,208,29959,1,8,0:0:0:0:
348,312,30065,5,0,0:0:0:0:
104,264,30170,1,0,0:0:0:0:
385,232,30276,1,0,0:0:0:0:
165,351,30381,1,0,0:0:0:0:
76,160,30487,6,0,P|68:104|116:12,1,135.000005149842,4|0,0:0|0:0,0:0:0:0:
416,32,30910,2,0,P|442:93|436:160,1,135.000005149842,0|0,0:0|0:0,0:0:0:0:
188,280,31332,2,0,P|136:288|48:248,1,135.000005149842,0|0,0:0|0:0,0:0:0:0:
324,280,31755,2,0,P|376:288|464:248,1,135.000005149842,0|0,0:0|0:0,0:0:0:0:
348,52,32177,5,0,0:0:0:0:
116,100,32388,1,0,0:0:0:0:
164,332,32600,1,0,0:0:0:0:
396,284,32811,1,0,0:0:0:0:
256,192,33022,5,0,0:0:0:0:
256,192,33234,2,0,L|104:208,1,135.000005149842,8|0,0:0|0:0,0:0:0:0:
29,346,33550,2,0,L|181:330,1,135.000005149842,8|0,0:0|0:0,0:0:0:0:
320,312,33867,5,8,0:0:0:0:
376,128,34079,1,0,0:0:0:0:
192,72,34290,1,0,0:0:0:0:
136,256,34502,1,0,0:0:0:0:
386,231,34712,5,0,0:0:0:0:
295,61,34924,1,0,0:0:0:0:
125,152,35135,1,4,0:0:0:0:
216,322,35347,5,8,0:0:0:0:
256,192,35452,1,8,0:0:0:0:
128,224,35557,2,0,P|88:240|12:232,1,90,4|0,0:0|0:0,0:0:0:0:
100,64,35769,2,0,P|144:64|186:80,1,90,8|0,0:0|0:0,0:0:0:0:
386,231,35980,1,0,0:0:0:0:
408,88,36086,2,0,P|408:40|388:-12,1,90,0|8,0:0|0:0,0:0:0:0:
256,192,36297,6,0,P|252:248|316:376,1,180,0|0,0:0|0:0,0:0:0:0:
508,196,36614,2,0,P|512:140|448:12,1,180,8|0,0:0|0:0,0:0:0:0:
212,72,36931,1,8,0:0:0:0:
372,160,37036,1,8,0:0:0:0:
212,268,37142,6,0,B|160:260|160:260|104:288|104:288|24:276,1,180,4|0,0:0|0:0,0:0:0:0:
76,120,37459,2,0,B|93:159|93:159|89:207,1,90,8|0,0:0|0:0,0:0:0:0:
172,340,37670,1,0,0:0:0:0:
256,192,37776,1,0,0:0:0:0:
352,276,37881,1,8,0:0:0:0:
464,208,37987,6,0,P|474:131|383:45,1,180,0|0,0:0|0:0,0:0:0:0:
212,72,38304,1,8,0:0:0:0:
372,160,38410,1,0,0:0:0:0:
212,268,38515,1,0,0:0:0:0:
369,364,38621,2,0,P|361:312|345:256,1,90,0|8,0:0|0:0,0:0:0:0:
168,188,38832,6,0,P|128:240|176:356,1,180,4|0,0:0|0:0,0:0:0:0:
369,364,39149,1,8,0:0:0:0:
372,160,39255,1,0,0:0:0:0:
212,268,39360,1,0,0:0:0:0:
396,288,39466,2,0,L|492:276,1,90,0|8,0:0|0:0,0:0:0:0:
390,49,39677,6,0,L|211:71,1,180,0|0,0:0|0:0,0:0:0:0:
144,120,39941,1,0,0:0:0:0:
144,120,39994,2,0,P|128:72|136:32,1,90,8|0,0:0|0:0,0:0:0:0:
256,192,40205,1,8,0:0:0:0:
172,316,40311,1,8,0:0:0:0:
144,312,40364,1,0,0:0:0:0:
116,308,40417,1,8,0:0:0:0:
88,304,40469,1,0,0:0:0:0:
60,300,40522,6,0,P|88:252|216:260,1,180,4|0,0:0|0:0,0:0:0:0:
344,304,40839,2,0,P|360:256|352:192,1,90,8|0,0:0|0:0,0:0:0:0:
412,80,41050,2,0,P|362:90|311:129,1,90,0|0,0:0|0:0,0:0:0:0:
188,135,41262,2,0,P|221:172|280:197,1,90,8|0,0:0|0:0,0:0:0:0:
456,264,41473,6,0,L|464:168,1,90,0|0,0:0|0:0,0:0:0:0:
321,20,41684,2,0,L|328:109,1,90,8|0,0:0|0:0,0:0:0:0:
191,364,41895,2,0,L|183:274,1,90,0|0,0:0|0:0,0:0:0:0:
56,120,42106,2,0,L|48:209,1,90,8|0,0:0|0:0,0:0:0:0:
268,208,42318,5,8,0:0:0:0:
188,136,42424,1,0,0:0:0:0:
168,240,42529,1,0,0:0:0:0:
272,120,42635,6,0,P|276:72|256:12,1,90,8|0,0:0|0:0,0:0:0:0:
96,172,42846,1,0,0:0:0:0:
248,308,42952,6,0,L|352:296,1,90,8|0,0:0|0:0,0:0:0:0:
492,204,43163,1,8,0:0:0:0:
462,214,43215,1,0,0:0:0:0:
430,215,43268,1,8,0:0:0:0:
400,208,43321,1,0,0:0:0:0:
373,192,43374,5,0,0:0:0:0:
160,124,43480,1,0,0:0:0:0:
336,56,43586,5,0,0:0:0:0:
168,240,43691,1,2,0:0:0:0:
384,328,43797,1,2,0:0:0:0:
88,304,43903,6,0,P|68:248|148:136,1,180,4|0,0:0|0:0,0:0:0:0:
256,212,44219,2,0,P|300:220|360:256,1,90,10|0,0:0|0:0,0:0:0:0:
32,212,44431,2,0,P|16:169|18:99,1,90,2|0,0:0|0:0,0:0:0:0:
232,24,44642,1,8,0:0:0:0:
348,148,44748,6,0,P|361:235|318:312,1,180,2|0,0:0|0:0,0:0:0:0:
188,344,45065,1,10,0:0:0:0:
170,195,45170,1,0,0:0:0:0:
170,195,45223,1,0,0:0:0:0:
170,195,45276,2,0,P|214:194|256:212,1,90,2|0,0:0|0:0,0:0:0:0:
356,344,45487,1,8,0:0:0:0:
464,176,45593,6,0,P|472:128|388:24,1,180,6|0,0:0|0:0,0:0:0:0:
155,106,45910,2,0,P|160:150|170:195,1,90,10|0,0:0|0:0,0:0:0:0:
356,344,46121,2,0,P|365:299|370:255,1,90,2|0,0:0|0:0,0:0:0:0:
348,148,46332,1,8,0:0:0:0:
104,292,46438,6,0,P|149:301|193:306,1,90,2|0,0:0|0:0,0:0:0:0:
304,216,46649,1,0,0:0:0:0:
304,216,46702,1,0,0:0:0:0:
304,216,46755,1,8,0:0:0:0:
256,96,46860,1,0,0:0:0:0:
356,344,46966,2,0,P|311:353|267:358,1,90,2|2,0:0|0:0,0:0:0:0:
170,195,47177,1,8,0:0:0:0:
484,284,47283,6,0,P|436:300|328:228,1,180,6|0,0:0|0:0,0:0:0:0:
392,28,47600,2,0,L|408:124,1,90,10|0,0:0|0:0,0:0:0:0:
224,296,47811,2,0,L|208:200,1,90,2|0,0:0|0:0,0:0:0:0:
192,44,48022,1,8,0:0:0:0:
424,212,48128,6,0,B|392:264|400:328|400:328|360:312|316:316,1,180,2|0,0:0|0:0,0:0:0:0:
100,188,48445,2,0,L|204:172,1,90,8|0,0:0|0:0,0:0:0:0:
232,72,48656,1,2,0:0:0:0:
224,296,48762,1,0,0:0:0:0:
32,244,48867,2,0,P|12:192|24:132,1,90,10|0,0:0|0:0,0:0:0:0:
352,44,49079,6,0,P|392:84|368:232,1,180,4|8,0:0|0:0,0:0:0:0:
136,188,49395,2,0,B|212:132|236:200|316:124,1,180,4|8,0:0|0:0,0:0:0:0:
432,308,49712,2,0,P|388:312|336:296,1,90,4|0,0:0|0:0,0:0:0:0:
232,72,49924,1,0,0:0:0:0:
393,201,50029,5,0,0:0:0:0:
200,276,50135,1,8,0:0:0:0:
303,135,50241,1,8,0:0:0:0:
376,292,50346,1,8,0:0:0:0:
44,240,50452,6,0,L|8:232,6,22.5,2|2|2|2|2|2|2,2:0|2:0|2:0|2:0|2:0|2:0|2:0,0:0:0:0:
64,224,50663,6,0,L|264:204,1,180,4|0,0:0|0:0,0:0:0:0:
364,0,50980,2,0,P|348:48|344:108,1,90,10|0,0:0|0:0,0:0:0:0:
488,208,51191,2,0,P|504:160|468:80,1,135,2|0,0:0|0:0,0:0:0:0:
440,64,51403,1,8,0:0:0:0:
272,217,51508,6,0,P|329:281|416:272,1,180,2|0,0:0|0:0,0:0:0:0:
296,132,51825,2,0,L|184:144,1,90,10|0,0:0|0:0,0:0:0:0:
144,332,52036,2,0,L|256:320,1,90,2|0,0:0|0:0,0:0:0:0:
368,196,52248,1,8,0:0:0:0:
64,220,52353,6,0,P|112:232|216:152,1,180,6|0,0:0|0:0,0:0:0:0:
132,48,52670,2,0,P|113:88|115:133,1,90,10|0,0:0|0:0,0:0:0:0:
272,217,52881,1,2,0:0:0:0:
384,100,52987,1,0,0:0:0:0:
224,60,53093,1,8,0:0:0:0:
352,260,53198,6,0,L|441:250,1,90,2|0,0:0|0:0,0:0:0:0:
296,132,53410,1,0,0:0:0:0:
296,132,53462,1,0,0:0:0:0:
296,132,53515,2,0,L|206:141,1,90,8|0,0:0|0:0,0:0:0:0:
116,224,53726,1,2,0:0:0:0:
304,320,53832,1,0,0:0:0:0:
116,224,53938,1,8,0:0:0:0:
224,372,54043,6,0,P|288:356|420:340,1,180,6|0,0:0|0:0,0:0:0:0:
408,200,54360,2,0,P|364:180|316:184,1,90,10|0,0:0|0:0,0:0:0:0:
196,192,54572,2,0,L|208:84,1,90,2|2,0:0|0:0,0:0:0:0:
352,260,54783,1,8,0:0:0:0:
204,344,54888,6,0,L|12:324,1,180,2|0,0:0|0:0,0:0:0:0:
260,240,55205,1,10,0:0:0:0:
380,352,55311,1,0,0:0:0:0:
316,168,55417,1,2,0:0:0:0:
188,360,55522,1,2,0:0:0:0:
240,108,55628,1,8,0:0:0:0:
440,264,55734,6,0,P|484:232|480:84,1,180,6|0,0:0|0:0,0:0:0:0:
296,4,56050,1,10,0:0:0:0:
264,32,56103,1,0,0:0:0:0:
244,68,56156,1,0,0:0:0:0:
240,108,56209,1,0,0:0:0:0:
252,148,56262,1,2,0:0:0:0:
384,108,56367,1,0,0:0:0:0:
148,44,56473,1,8,0:0:0:0:
216,272,56579,6,0,P|316:256|436:248,1,180,2|0,0:0|0:0,0:0:0:0:
394,249,56843,1,0,0:0:0:0:
394,249,56895,1,8,0:0:0:0:
308,384,57001,1,8,0:0:0:0:
54,242,57107,1,0,0:0:0:0:
63,198,57159,1,0,0:0:0:0:
87,160,57212,1,0,0:0:0:0:
123,134,57265,1,0,0:0:0:0:
166,122,57318,1,0,0:0:0:0:
211,127,57371,1,0,0:0:0:0:
251,147,57423,1,4,0:0:0:0:
256,192,57476,12,4,59114,0:0:0:0:
112,128,64184,6,0,B|184:120|184:120|208:128|208:128|312:116,1,180,4|0,0:0|0:0,0:0:0:0:
456,188,64501,2,0,B|339:175|339:175,1,90,8|0,0:0|0:0,0:0:0:0:
216,40,64712,1,0,0:0:0:0:
272,216,64818,1,0,0:0:0:0:
424,96,64924,1,8,0:0:0:0:
352,280,65029,6,0,P|304:252|180:264,1,180,0|0,0:0|0:0,0:0:0:0:
29,171,65346,2,0,P|57:205|100:220,1,90,8|0,0:0|0:0,0:0:0:0:
216,40,65557,1,0,0:0:0:0:
112,128,65663,1,0,0:0:0:0:
336,84,65769,1,8,0:0:0:0:
248,192,65874,6,0,P|236:256|220:372,1,180,4|0,0:0|0:0,0:0:0:0:
352,280,66191,2,0,P|356:328|364:368,1,90,8|0,0:0|0:0,0:0:0:0:
460,216,66403,1,0,0:0:0:0:
348,152,66508,2,0,P|332:112|336:60,1,90,0|8,0:0|0:0,0:0:0:0:
352,280,66719,6,0,P|312:248|168:264,1,180,0|0,0:0|0:0,0:0:0:0:
164,288,66984,1,0,0:0:0:0:
164,288,67036,2,0,L|176:384,1,90,8|0,0:0|0:0,0:0:0:0:
52,268,67248,1,0,0:0:0:0:
152,152,67353,1,0,0:0:0:0:
304,128,67459,1,8,0:0:0:0:
428,220,67565,6,0,P|456:172|420:40,1,180,4|0,0:0|0:0,0:0:0:0:
272,256,67881,2,0,P|276:316|300:348,1,90,8|0,0:0|0:0,0:0:0:0:
304,128,68093,1,0,0:0:0:0:
184,204,68198,2,0,L|72:196,1,90,0|8,0:0|0:0,0:0:0:0:
0,80,68410,6,0,P|24:44|172:48,1,180,0|0,0:0|0:0,0:0:0:0:
332,100,68726,1,8,0:0:0:0:
184,204,68832,1,0,0:0:0:0:
184,204,68885,1,0,0:0:0:0:
184,204,68938,2,0,L|176:104,1,90,0|0,0:0|0:0,0:0:0:0:
360,224,69149,1,8,0:0:0:0:
122,306,69255,6,0,P|185:246|271:255,1,180,4|0,0:0|0:0,0:0:0:0:
420,352,69572,1,8,0:0:0:0:
424,324,69624,1,0,0:0:0:0:
428,296,69677,1,8,0:0:0:0:
432,268,69730,1,0,0:0:0:0:
436,240,69783,1,0,0:0:0:0:
271,255,69888,1,0,0:0:0:0:
448,148,69994,1,8,0:0:0:0:
304,64,70100,6,0,B|248:48|248:48|184:56|184:56|120:36,1,180,4|0,0:0|0:0,0:0:0:0:
129,38,70364,1,0,0:0:0:0:
129,38,70417,1,8,0:0:0:0:
48,232,70522,1,8,0:0:0:0:
208,104,70628,1,8,0:0:0:0:
192,316,70734,1,8,0:0:0:0:
312,104,70839,1,8,0:0:0:0:
356,328,70945,6,0,P|396:348|508:276,1,180,4|0,0:0|0:0,0:0:0:0:
264,276,71262,2,0,P|252:336|264:380,1,90,8|0,0:0|0:0,0:0:0:0:
328,176,71473,1,0,0:0:0:0:
416,248,71579,1,0,0:0:0:0:
472,148,71684,2,0,P|477:103|465:60,1,90,8|0,0:0|0:0,0:0:0:0:
256,12,71895,5,0,0:0:0:0:
222,114,72001,2,0,L|326:102,1,90,0|8,0:0|0:0,0:0:0:0:
445,338,72212,2,0,L|341:326,1,90,0|0,0:0|0:0,0:0:0:0:
152,292,72424,1,0,0:0:0:0:
280,172,72529,1,8,0:0:0:0:
200,372,72635,6,0,P|152:340|24:356,1,180,0|0,0:0|0:0,0:0:0:0:
100,140,72952,2,0,P|124:188|108:248,1,90,8|0,0:0|0:0,0:0:0:0:
32,204,73163,1,0,0:0:0:0:
175,292,73269,2,0,L|283:272,1,90,0|8,0:0|0:0,0:0:0:0:
396,248,73480,1,0,0:0:0:0:
304,148,73586,5,0,0:0:0:0:
263,275,73691,1,0,0:0:0:0:
396,248,73797,1,8,0:0:0:0:
304,148,73903,1,0,0:0:0:0:
340,320,74008,1,0,0:0:0:0:
404,152,74114,2,0,P|456:176|484:232,1,90,0|8,0:0|0:0,0:0:0:0:
262,275,74325,6,0,P|172:292|100:232,1,180,4|0,0:0|0:0,0:0:0:0:
208,112,74642,2,0,P|211:156|200:200,1,90,8|0,0:0|0:0,0:0:0:0:
112,144,74853,1,0,0:0:0:0:
288,48,74959,1,0,0:0:0:0:
128,40,75065,1,8,0:0:0:0:
304,148,75170,1,0,0:0:0:0:
128,240,75276,5,0,0:0:0:0:
128,240,75381,2,0,L|32:224,1,90,0|8,0:0|0:0,0:0:0:0:
204,384,75593,2,0,L|220:288,1,90,0|0,0:0|0:0,0:0:0:0:
304,148,75804,2,0,L|318:236,1,90,0|8,0:0|0:0,0:0:0:0:
394,332,76015,6,0,P|326:316|198:292,1,180,4|0,0:0|0:0,0:0:0:0:
392,240,76332,1,8,0:0:0:0:
248,384,76438,1,0,0:0:0:0:
184,208,76543,1,0,0:0:0:0:
276,284,76649,1,0,0:0:0:0:
296,88,76755,1,8,0:0:0:0:
172,316,76860,6,0,B|124:332|124:332|64:296|0:313,1,180,0|0,0:0|0:0,0:0:0:0:
0,313,77124,1,0,0:0:0:0:
0,313,77177,1,8,0:0:0:0:
108,128,77283,1,8,0:0:0:0:
276,284,77388,1,8,0:0:0:0:
240,16,77494,1,8,0:0:0:0:
240,16,77705,6,0,L|264:200,1,180,4|0,0:0|0:0,0:0:0:0:
352,224,78022,2,0,P|356:176|328:124,1,90,8|0,0:0|0:0,0:0:0:0:
172,164,78234,2,0,P|168:212|196:264,1,90,0|0,0:0|0:0,0:0:0:0:
364,320,78445,1,8,0:0:0:0:
263,194,78550,1,0,0:0:0:0:
172,352,78656,5,0,0:0:0:0:
276,284,78762,1,0,0:0:0:0:
336,132,78867,1,8,0:0:0:0:
240,16,78973,2,0,L|232:128,1,90,0|0,0:0|0:0,0:0:0:0:
92,224,79184,2,0,L|84:112,1,90,0|8,0:0|0:0,0:0:0:0:
346,32,79395,6,0,P|420:77|428:164,1,180,4|0,0:0|0:0,0:0:0:0:
276,265,79712,2,0,P|308:235|352:224,1,90,8|0,0:0|0:0,0:0:0:0:
496,260,79924,1,0,0:0:0:0:
356,320,80029,1,0,0:0:0:0:
492,368,80135,1,8,0:0:0:0:
272,364,80241,6,0,B|196:356|196:356|172:368|172:368|80:352,1,180,0|0,0:0|0:0,0:0:0:0:
96,354,80505,1,0,0:0:0:0:
96,354,80557,1,8,0:0:0:0:
172,200,80663,1,0,0:0:0:0:
28,160,80769,2,0,L|40:264,1,90,0|0,0:0|0:0,0:0:0:0:
248,168,80980,1,8,0:0:0:0:
72,72,81086,6,0,P|116:28|248:56,1,180,4|0,0:0|0:0,0:0:0:0:
336,236,81403,2,0,P|356:184|344:120,1,90,8|0,0:0|0:0,0:0:0:0:
236,276,81614,2,0,P|236:320|254:361,1,90,0|0,0:0|0:0,0:0:0:0:
248,168,81825,2,0,L|140:160,1,90,8|0,0:0|0:0,0:0:0:0:
320,344,82036,5,0,0:0:0:0:
432,256,82142,2,0,P|431:211|413:170,1,90,0|8,0:0|0:0,0:0:0:0:
172,96,82353,1,0,0:0:0:0:
324,128,82459,1,0,0:0:0:0:
392,28,82565,1,0,0:0:0:0:
252,80,82670,1,8,0:0:0:0:
384,196,82776,6,0,B|488:188|488:188|444:280,1,180,4|0,0:0|0:0,0:0:0:0:
320,344,83093,1,8,0:0:0:0:
292,340,83145,1,0,0:0:0:0:
264,336,83198,1,0,0:0:0:0:
236,332,83251,1,0,0:0:0:0:
208,328,83304,1,0,0:0:0:0:
80,344,83410,1,0,0:0:0:0:
200,196,83515,1,8,0:0:0:0:
200,196,83568,1,0,0:0:0:0:
200,196,83621,6,0,P|120:212|16:144,1,180,0|8,0:0|0:0,0:0:0:0:
128,116,83938,1,8,0:0:0:0:
384,196,84043,1,8,0:0:0:0:
124,256,84149,1,8,0:0:0:0:
340,120,84255,1,8,0:0:0:0:
200,196,84360,1,8,0:0:0:0:
396,288,84466,1,8,0:0:0:0:
260,384,84572,6,0,L|248:248,1,135.000005149842,4|0,0:0|0:0,0:0:0:0:
372,40,84994,1,0,0:0:0:0:
304,200,85205,1,0,0:0:0:0:
128,116,85417,5,0,0:0:0:0:
340,120,85628,1,0,0:0:0:0:
124,256,85839,1,0,0:0:0:0:
388,192,86050,1,0,0:0:0:0:
216,12,86262,5,0,0:0:0:0:
352,272,86473,1,0,0:0:0:0:
48,184,86684,1,0,0:0:0:0:
436,264,86895,1,0,0:0:0:0:
128,304,87107,1,0,0:0:0:0:
180,224,87318,6,0,P|216:272|208:356,1,135.000005149842,0|0,0:0|0:0,0:0:0:0:
76,384,87635,2,0,P|40:336|48:252,1,135.000005149842,0|0,0:0|0:0,0:0:0:0:
100,108,87952,5,0,0:0:0:0:
128,112,88163,1,0,0:0:0:0:
156,116,88374,1,0,0:0:0:0:
184,120,88586,1,0,0:0:0:0:
412,256,88797,5,0,0:0:0:0:
332,264,89008,1,0,0:0:0:0:
252,276,89219,1,0,0:0:0:0:
172,284,89431,5,8,0:0:0:0:
284,192,89536,1,8,0:0:0:0:
380,336,89642,6,0,P|432:340|480:304,1,90,4|0,0:0|0:0,0:0:0:0:
312,112,89853,2,0,P|260:108|212:144,1,90,8|0,0:0|0:0,0:0:0:0:
24,232,90065,1,0,0:0:0:0:
172,284,90170,1,0,0:0:0:0:
100,112,90276,1,8,0:0:0:0:
104,360,90381,6,0,P|144:320|280:340,1,180,4|0,0:0|0:0,0:0:0:0:
380,336,90698,1,8,0:0:0:0:
284,192,90804,1,0,0:0:0:0:
380,336,90910,1,0,0:0:0:0:
412,160,91015,2,0,L|398:249,1,90,8|8,0:0|0:0,0:0:0:0:
328,104,91226,6,0,P|376:68|492:92,1,180,4|0,0:0|0:0,0:0:0:0:
324,200,91543,1,8,0:0:0:0:
192,152,91649,1,0,0:0:0:0:
232,256,91755,2,0,P|244:300|240:352,1,90,0|0,0:0|0:0,0:0:0:0:
124,236,91966,1,8,0:0:0:0:
164,312,92072,6,0,L|384:292,1,180,0|0,0:0|0:0,0:0:0:0:
413,208,92388,2,0,L|281:196,1,90,8|0,0:0|0:0,0:0:0:0:
144,64,92600,1,0,0:0:0:0:
288,8,92705,1,0,0:0:0:0:
324,200,92811,1,8,0:0:0:0:
192,152,92917,6,0,P|136:132|28:188,1,180,4|0,0:0|0:0,0:0:0:0:
121,323,93234,2,0,P|132:279|124:236,1,90,8|0,0:0|0:0,0:0:0:0:
57,41,93445,2,0,P|93:53|153:65,1,90,0|0,0:0|0:0,0:0:0:0:
324,200,93656,1,8,0:0:0:0:
416,156,93762,6,0,P|342:108|256:127,1,180,0|0,0:0|0:0,0:0:0:0:
208,192,94026,1,0,0:0:0:0:
208,192,94079,2,0,L|220:308,1,90,8|0,0:0|0:0,0:0:0:0:
324,200,94290,1,0,0:0:0:0:
412,380,94395,1,0,0:0:0:0:
414,352,94447,1,0,0:0:0:0:
416,326,94500,1,8,0:0:0:0:
419,298,94553,1,0,0:0:0:0:
422,272,94607,6,0,P|372:272|332:392,1,180,4|0,0:0|0:0,0:0:0:0:
140,256,94924,2,0,P|184:280|248:272,1,90,8|0,0:0|0:0,0:0:0:0:
344,108,95135,2,0,P|299:110|261:132,1,90,0|0,0:0|0:0,0:0:0:0:
232,372,95346,1,8,0:0:0:0:
120,172,95452,1,0,0:0:0:0:
244,348,95557,5,0,0:0:0:0:
324,200,95663,1,0,0:0:0:0:
200,104,95769,2,0,B|192:152|192:152|212:216,1,90,8|0,0:0|0:0,0:0:0:0:
324,384,95980,2,0,B|332:336|332:336|312:272,1,90,0|0,0:0|0:0,0:0:0:0:
155,361,96191,2,0,L|259:345,1,90,8|0,0:0|0:0,0:0:0:0:
488,220,96403,5,12,0:0:0:0:
324,200,96508,1,0,0:0:0:0:
324,200,96561,1,0,0:0:0:0:
324,200,96614,1,0,0:0:0:0:
456,128,96719,5,12,0:0:0:0:
384,272,96825,1,0,0:0:0:0:
252,140,96931,1,0,0:0:0:0:
155,361,97036,1,12,0:0:0:0:
80,80,97142,1,0,0:0:0:0:
36,228,97248,5,8,0:0:0:0:
36,228,97300,1,0,0:0:0:0:
36,228,97353,1,8,0:0:0:0:
216,56,97459,1,0,0:0:0:0:
252,52,97512,1,0,0:0:0:0:
288,60,97564,1,0,0:0:0:0:
316,80,97617,1,0,0:0:0:0:
332,112,97670,1,0,0:0:0:0:
155,361,97987,6,0,P|88:300|34:228,1,180,4|0,0:0|0:0,0:0:0:0:
200,152,98304,2,0,P|164:204|128:240,1,90,10|0,0:0|0:0,0:0:0:0:
366,223,98515,2,0,P|336:189|312:152,1,90,2|0,0:0|0:0,0:0:0:0:
208,288,98726,1,8,0:0:0:0:
356,361,98832,6,0,P|423:300|477:228,1,180,2|0,0:0|0:0,0:0:0:0:
304,288,99149,1,10,0:0:0:0:
436,140,99255,1,0,0:0:0:0:
256,40,99360,1,2,0:0:0:0:
366,223,99466,1,0,0:0:0:0:
146,223,99572,1,8,0:0:0:0:
436,140,99677,6,0,P|468:196|420:316,1,180,6|0,0:0|0:0,0:0:0:0:
368,52,99994,2,0,L|472:32,1,90,10|0,0:0|0:0,0:0:0:0:
366,223,100205,2,0,L|262:203,1,90,2|0,0:0|0:0,0:0:0:0:
52,168,100417,1,8,0:0:0:0:
192,56,100522,1,2,0:0:0:0:
304,288,100628,5,0,0:0:0:0:
146,223,100734,1,0,0:0:0:0:
146,223,100786,1,0,0:0:0:0:
146,223,100839,1,8,0:0:0:0:
128,372,100945,1,0,0:0:0:0:
280,192,101050,1,2,0:0:0:0:
320,324,101156,1,2,0:0:0:0:
192,136,101262,1,8,0:0:0:0:
44,312,101367,6,0,P|108:300|232:288,1,180,6|0,0:0|0:0,0:0:0:0:
408,296,101684,2,0,P|408:352|387:386,1,90,10|0,0:0|0:0,0:0:0:0:
192,136,101895,2,0,P|191:79|212:45,1,90,2|0,0:0|0:0,0:0:0:0:
320,324,102107,1,8,0:0:0:0:
146,223,102212,1,2,0:0:0:0:
276,112,102318,6,0,L|380:128,1,90,0|0,0:0|0:0,0:0:0:0:
468,196,102529,2,0,L|364:212,1,90,10|0,0:0|0:0,0:0:0:0:
146,223,102741,1,2,0:0:0:0:
328,32,102846,1,0,0:0:0:0:
320,324,102952,1,10,0:0:0:0:
240,32,103057,1,0,0:0:0:0:
56,256,103163,6,0,P|96:300|224:276,1,180,6|8,0:0|0:0,0:0:0:0:
386,53,103480,2,0,B|412:92|400:136|400:136|366:223,1,180,6|8,0:0|0:0,0:0:0:0:
146,223,103797,2,0,B|112:136|112:136|100:92|125:53,1,180,6|8,0:0|0:0,0:0:0:0:
366,222,104114,5,10,0:0:0:0:
196,320,104219,1,8,0:0:0:0:
188,160,104325,1,8,0:0:0:0:
320,324,104431,1,8,0:0:0:0:
136,360,104536,2,0,L|100:364,7,22.5,2|2|2|2|2|2|2|2,2:0|2:0|2:0|2:0|2:0|2:0|2:0|2:0,0:0:0:0:
96,368,104748,6,0,P|56:332|76:204,1,180,4|0,0:0|0:0,0:0:0:0:
198,70,105065,2,0,L|186:170,1,90,10|0,0:0|0:0,0:0:0:0:
376,311,105276,2,0,L|365:221,1,90,2|0,0:0|0:0,0:0:0:0:
280,276,105487,1,8,0:0:0:0:
464,252,105593,1,2,0:0:0:0:
352,120,105698,5,0,0:0:0:0:
376,312,105804,1,0,0:0:0:0:
196,232,105910,1,8,0:0:0:0:
436,160,106015,1,0,0:0:0:0:
284,56,106121,2,0,P|264:104|276:176,1,90,2|0,0:0|0:0,0:0:0:0:
360,212,106332,1,8,0:0:0:0:
103,165,106438,6,0,P|178:121|264:141,1,180,6|0,0:0|0:0,0:0:0:0:
96,272,106755,2,0,L|-8:260,1,90,10|2,0:0|0:0,0:0:0:0:
196,232,106966,1,2,0:0:0:0:
216,368,107072,1,0,0:0:0:0:
324,284,107177,2,0,L|428:272,1,90,8|2,0:0|0:0,0:0:0:0:
504,260,107388,5,0,0:0:0:0:
352,120,107494,1,0,0:0:0:0:
352,120,107547,1,0,0:0:0:0:
352,120,107600,1,8,0:0:0:0:
308,368,107705,1,0,0:0:0:0:
248,180,107811,1,2,0:0:0:0:
388,344,107917,2,0,P|408:300|400:248,1,90,2|8,0:0|0:0,0:0:0:0:
244,316,108128,6,0,P|180:328|96:256,1,180,6|0,0:0|0:0,0:0:0:0:
32,88,108445,1,10,0:0:0:0:
200,56,108550,1,0,0:0:0:0:
132,160,108656,1,2,0:0:0:0:
300,128,108761,1,0,0:0:0:0:
196,12,108867,1,10,0:0:0:0:
236,212,108973,6,0,B|244:316|244:316|268:280|324:272,1,180,2|0,0:0|0:0,0:0:0:0:
388,315,109290,2,0,P|360:350|320:368,1,90,10|0,0:0|0:0,0:0:0:0:
64,288,109501,2,0,L|176:304,1,90,0|2,0:0|0:0,0:0:0:0:
305,275,109712,1,10,0:0:0:0:
215,33,109818,6,0,L|239:241,1,180,6|0,0:0|0:0,0:0:0:0:
455,158,110135,1,8,0:0:0:0:
432,129,110187,1,0,0:0:0:0:
402,111,110240,1,0,0:0:0:0:
367,104,110293,1,0,0:0:0:0:
331,110,110346,1,2,0:0:0:0:
224,248,110452,1,0,0:0:0:0:
152,80,110557,1,8,0:0:0:0:
132,360,110663,2,0,L|140:252,1,90,0|8,0:0|0:0,0:0:0:0:
72,192,110874,5,0,0:0:0:0:
112,172,110927,1,0,0:0:0:0:
156,172,110980,1,0,0:0:0:0:
200,188,111033,1,0,0:0:0:0:
232,220,111086,1,0,0:0:0:0:
260,256,111138,1,0,0:0:0:0:
300,272,111191,1,0,0:0:0:0:
344,268,111244,1,0,0:0:0:0:
380,244,111297,1,0,0:0:0:0:
404,204,111350,1,0,0:0:0:0:
400,160,111403,1,0,0:0:0:0:
376,124,111455,1,0,0:0:0:0:
336,104,111508,6,0,B|288:92|248:120|248:120|216:144|163:131,1,180,4|0,0:0|0:0,0:0:0:0:
200,52,111825,1,10,0:0:0:0:
304,184,111931,1,0,0:0:0:0:
96,276,112036,1,2,0:0:0:0:
164,131,112142,1,0,0:0:0:0:
260,256,112248,2,0,L|252:364,1,90,10|0,0:0|0:0,0:0:0:0:
52,364,112459,5,2,0:0:0:0:
52,364,112512,1,0,0:0:0:0:
52,364,112565,1,0,0:0:0:0:
176,300,112670,1,10,0:0:0:0:
16,248,112776,1,0,0:0:0:0:
184,116,112881,1,2,0:0:0:0:
244,192,112987,2,0,P|196:212|136:200,1,90,2|10,0:0|0:0,0:0:0:0:
284,96,113198,6,0,P|336:112|456:56,1,180,2|0,0:0|0:0,0:0:0:0:
216,20,113515,1,10,0:0:0:0:
244,192,113621,1,0,0:0:0:0:
368,112,113726,1,2,0:0:0:0:
332,284,113832,1,2,0:0:0:0:
332,284,113885,1,0,0:0:0:0:
332,284,113938,1,10,0:0:0:0:
176,300,114043,6,0,P|160:252|160:204,1,90,2|2,0:0|0:0,0:0:0:0:
384,164,114255,1,0,0:0:0:0:
384,164,114307,1,0,0:0:0:0:
384,164,114360,2,0,P|400:212|400:260,1,90,8|0,0:0|0:0,0:0:0:0:
456,356,114572,1,8,0:0:0:0:
316,224,114677,1,8,0:0:0:0:
496,164,114783,1,8,0:0:0:0:
344,336,114888,6,0,L|252:328,1,90,4|0,0:0|0:0,0:0:0:0:
88,312,115100,1,2,0:0:0:0:
213,144,115205,1,10,0:0:0:0:
213,144,115258,1,0,0:0:0:0:
213,144,115311,2,0,P|224:188|216:232,1,90,0|2,0:0|0:0,0:0:0:0:
32,188,115522,1,0,0:0:0:0:
148,40,115628,2,0,L|240:24,1,90,10|0,0:0|0:0,0:0:0:0:
432,76,115839,5,2,0:0:0:0:
428,104,115892,1,0,0:0:0:0:
424,132,115945,1,0,0:0:0:0:
420,160,115998,1,0,0:0:0:0:
416,188,116050,1,10,0:0:0:0:
213,144,116156,1,2,0:0:0:0:
404,280,116262,1,2,0:0:0:0:
312,112,116367,1,0,0:0:0:0:
212,264,116473,1,10,0:0:0:0:
308,216,116579,1,0,0:0:0:0:
308,216,116631,1,0,0:0:0:0:
308,216,116684,5,4,0:0:0:0:
156,344,116790,1,10,0:0:0:0:
296,328,116895,1,0,0:0:0:0:
212,152,117001,5,4,0:0:0:0:
232,380,117107,1,10,0:0:0:0:
232,380,117160,1,0,0:0:0:0:
232,380,117212,1,0,0:0:0:0:
40,280,117318,5,4,0:0:0:0:
212,264,117424,1,2,0:0:0:0:
56,188,117529,1,0,0:0:0:0:
228,172,117635,2,0,L|184:164,1,45,0|0,0:0|0:0,0:0:0:0:
76,96,117741,5,8,0:0:0:0:
320,48,117846,1,0,0:0:0:0:
100,4,117952,1,8,0:0:0:0:
296,140,118057,1,8,0:0:0:0:
208,12,118163,1,8,0:0:0:0:
168,192,118269,6,0,B|216:184|252:212|252:212|288:240|344:216,1,180,4|0,0:0|0:0,0:0:0:0:
336,356,118586,1,8,0:0:0:0:
416,164,118691,1,0,0:0:0:0:
416,164,118744,1,0,0:0:0:0:
416,164,118797,2,0,P|432:211|412:276,1,90,2|0,0:0|0:0,0:0:0:0:
336,356,119008,1,8,0:0:0:0:
204,348,119114,6,0,L|8:332,1,180,2|0,0:0|0:0,0:0:0:0:
132,184,119431,1,8,0:0:0:0:
224,264,119536,1,0,0:0:0:0:
112,164,119642,1,2,0:0:0:0:
52,304,119748,1,0,0:0:0:0:
92,148,119853,1,8,0:0:0:0:
236,176,119959,6,0,P|256:120|192:12,1,180,2|0,0:0|0:0,0:0:0:0:
92,60,120276,1,8,0:0:0:0:
388,100,120381,1,0,0:0:0:0:
388,100,120434,1,0,0:0:0:0:
388,100,120487,1,2,0:0:0:0:
236,176,120593,1,0,0:0:0:0:
408,240,120698,1,8,0:0:0:0:
256,308,120804,1,2,0:0:0:0:
296,104,120910,6,0,P|316:156|324:204,1,90,0|0,0:0|0:0,0:0:0:0:
322,189,121068,1,0,0:0:0:0:
322,189,121121,1,8,0:0:0:0:
168,136,121226,1,0,0:0:0:0:
212,304,121332,1,2,0:0:0:0:
52,124,121438,1,0,0:0:0:0:
60,352,121543,1,8,0:0:0:0:
233,200,121649,6,0,L|329:188,1,90,4|0,0:0|0:0,0:0:0:0:
496,260,121860,1,0,0:0:0:0:
400,100,121966,1,8,0:0:0:0:
328,280,122072,1,0,0:0:0:0:
328,280,122124,1,0,0:0:0:0:
328,280,122177,2,0,P|324:328|340:376,1,90,2|0,0:0|0:0,0:0:0:0:
420,312,122388,1,8,0:0:0:0:
240,328,122494,1,0,0:0:0:0:
76,200,122600,5,0,0:0:0:0:
104,164,122653,1,0,0:0:0:0:
144,148,122705,1,2,0:0:0:0:
188,152,122758,1,0,0:0:0:0:
224,180,122811,5,8,0:0:0:0:
252,176,122864,1,0,0:0:0:0:
280,172,122917,1,2,0:0:0:0:
308,168,122969,1,0,0:0:0:0:
336,164,123022,5,0,0:0:0:0:
369,134,123074,1,0,0:0:0:0:
382,91,123127,1,2,0:0:0:0:
371,48,123180,1,0,0:0:0:0:
340,17,123233,1,8,0:0:0:0:
297,6,123286,1,0,0:0:0:0:
254,18,123339,6,0,P|208:40|84:0,1,180,4|0,0:0|0:0,0:0:0:0:
10,265,123656,1,8,0:0:0:0:
48,288,123709,1,0,0:0:0:0:
93,290,123762,1,0,0:0:0:0:
133,271,123815,1,0,0:0:0:0:
160,235,123867,1,0,0:0:0:0:
32,104,123973,1,0,0:0:0:0:
296,88,124079,1,8,0:0:0:0:
180,344,124184,1,0,0:0:0:0:
160,48,124290,5,0,0:0:0:0:
280,248,124395,1,8,0:0:0:0:
280,248,124448,1,0,0:0:0:0:
280,248,124501,2,0,L|384:236,1,90,8|8,0:0|0:0,0:0:0:0:
200,128,124712,6,0,L|155:122,1,45,0|0,0:0|0:0,0:0:0:0:
76,200,124818,2,0,L|120:194,1,45,0|0,0:0|0:0,0:0:0:0:
248,268,124924,2,0,L|203:262,1,45,0|0,0:0|0:0,0:0:0:0:
72,352,125029,6,0,P|108:312|240:324,1,180,4|0,0:0|0:0,0:0:0:0:
390,119,125346,1,8,0:0:0:0:
310,327,125452,1,0,0:0:0:0:
451,177,125557,1,8,0:0:0:0:
248,268,125663,1,0,0:0:0:0:
454,262,125769,1,8,0:0:0:0:
246,183,125875,1,0,0:0:0:0:
246,183,125927,1,0,0:0:0:0:
246,183,125980,5,0,0:0:0:0:
395,324,126086,1,8,0:0:0:0:
304,121,126191,1,8,0:0:0:0:
160,272,126297,1,0,0:0:0:0:
348,220,126403,1,0,0:0:0:0:
350,193,126455,1,0,0:0:0:0:
352,166,126508,1,0,0:0:0:0:
354,139,126561,1,0,0:0:0:0:
356,112,126614,1,0,0:0:0:0:
358,85,126667,1,0,0:0:0:0:
360,58,126719,5,4,0:0:0:0:
360,58,126931,1,0,0:0:0:0:
276,92,127036,2,0,P|272:44|292:-4,1,90,8|0,0:0|0:0,0:0:0:0:
448,24,127248,2,0,P|452:72|432:120,1,90,0|0,0:0|0:0,0:0:0:0:
246,183,127459,1,8,0:0:0:0:
432,308,127565,6,0,P|396:272|260:284,1,180,0|0,0:0|0:0,0:0:0:0:
128,216,127881,1,8,0:0:0:0:
180,376,127987,1,0,0:0:0:0:
180,376,128040,1,0,0:0:0:0:
180,376,128093,2,0,L|188:280,1,90,0|0,0:0|0:0,0:0:0:0:
200,120,128304,1,8,0:0:0:0:
68,213,128410,6,0,L|246:183,1,180,4|0,0:0|0:0,0:0:0:0:
368,72,128726,2,0,L|360:164,1,90,8|0,0:0|0:0,0:0:0:0:
264,364,128938,2,0,L|256:274,1,90,0|0,0:0|0:0,0:0:0:0:
232,44,129149,1,8,0:0:0:0:
68,213,129255,1,0,0:0:0:0:
280,148,129360,5,0,0:0:0:0:
112,0,129466,1,0,0:0:0:0:
112,0,129519,1,0,0:0:0:0:
112,0,129572,2,0,P|99:51|107:100,1,90,8|0,0:0|0:0,0:0:0:0:
308,260,129783,1,0,0:0:0:0:
184,340,129888,1,0,0:0:0:0:
156,336,129941,1,0,0:0:0:0:
128,332,129994,1,0,0:0:0:0:
100,328,130047,1,0,0:0:0:0:
72,324,130100,6,0,P|100:272|240:296,1,180,4|0,0:0|0:0,0:0:0:0:
392,260,130417,2,0,L|376:360,1,90,8|0,0:0|0:0,0:0:0:0:
120,124,130628,2,0,L|136:24,1,90,0|0,0:0|0:0,0:0:0:0:
188,328,130839,2,0,L|88:312,1,90,8|0,0:0|0:0,0:0:0:0:
324,56,131050,6,0,L|424:72,1,90,0|0,0:0|0:0,0:0:0:0:
168,228,131262,1,8,0:0:0:0:
220,104,131367,1,0,0:0:0:0:
344,156,131473,1,0,0:0:0:0:
292,280,131578,1,0,0:0:0:0:
133,140,131684,1,8,0:0:0:0:
307,69,131789,1,0,0:0:0:0:
378,243,131895,5,12,0:0:0:0:
80,216,132001,1,0,0:0:0:0:
80,216,132054,1,0,0:0:0:0:
80,216,132107,1,0,0:0:0:0:
400,80,132212,5,8,0:0:0:0:
168,228,132318,1,0,0:0:0:0:
168,228,132371,1,0,0:0:0:0:
168,228,132424,1,0,0:0:0:0:
428,320,132529,5,12,0:0:0:0:
133,140,132635,1,0,0:0:0:0:
440,168,132741,5,0,0:0:0:0:
440,168,132793,1,0,0:0:0:0:
440,168,132846,2,0,L|432:232,1,45,0|0,0:0|0:0,0:0:0:0:
428,320,132952,2,0,L|364:312,1,45,0|0,0:0|0:0,0:0:0:0:
284,300,133057,2,0,L|292:236,1,45,0|0,0:0|0:0,0:0:0:0:
304,152,133163,5,0,0:0:0:0:
112,304,133269,1,0,0:0:0:0:
244,64,133374,1,0,0:0:0:0:
476,260,133480,1,0,0:0:0:0:
352,52,133586,2,0,L|344:8,5,45,0|0|0|0|0|0,0:0|0:0|0:0|0:0|0:0|0:0,0:0:0:0:
332,128,133903,5,0,0:0:0:0:
304,124,133955,1,0,0:0:0:0:
276,120,134008,1,0,0:0:0:0:
248,116,134061,1,0,0:0:0:0:
112,304,134219,5,0,0:0:0:0:
140,300,134271,1,0,0:0:0:0:
168,296,134324,1,0,0:0:0:0:
196,292,134377,1,0,0:0:0:0:
112,208,141403,5,2,0:0:0:0:
112,208,141614,1,2,0:0:0:0:
112,208,141719,2,0,L|120:264,1,45,2|2,0:0|0:0,0:0:0:0:
120,288,142248,6,0,L|240:280,1,90,6|0,0:0|0:0,0:0:0:0:
416,156,142459,2,0,L|296:148,1,90,6|0,0:0|0:0,0:0:0:0:
152,24,142670,1,8,0:0:0:0:
96,136,142776,6,0,P|140:148|264:76,1,180,2|0,0:0|0:0,0:0:0:0:
440,68,143093,1,10,0:0:0:0:
312,172,143198,1,0,0:0:0:0:
472,232,143304,1,2,0:0:0:0:
356,88,143410,1,0,0:0:0:0:
272,272,143515,1,8,0:0:0:0:
138,173,143621,6,0,B|198:165|198:165|242:185|242:185|326:169,1,180,2|0,0:0|0:0,0:0:0:0:
184,252,143938,2,0,P|184:296|212:344,1,90,10|0,0:0|0:0,0:0:0:0:
254,92,144149,2,0,P|254:48|226:0,1,90,2|0,0:0|0:0,0:0:0:0:
32,192,144360,1,8,0:0:0:0:
204,336,144466,6,0,L|404:312,1,180,2|0,0:0|0:0,0:0:0:0:
382,314,144730,1,0,0:0:0:0:
382,314,144783,1,8,0:0:0:0:
272,204,144888,1,0,0:0:0:0:
472,232,144994,2,0,L|382:221,1,90,2|2,0:0|0:0,0:0:0:0:
160,188,145205,1,8,0:0:0:0:
440,124,145311,6,0,P|388:132|292:60,1,180,6|0,0:0|0:0,0:0:0:0:
396,32,145628,2,0,P|444:28|504:16,1,90,10|0,0:0|0:0,0:0:0:0:
272,204,145839,2,0,P|224:200|164:188,1,90,2|0,0:0|0:0,0:0:0:0:
464,328,146050,1,8,0:0:0:0:
464,328,146156,6,0,P|476:280|500:132,1,180,2|0,0:0|0:0,0:0:0:0:
256,24,146473,2,0,L|272:152,1,90,10|0,0:0|0:0,0:0:0:0:
352,160,146684,1,2,0:0:0:0:
136,112,146790,1,0,0:0:0:0:
200,332,146895,2,0,L|211:242,1,90,10|0,0:0|0:0,0:0:0:0:
48,136,147107,6,0,P|134:112|219:82,1,180,6|8,0:0|0:0,0:0:0:0:
464,216,147424,2,0,P|377:192|292:162,1,180,6|8,0:0|0:0,0:0:0:0:
108,292,147741,2,0,P|164:244|276:268,1,180,6|8,0:0|0:0,0:0:0:0:
384,348,148057,5,10,0:0:0:0:
352,160,148163,1,8,0:0:0:0:
224,280,148269,1,8,0:0:0:0:
412,248,148374,1,8,0:0:0:0:
284,104,148480,2,0,L|288:72,6,22.5,2|2|2|2|2|2|2,2:0|2:0|2:0|2:0|2:0|2:0|2:0,0:0:0:0:
280,128,148691,6,0,B|344:116|344:116|380:132|380:132|468:112,1,180,6|0,0:0|0:0,0:0:0:0:
328,204,149008,2,0,P|321:261|338:311,1,90,10|0,0:0|0:0,0:0:0:0:
392,40,149219,1,2,0:0:0:0:
152,124,149325,1,0,0:0:0:0:
224,280,149431,1,8,0:0:0:0:
352,160,149536,6,0,L|152:148,1,180,2|0,0:0|0:0,0:0:0:0:
80,248,149853,1,10,0:0:0:0:
56,56,149959,1,0,0:0:0:0:
56,56,150012,1,0,0:0:0:0:
56,56,150065,2,0,L|68:156,1,90,2|0,0:0|0:0,0:0:0:0:
240,164,150276,1,8,0:0:0:0:
112,332,150381,6,0,P|176:308|268:388,1,180,6|0,0:0|0:0,0:0:0:0:
448,292,150698,2,0,L|352:276,1,90,10|0,0:0|0:0,0:0:0:0:
240,164,150910,1,2,0:0:0:0:
424,200,151015,1,2,0:0:0:0:
296,360,151121,1,8,0:0:0:0:
152,160,151226,6,0,P|180:104|300:104,1,180,2|0,0:0|0:0,0:0:0:0:
424,200,151543,2,0,P|380:220|320:212,1,90,8|0,0:0|0:0,0:0:0:0:
240,164,151755,1,2,0:0:0:0:
360,124,151860,1,2,0:0:0:0:
212,316,151966,1,8,0:0:0:0:
48,140,152072,6,0,P|76:84|192:60,1,180,6|0,0:0|0:0,0:0:0:0:
309,271,152388,2,0,L|296:360,1,90,10|0,0:0|0:0,0:0:0:0:
152,160,152600,1,2,0:0:0:0:
292,44,152705,1,2,0:0:0:0:
309,271,152811,1,8,0:0:0:0:
240,164,152917,5,2,0:0:0:0:
240,164,152969,1,0,0:0:0:0:
240,164,153022,1,0,0:0:0:0:
176,320,153128,1,0,0:0:0:0:
284,72,153234,2,0,L|296:168,1,90,10|8,0:0|0:0,0:0:0:0:
312,352,153445,5,10,0:0:0:0:
124,176,153550,1,10,0:0:0:0:
396,100,153656,1,0,0:0:0:0:
400,364,153762,6,0,B|312:352|312:352|292:364|292:364|176:348,1,215.999993408203,4|0,0:0|0:0,0:0:0:0:
296,128,154079,2,0,L|279:262,1,107.999996704102,10|0,0:0|0:0,0:0:0:0:
92,372,154290,2,0,L|78:264,1,107.999996704102,2|0,0:0|0:0,0:0:0:0:
56,88,154501,1,8,0:0:0:0:
282,235,154607,1,2,0:0:0:0:
78,264,154712,6,0,P|122:224|190:224,1,107.999996704102,0|0,0:0|0:0,0:0:0:0:
368,280,154924,1,10,0:0:0:0:
252,144,155029,1,0,0:0:0:0:
252,144,155082,1,0,0:0:0:0:
252,144,155135,1,2,0:0:0:0:
416,104,155241,1,0,0:0:0:0:
328,360,155346,1,8,0:0:0:0:
408,200,155452,6,0,B|352:176|308:212|308:212|264:248|204:224,1,215.999993408203,6|0,0:0|0:0,0:0:0:0:
233,42,155769,2,0,P|255:90|252:144,1,107.999996704102,10|0,0:0|0:0,0:0:0:0:
172,340,155980,1,2,0:0:0:0:
368,280,156086,2,0,L|248:264,1,107.999996704102,0|8,0:0|0:0,0:0:0:0:
40,184,156297,6,0,L|160:168,1,107.999996704102,2|0,0:0|0:0,0:0:0:0:
352,136,156508,1,0,0:0:0:0:
352,136,156561,1,0,0:0:0:0:
352,136,156614,1,10,0:0:0:0:
233,42,156719,1,0,0:0:0:0:
268,252,156825,1,2,0:0:0:0:
64,272,156931,1,2,0:0:0:0:
252,143,157036,1,10,0:0:0:0:
292,360,157142,6,0,P|372:384|476:304,1,215.999993408203,6|0,0:0|0:0,0:0:0:0:
196,328,157459,2,0,L|80:312,1,107.999996704102,10|0,0:0|0:0,0:0:0:0:
376,236,157670,2,0,L|492:220,1,107.999996704102,2|0,0:0|0:0,0:0:0:0:
233,42,157881,1,10,0:0:0:0:
160,136,157987,6,0,P|216:156|348:72,1,215.999993408203,2|0,0:0|0:0,0:0:0:0:
68,68,158304,2,0,L|56:188,1,107.999996704102,10|0,0:0|0:0,0:0:0:0:
196,328,158515,2,0,L|185:220,1,107.999996704102,2|0,0:0|0:0,0:0:0:0:
380,96,158726,1,10,0:0:0:0:
380,96,158832,1,0,0:0:0:0:
464,328,158938,6,0,B|400:376|400:376|256:344,1,215.999993408203,6|8,0:0|0:0,0:0:0:0:
68,68,159255,2,0,B|132:20|132:20|276:52,1,215.999993408203,6|8,0:0|0:0,0:0:0:0:
484,120,159572,2,0,P|476:176|456:248,1,107.999996704102,6|0,0:0|0:0,0:0:0:0:
160,136,159783,5,8,0:0:0:0:
380,96,159888,1,6,0:0:0:0:
304,304,159994,1,0,0:0:0:0:
68,192,160100,1,8,0:0:0:0:
280,36,160205,1,0,0:0:0:0:
237,325,160311,2,0,L|240:352,6,26.9999991760254,2|2|2|2|2|2|2,2:0|2:0|2:0|2:0|2:0|2:0|2:0,0:0:0:0:
268,328,160522,6,0,P|232:356|84:288,1,215.999993408203,4|0,0:0|0:0,0:0:0:0:
184,167,160839,2,0,P|196:219|184:272,1,107.999996704102,10|0,0:0|0:0,0:0:0:0:
0,232,161050,2,0,L|128:216,1,107.999996704102,2|0,0:0|0:0,0:0:0:0:
312,188,161262,1,8,0:0:0:0:
192,16,161367,1,2,0:0:0:0:
184,271,161473,5,0,0:0:0:0:
184,271,161526,1,0,0:0:0:0:
184,271,161579,2,0,P|196:219|184:167,1,107.999996704102,0|10,0:0|0:0,0:0:0:0:
64,84,161790,1,2,0:0:0:0:
312,188,161895,1,2,0:0:0:0:
68,312,162001,1,2,0:0:0:0:
184,167,162107,1,8,0:0:0:0:
260,348,162212,6,0,B|340:336|340:336|392:352|392:352|500:336,1,215.999993408203,6|0,0:0|0:0,0:0:0:0:
436,128,162529,1,10,0:0:0:0:
340,336,162635,1,0,0:0:0:0:
184,167,162741,1,2,0:0:0:0:
424,264,162846,2,0,P|452:332|440:384,1,107.999996704102,0|8,0:0|0:0,0:0:0:0:
320,228,163057,6,0,P|312:168|404:40,1,215.999993408203,2|0,0:0|0:0,0:0:0:0:
340,336,163374,1,8,0:0:0:0:
184,167,163480,1,0,0:0:0:0:
184,368,163586,1,2,0:0:0:0:
256,100,163691,1,2,0:0:0:0:
0,304,163797,1,8,0:0:0:0:
256,100,163903,6,0,P|312:88|448:208,1,215.999993408203,6|0,0:0|0:0,0:0:0:0:
224,276,164219,2,0,L|88:260,1,107.999996704102,10|0,0:0|0:0,0:0:0:0:
320,228,164431,2,0,L|304:364,1,107.999996704102,2|0,0:0|0:0,0:0:0:0:
232,172,164642,1,8,0:0:0:0:
396,152,164748,6,0,P|448:148|512:192,1,107.999996704102,2|0,0:0|0:0,0:0:0:0:
424,260,164959,1,0,0:0:0:0:
336,33,165065,1,10,0:0:0:0:
293,311,165170,1,0,0:0:0:0:
446,121,165276,1,2,0:0:0:0:
183,222,165381,1,0,0:0:0:0:
424,260,165487,1,8,0:0:0:0:
203,82,165593,6,0,B|108:72|108:72|28:76|8:156,1,215.999993408203,6|0,0:0|0:0,0:0:0:0:
88,332,165910,1,10,0:0:0:0:
424,260,166015,1,0,0:0:0:0:
112,168,166121,1,2,0:0:0:0:
376,360,166226,1,0,0:0:0:0:
420,44,166332,1,8,0:0:0:0:
111,167,166438,6,0,L|131:383,1,215.999993408203,2|0,0:0|0:0,0:0:0:0:
424,260,166755,1,8,0:0:0:0:
216,224,166860,1,0,0:0:0:0:
344,64,166966,6,0,L|362:146,1,53.9999983520508,2|0,0:0|0:0,0:0:0:0:
296,328,167072,6,0,L|307:275,1,53.9999983520508,2|0,0:0|0:0,0:0:0:0:
204,128,167177,6,0,L|276:136,1,53.9999983520508,2|0,0:0|0:0,0:0:0:0:
464,244,167283,5,4,0:0:0:0:
