osu file format v14

[General]
AudioFilename: revenge syndrome.mp3
AudioLeadIn: 0
PreviewTime: 43374
Countdown: 0
SampleSet: Normal
StackLeniency: 0.7
Mode: 0
LetterboxInBreaks: 1
WidescreenStoryboard: 0

[Editor]
Bookmarks: 122388
DistanceSpacing: 2
BeatDivisor: 4
GridSize: 4
TimelineZoom: 2.2

[Metadata]
Title:Revenge Syndrome
TitleUnicode:仇返しシンドローム
Artist:mafumafu
ArtistUnicode:まふまふ
Creator:Rizia
Version:Extra
Source:Vocaloid
Tags:kawaiwkyik
BeatmapID:763289
BeatmapSetID:200308

[Difficulty]
HPDrainRate:7
CircleSize:4
OverallDifficulty:8
ApproachRate:9.1
SliderMultiplier:1.6
SliderTickRate:2

[Events]
//Background and Video events
0,0,"bg.jpg",0,0
//Break Periods
2,10300,16276
2,59314,63600
2,134577,140819
//Storyboard Layer 0 (Background)
//Storyboard Layer 1 (Fail)
//Storyboard Layer 2 (Pass)
//Storyboard Layer 3 (Foreground)
//Storyboard Sound Samples

[TimingPoints]
65,211.267605633803,4,1,1,70,1,0
170,-83.3333333333333,4,1,1,70,0,0
3339,-100,4,1,1,70,0,0
30487,-133.333333333333,4,1,1,70,0,0
35557,-100,4,1,1,70,0,0
43903,-83.3333333333333,4,1,1,70,0,1
54360,-100,4,1,1,70,0,1
54888,-83.3333333333333,4,1,1,70,0,1
55734,-71.4285714285714,4,1,1,70,0,1
59114,-100,4,1,1,70,0,0
77811,-100,4,1,1,70,0,0
84572,-133.333333333333,4,1,1,70,0,0
89642,-100,4,1,1,70,0,0
97987,-83.3333333333333,4,1,1,70,0,1
110874,-100,4,1,1,40,0,1
111508,-100,4,1,1,70,0,0
141719,-200,4,1,1,70,0,0
142248,-83.3333333333333,4,1,1,70,0,1
153762,-83.3333333333333,4,1,1,70,0,1
158938,-125,4,1,1,70,0,1
159255,-100,4,1,1,70,0,1
159572,-83.3333333333333,4,1,1,70,0,1
164219,-100,4,1,1,70,0,1
164748,-83.3333333333333,4,1,1,70,0,1
165593,-71.4285714285714,4,1,1,70,0,1
167283,-66.6666666666667,4,1,1,70,0,0

[Colours]
Combo1 : 17,254,176
Combo2 : 173,255,95
Combo3 : 255,88,100
Combo4 : 255,94,55

[HitObjects]
292,196,170,6,0,B|256:184|216:196|216:196|180:176|180:176|136:188|80:160,1,191.999994140625,12|0,0:0|0:0,0:0:0:0:
256,272,487,2,0,B|276:200|276:200|268:144|268:144|284:80,1,191.999994140625,8|0,0:0|0:0,0:0:0:0:
44,96,804,2,0,B|24:168|24:168|32:224|32:224|16:288,1,191.999994140625,8|0,0:0|0:0,0:0:0:0:
96,348,1121,1,8,0:0:0:0:
96,348,1174,1,0,0:0:0:0:
96,348,1226,2,0,L|216:336,1,95.9999970703126,12|0,0:3|0:0,0:0:0:0:
316,320,1438,5,8,0:0:0:0:
316,320,1860,6,0,P|333:275|333:228,1,95.9999970703126,4|0,0:0|0:0,0:0:0:0:
288,144,2072,1,0,0:0:0:0:
216,80,2177,6,0,P|198:124|198:171,1,95.9999970703126,8|0,0:0|0:0,0:0:0:0:
288,144,2388,1,0,0:0:0:0:
268,12,2494,6,0,L|56:48,1,191.999994140625,12|0,0:0|0:0,0:0:0:0:
56,120,2776,6,0,L|119:109,1,63.9999980468751,8|8,0:3|0:3,0:0:0:0:
192,168,2917,2,0,L|97:184,1,95.9999970703126,8|0,0:0|0:0,0:0:0:0:
176,280,3128,1,0,0:0:0:0:
300,256,3234,1,8,0:0:0:0:
300,256,3339,6,0,L|392:240,2,80,4|0|0,0:0|0:0|0:0,0:0:0:0:
162,356,3656,2,0,P|161:316|175:280,1,80,8|0,0:0|0:0,0:0:0:0:
296,56,3867,1,0,0:0:0:0:
360,117,3973,2,0,P|326:138|287:143,1,80,0|8,0:0|0:0,0:0:0:0:
372,228,4184,6,0,P|424:212|520:256,1,160
312,344,4501,2,0,L|224:332,1,80,8|2,0:0|0:0,0:0:0:0:
232,168,4712,2,0,L|320:180,1,80,0|2,0:0|0:0,0:0:0:0:
311,178,4924,1,8,0:0:0:0:
132,368,5029,6,0,P|108:332|116:212,1,160,4|0,0:0|0:0,0:0:0:0:
136,104,5346,1,8,0:0:0:0:
136,104,5452,1,0,0:0:0:0:
212,148,5557,2,0,L|300:140,2,80,0|0|8,0:0|0:0|0:0,0:0:0:0:
264,52,5874,6,0,L|423:66,1,160
408,160,6191,2,0,L|487:167,1,80,8|0,0:0|0:0,0:0:0:0:
344,264,6403,1,0,0:0:0:0:
344,264,6508,2,0,L|264:256,1,80,0|8,0:0|0:0,0:0:0:0:
176,356,6719,6,0,P|128:368|24:296,1,160,4|0,0:0|0:0,0:0:0:0:
24,68,7036,2,0,L|32:256,1,160,8|0,0:0|0:0,0:0:0:0:
120,276,7353,2,0,L|116:196,1,80,0|8,0:0|0:0,0:0:0:0:
164,116,7565,6,0,P|208:128|320:72,1,160
468,156,7881,1,8,0:0:0:0:
380,140,7987,1,0,0:0:0:0:
324,208,8093,2,0,L|336:312,2,80,0|0|8,0:0|0:0|0:0,0:0:0:0:
408,340,8410,6,0,P|372:316|248:324,1,160,4|0,0:0|0:0,0:0:0:0:
188,368,8726,1,8,0:0:0:0:
188,368,8832,1,8,0:0:0:0:
116,320,8938,2,0,P|108:280|116:228,2,80,0|0|8,0:0|0:0|0:0,0:0:0:0:
196,224,9255,6,0,P|168:180|56:176,1,160
124,36,9572,1,8,0:0:0:0:
204,72,9677,1,8,0:0:0:0:
292,76,9783,2,0,L|392:68,1,80,8|8,0:0|0:0,0:0:0:0:
452,28,9994,1,8,0:0:0:0:
448,116,10100,1,12,0:0:0:0:
116,56,16860,6,0,B|128:104|128:104|120:156|120:156|132:220,1,160,4|0,0:0|0:0,0:0:0:0:
216,164,17177,2,0,P|255:162|291:178,1,80,8|0,0:0|0:0,0:0:0:0:
152,300,17388,2,0,P|112:301|76:285,1,80
308,300,17600,1,8,0:0:0:0:
280,384,17705,1,0,0:0:0:0:
224,316,17811,6,0,L|244:232,2,80,0|0|8,0:0|0:0|0:0,0:0:0:0:
380,348,18128,2,0,P|392:304|380:252,1,80
223,86,18339,2,0,P|211:130|223:182,1,80,0|8,0:0|0:0,0:0:0:0:
215,163,18550,6,0,L|31:147,1,160
292,136,18867,2,0,B|320:140|344:116|344:116|384:144|368:224,1,160,8|0,0:0|0:0,0:0:0:0:
288,56,19184,1,0,0:0:0:0:
288,56,19290,1,8,0:0:0:0:
432,84,19395,6,0,P|452:136|452:192,1,80
448,248,19607,1,0,0:0:0:0:
316,266,19712,2,0,P|351:222|399:194,1,80,8|0,0:0|0:0,0:0:0:0:
236,248,19924,2,0,P|180:239|132:211,2,80,0|0|8,0:0|0:0|0:0,0:0:0:0:
128,304,20241,6,0,P|136:244|92:120,1,160,4|0,0:0|0:0,0:0:0:0:
48,240,20557,1,8,0:0:0:0:
48,240,20663,1,0,0:0:0:0:
76,368,20769,2,0,P|116:384|200:344,1,120
208,344,20980,2,0,L|292:356,1,80,8|0,0:0|0:0,0:0:0:0:
428,296,21191,5,0,0:0:0:0:
340,280,21297,2,0,L|256:268,1,80,0|8,0:0|0:0,0:0:0:0:
396,204,21508,2,0,L|480:216,1,80
452,384,21719,2,0,L|368:372,1,80,0|8,0:0|0:0,0:0:0:0:
181,257,21931,6,0,L|339:279,1,160,4|0,0:0|0:0,0:0:0:0:
464,156,22248,2,0,B|420:108|360:128|360:128|376:72,1,160,8|0,0:0|0:0,0:0:0:0:
318,199,22565,2,0,P|356:209|396:204,1,80,0|8,0:0|0:0,0:0:0:0:
400,8,22776,6,0,P|360:-4|256:40,1,160
168,32,23093,1,8,0:0:0:0:
168,32,23198,1,8,0:0:0:0:
100,112,23304,5,8,0:0:0:0:
204,104,23410,1,8,0:0:0:0:
284,168,23516,1,8,0:0:0:0:
284,272,23621,6,0,P|248:320|120:316,1,160,4|0,0:0|0:0,0:0:0:0:
192,244,23938,2,0,P|144:236|112:212,1,80,8|0,0:0|0:0,0:0:0:0:
352,220,24149,2,0,P|400:228|432:252,1,80
380,384,24360,2,0,L|368:296,1,80,8|0,0:0|0:0,0:0:0:0:
404,72,24572,5,0,0:0:0:0:
404,72,24677,2,0,L|416:160,1,80,0|8,0:0|0:0,0:0:0:0:
292,128,24888,2,0,L|302:48,1,80
181,164,25100,2,0,L|191:243,1,80,0|8,0:0|0:0,0:0:0:0:
140,64,25311,6,0,P|88:52|-4:120,1,160,4|0,0:0|0:0,0:0:0:0:
32,240,25628,2,0,B|80:228|112:236|112:236|156:248|216:240,1,160,8|0,0:0|0:0,0:0:0:0:
276,224,25945,1,0,0:0:0:0:
276,224,26050,1,8,0:0:0:0:
360,252,26156,6,0,P|388:308|336:384,1,160
144,284,26473,1,8,0:0:0:0:
144,284,26579,1,0,0:0:0:0:
232,300,26684,2,0,L|332:316,2,80,0|0|8,0:0|0:0|0:0,0:0:0:0:
72,328,27001,6,0,P|48:280|64:172,1,160,4|0,0:0|0:0,0:0:0:0:
160,40,27318,2,0,L|148:144,1,80,8|0,0:0|0:0,0:0:0:0:
360,252,27529,2,0,L|369:172,1,80
240,92,27741,2,0,L|228:196,1,80,8|0,0:0|0:0,0:0:0:0:
440,304,27952,6,0,L|449:224,2,80,0|0|8,0:0|0:0|0:0,0:0:0:0:
304,332,28269,2,0,B|248:324|248:324|208:336,1,80
120,256,28480,2,0,B|176:264|176:264|216:252,1,80,0|8,0:0|0:0,0:0:0:0:
288,192,28691,6,0,P|304:152|260:40,1,160,4|0,0:0|0:0,0:0:0:0:
208,128,29008,1,8,0:0:0:0:
208,128,29114,1,8,0:0:0:0:
124,148,29219,2,0,L|36:140,1,80
120,256,29431,1,8,0:0:0:0:
216,308,29536,6,0,B|268:296|268:296|332:312|332:312|392:304,1,160,0|8,0:0|0:0,0:0:0:0:
440,248,29853,1,8,0:0:0:0:
440,248,29959,1,8,0:0:0:0:
392,172,30065,2,0,P|400:128|416:72,1,80
340,36,30276,1,0,0:0:0:0:
256,64,30381,1,0,0:0:0:0:
172,36,30487,5,4,0:0:0:0:
340,348,30698,1,0,0:0:0:0:
412,108,30910,1,0,0:0:0:0:
100,276,31121,1,0,0:0:0:0:
291,73,31332,5,0,0:0:0:0:
220,310,31543,1,0,0:0:0:0:
374,227,31755,1,0,0:0:0:0:
137,156,31966,1,0,0:0:0:0:
360,380,32177,6,0,B|460:360|460:360|496:368,1,120.000004577637
356,220,32600,2,0,B|256:240|256:240|220:232,2,120.000004577637
272,32,33234,6,0,L|260:176,1,120.000004577637,8|0,0:0|0:0,0:0:0:0:
184,180,33550,2,0,L|196:324,1,120.000004577637,8|0,0:0|0:0,0:0:0:0:
268,360,33867,5,8,0:0:0:0:
372,300,34079,1,0,0:0:0:0:
488,332,34290,1,0,0:0:0:0:
372,300,34501,1,0,0:0:0:0:
348,184,34712,5,0,0:0:0:0:
416,380,34924,1,0,0:0:0:0:
472,68,35135,1,4,0:0:0:0:
264,264,35346,2,0,P|216:272|176:272,1,60.0000022888184,8|8,0:0|0:0,0:0:0:0:
120,328,35557,6,0,P|92:284|96:168,2,160,4|8|0,0:0|0:0|0:0,0:0:0:0:
208,284,36086,1,0,0:0:0:0:
288,336,36191,1,8,0:0:0:0:
380,308,36297,6,0,B|496:288|496:288|484:352,1,160
440,208,36614,2,0,B|324:228|324:228,1,80,8|0,0:0|0:0,0:0:0:0:
212,152,36825,1,0,0:0:0:0:
300,136,36931,2,0,B|416:116|416:116,1,80,8|8,0:0|0:0,0:0:0:0:
124,168,37142,6,0,P|92:120|112:4,1,160,4|0,0:0|0:0,0:0:0:0:
176,84,37459,1,8,0:0:0:0:
176,84,37565,1,0,0:0:0:0:
176,236,37670,2,0,P|140:252|92:248,2,80,0|0|8,0:0|0:0|0:0,0:0:0:0:
236,300,37987,6,0,P|284:288|388:332,1,160
460,272,38304,1,8,0:0:0:0:
460,272,38410,1,0,0:0:0:0:
420,184,38515,2,0,L|432:72,1,80
312,28,38726,1,8,0:0:0:0:
300,124,38832,6,0,L|282:283,1,160,4|0,0:0|0:0,0:0:0:0:
228,364,39149,1,8,0:0:0:0:
132,352,39255,1,0,0:0:0:0:
84,268,39360,2,0,P|124:256|180:264,2,80,0|0|8,0:0|0:0|0:0,0:0:0:0:
40,196,39677,6,0,P|84:180|204:184,1,160
289,203,39994,2,0,L|301:111,1,80,8|0,0:0|0:0,0:0:0:0:
420,184,40205,1,8,0:0:0:0:
420,184,40311,1,8,0:0:0:0:
420,184,40417,1,8,0:0:0:0:
420,184,40522,6,0,L|399:342,1,160,4|0,0:0|0:0,0:0:0:0:
228,364,40839,2,0,L|216:272,1,80,8|0,0:0|0:0,0:0:0:0:
289,203,41050,2,0,L|301:295,1,80
196,160,41262,1,8,0:0:0:0:
196,160,41367,1,0,0:0:0:0:
252,80,41473,6,0,L|336:88,1,80
136,236,41684,2,0,L|52:228,1,80,8|0,0:0|0:0,0:0:0:0:
280,200,41895,2,0,L|272:279,1,80
116,116,42107,2,0,L|123:36,1,80,8|0,0:0|0:0,0:0:0:0:
372,84,42318,6,0,L|356:243,1,160,8|0,0:0|0:0,0:0:0:0:
140,300,42635,2,0,L|155:140,1,160,8|0,0:0|0:0,0:0:0:0:
256,192,42952,1,8,0:0:0:0:
256,192,43057,1,0,0:0:0:0:
219,288,43163,6,0,L|135:300,1,80,8|8,0:0|0:0,0:0:0:0:
20,155,43374,2,0,L|104:143,1,80
196,128,43586,1,0,0:0:0:0:
188,224,43691,1,2,0:0:0:0:
176,320,43797,1,2,0:0:0:0:
72,268,43903,6,0,B|128:260|128:260|192:280|192:280|276:272,1,191.999994140625,4|0,0:0|0:0,0:0:0:0:
296,152,44219,2,0,L|204:176,1,95.9999970703126,10|0,0:0|0:0,0:0:0:0:
64,48,44431,2,0,L|156:72,1,95.9999970703126,2|0,0:0|0:0,0:0:0:0:
361,224,44642,1,8,0:0:0:0:
396,124,44748,1,2,0:0:0:0:
316,56,44853,6,0,P|248:64|208:104,1,95.9999970703126
272,248,45065,2,0,P|340:240|380:200,1,95.9999970703126,10|0,0:0|0:0,0:0:0:0:
200,176,45276,1,2,0:0:0:0:
180,280,45381,1,0,0:0:0:0:
160,384,45487,1,8,0:0:0:0:
84,312,45593,6,0,B|68:332|68:332|52:164,1,191.999994140625,6|0,0:0|0:0,0:0:0:0:
216,81,45910,2,0,L|199:178,1,95.9999970703126,10|0,0:0|0:0,0:0:0:0:
396,124,46121,2,0,L|493:141,1,95.9999970703126,2|0,0:0|0:0,0:0:0:0:
316,56,46332,1,8,0:0:0:0:
304,160,46438,6,0,P|320:220|308:272,1,95.9999970703126,2|0,0:0|0:0,0:0:0:0:
248,320,46649,1,0,0:0:0:0:
160,368,46755,2,0,P|144:308|156:256,1,95.9999970703126,8|0,0:0|0:0,0:0:0:0:
348,344,46966,1,2,0:0:0:0:
448,312,47072,1,0,0:0:0:0:
496,220,47177,1,8,0:0:0:0:
488,116,47283,6,0,P|432:132|308:56,1,191.999994140625,6|0,0:0|0:0,0:0:0:0:
160,56,47600,2,0,P|204:72|244:128,1,95.9999970703126,10|0,0:0|0:0,0:0:0:0:
136,256,47811,2,0,P|92:240|52:184,1,95.9999970703126,2|0,0:0|0:0,0:0:0:0:
144,152,48022,1,8,0:0:0:0:
144,152,48128,1,2,0:0:0:0:
232,216,48234,6,0,B|272:220|300:272|300:272|340:292|412:296,1,191.999994140625,0|8,0:0|0:0,0:0:0:0:
368,196,48550,1,0,0:0:0:0:
344,92,48656,2,0,P|352:40|380:4,1,95.9999970703126,2|0,0:0|0:0,0:0:0:0:
480,280,48867,2,0,P|472:332|444:368,1,95.9999970703126,10|0,0:0|0:0,0:0:0:0:
360,328,49079,6,0,P|312:344|184:280,1,191.999994140625,6|8,0:0|0:0,0:0:0:0:
180,48,49395,2,0,P|217:81|226:224,1,191.999994140625,6|8,0:0|0:0,0:0:0:0:
84,360,49712,2,0,P|46:326|37:183,1,191.999994140625,6|8,0:0|0:0,0:0:0:0:
88,104,50029,1,0,0:0:0:0:
180,48,50135,1,8,0:0:0:0:
280,44,50241,1,8,0:0:0:0:
380,76,50346,1,8,0:0:0:0:
380,76,50452,2,0,L|368:176,1,95.9999970703126,2|2,0:0|0:0,0:0:0:0:
448,312,50663,6,0,P|484:272|448:124,1,191.999994140625,4|0,0:0|0:0,0:0:0:0:
279,276,50980,2,0,P|263:321|272:368,1,95.9999970703126,10|0,0:0|0:0,0:0:0:0:
368,171,51191,2,0,P|330:141|283:133,1,95.9999970703126,2|0,0:0|0:0,0:0:0:0:
44,160,51403,1,8,0:0:0:0:
72,260,51508,6,0,L|176:248,1,95.9999970703126,2|0,0:0|0:0,0:0:0:0:
232,128,51719,1,0,0:0:0:0:
148,64,51825,2,0,L|44:52,1,95.9999970703126,10|0,0:0|0:0,0:0:0:0:
196,288,52036,2,0,L|291:276,1,95.9999970703126,2|0,0:0|0:0,0:0:0:0:
396,260,52248,1,8,0:0:0:0:
500,244,52353,6,0,P|512:184|456:72,1,191.999994140625,6|0,0:0|0:0,0:0:0:0:
232,128,52670,1,10,0:0:0:0:
308,56,52776,1,0,0:0:0:0:
376,136,52881,2,0,L|364:260,1,95.9999970703126,2|0,0:0|0:0,0:0:0:0:
256,372,53093,1,8,0:0:0:0:
196,288,53198,6,0,P|172:240|244:124,1,191.999994140625,2|0,0:0|0:0,0:0:0:0:
152,372,53515,2,0,L|48:356,1,95.9999970703126,8|0,0:0|0:0,0:0:0:0:
268,224,53726,2,0,L|372:240,1,95.9999970703126,2|0,0:0|0:0,0:0:0:0:
428,324,53938,1,8,0:0:0:0:
332,368,54043,6,0,P|312:312|372:184,1,191.999994140625,6|0,0:0|0:0,0:0:0:0:
472,48,54360,2,0,L|456:144,1,80,10|0,0:0|0:0,0:0:0:0:
440,212,54572,1,2,0:0:0:0:
296,152,54677,2,0,L|282:73,1,80,2|8,0:0|0:0,0:0:0:0:
99,194,54888,6,0,P|171:170|275:238,1,191.999994140625,2|0,0:0|0:0,0:0:0:0:
192,364,55205,2,0,P|172:316|184:252,1,95.9999970703126,10|0,0:0|0:0,0:0:0:0:
368,92,55417,2,0,P|388:140|376:204,1,95.9999970703126,2|2,0:0|0:0,0:0:0:0:
332,276,55628,1,8,0:0:0:0:
64,84,55734,6,0,B|164:64|164:64|220:72|220:72|284:56,1,223.999993164063,6|0,0:0|0:0,0:0:0:0:
128,280,56050,2,0,L|-20:264,1,111.999996582031,10|0,0:0|0:0,0:0:0:0:
184,164,56262,2,0,L|295:151,1,111.999996582031,2|0,0:0|0:0,0:0:0:0:
416,136,56473,1,8,0:0:0:0:
340,40,56579,6,0,L|117:64,1,223.999993164063,2|0,0:0|0:0,0:0:0:0:
64,176,56895,1,8,0:0:0:0:
64,176,57001,1,8,0:0:0:0:
128,280,57107,6,0,L|120:344,5,55.9999982910157
128,280,57424,1,4,0:0:0:0:
256,192,57476,12,4,59114,0:0:0:0:
96,164,64184,6,0,P|124:176|248:116,1,160,4|0,0:0|0:0,0:0:0:0:
152,88,64501,1,8,0:0:0:0:
152,88,64607,1,0,0:0:0:0:
304,80,64712,2,0,L|396:76,2,80,0|0|8,0:0|0:0|0:0,0:0:0:0:
220,176,65029,6,0,P|296:162|362:206,1,160
400,288,65346,1,8,0:0:0:0:
400,288,65452,1,0,0:0:0:0:
339,352,65557,2,0,P|318:319|311:280,1,80
362,206,65769,1,8,0:0:0:0:
436,92,65874,6,0,B|428:136|428:136|448:200|448:200|432:276,1,160,4|0,0:0|0:0,0:0:0:0:
283,162,66191,2,0,P|310:134|348:120,1,80,8|0,0:0|0:0,0:0:0:0:
284,256,66403,1,0,0:0:0:0:
284,256,66508,2,0,L|184:248,1,80,0|8,0:0|0:0,0:0:0:0:
28,184,66719,6,0,P|80:148|172:168,1,160
204,249,67036,1,8,0:0:0:0:
160,324,67142,1,0,0:0:0:0:
160,324,67248,2,0,L|64:312,2,80,0|0|8,0:0|0:0|0:0,0:0:0:0:
296,372,67565,6,0,L|460:356,1,160,4|0,0:0|0:0,0:0:0:0:
442,146,67881,2,0,L|278:162,1,160,8|0,0:0|0:0,0:0:0:0:
282,161,68198,1,0,0:0:0:0:
328,236,68304,1,8,0:0:0:0:
336,84,68410,6,0,P|296:44|184:56,1,160
124,92,68726,2,0,P|112:44|120:4,1,80,8|0,0:0|0:0,0:0:0:0:
200,136,68938,2,0,P|203:175|192:213,1,80
88,356,69149,1,8,0:0:0:0:
4,312,69255,6,0,P|40:276|152:288,1,160,4|0,0:0|0:0,0:0:0:0:
312,376,69572,1,8,0:0:0:0:
324,288,69677,1,8,0:0:0:0:
336,200,69783,2,0,L|348:88,1,80
432,348,69994,1,8,0:0:0:0:
444,260,70100,6,0,L|461:94,1,160,4|0,0:0|0:0,0:0:0:0:
276,32,70417,1,8,0:0:0:0:
188,44,70522,1,8,0:0:0:0:
200,136,70628,1,8,0:0:0:0:
288,124,70733,1,8,0:0:0:0:
276,32,70839,1,8,0:0:0:0:
188,44,70945,6,0,P|128:76|120:184,1,160,4|0,0:0|0:0,0:0:0:0:
76,312,71262,2,0,L|56:208,1,80,8|0,0:0|0:0,0:0:0:0:
200,136,71473,1,0,0:0:0:0:
252,208,71579,1,0,0:0:0:0:
232,292,71684,2,0,P|232:344|248:384,1,80,8|0,0:0|0:0,0:0:0:0:
404,312,71895,5,0,0:0:0:0:
404,312,72001,2,0,L|312:320,1,80,0|8,0:0|0:0,0:0:0:0:
172,214,72212,2,0,L|264:206,1,80
408,88,72424,2,0,L|316:96,1,80,0|8,0:0|0:0,0:0:0:0:
204,44,72635,6,0,P|172:32|52:96,1,160
96,204,72952,2,0,P|128:216|248:152,1,160,8|0,0:0|0:0,0:0:0:0:
152,124,73269,1,0,0:0:0:0:
152,124,73374,1,8,0:0:0:0:
40,288,73480,6,0,P|48:336|76:376,1,80
136,300,73691,1,0,0:0:0:0:
232,308,73797,2,0,P|224:260|196:220,1,80,8|0,0:0|0:0,0:0:0:0:
116,204,74008,1,0,0:0:0:0:
300,200,74114,1,0,0:0:0:0:
300,200,74219,1,8,0:0:0:0:
220,148,74325,6,0,P|276:108|376:140,1,160,4|0,0:0|0:0,0:0:0:0:
420,204,74642,2,0,L|512:196,1,80,8|0,0:0|0:0,0:0:0:0:
311,314,74853,2,0,L|219:306,1,80
410,288,75065,2,0,L|404:368,1,80,8|0,0:0|0:0,0:0:0:0:
300,200,75276,5,0,0:0:0:0:
300,200,75381,2,0,L|306:120,1,80,0|8,0:0|0:0,0:0:0:0:
320,28,75593,2,0,P|364:48|392:96,1,80
220,152,75804,2,0,P|215:103|242:55,1,80,0|8,0:0|0:0,0:0:0:0:
220,240,76015,6,0,P|168:232|80:292,1,160,4|0,0:0|0:0,0:0:0:0:
84,96,76332,2,0,P|104:140|96:188,1,80,8|0,0:0|0:0,0:0:0:0:
8,152,76543,1,0,0:0:0:0:
24,240,76649,1,0,0:0:0:0:
44,324,76755,1,8,0:0:0:0:
216,384,76860,6,0,B|240:336|240:336|212:196,1,160
200,144,77177,1,8,0:0:0:0:
288,156,77283,1,8,0:0:0:0:
376,168,77388,1,8,0:0:0:0:
464,176,77494,1,8,0:0:0:0:
464,176,77705,6,0,L|280:160,1,160,4|0,0:0|0:0,0:0:0:0:
252,72,78022,2,0,P|292:64|348:44,1,80,8|0,0:0|0:0,0:0:0:0:
328,264,78234,2,0,P|288:272|232:292,1,80
172,240,78445,1,8,0:0:0:0:
172,240,78550,1,0,0:0:0:0:
40,348,78656,5,0,0:0:0:0:
120,376,78762,2,0,P|120:332|88:272,1,80,0|8,0:0|0:0,0:0:0:0:
16,188,78973,2,0,P|54:210|122:212,1,80
233,190,79184,2,0,P|194:211|158:269,1,80,0|8,0:0|0:0,0:0:0:0:
260,288,79395,6,0,L|432:272,1,160,4|0,0:0|0:0,0:0:0:0:
233,190,79712,1,8,0:0:0:0:
320,180,79818,1,0,0:0:0:0:
408,172,79924,2,0,L|494:164,1,80
268,100,80135,1,8,0:0:0:0:
288,268,80241,6,0,L|128:282,1,160
40,292,80557,1,8,0:0:0:0:
40,292,80663,1,0,0:0:0:0:
76,212,80769,2,0,P|73:172|56:136,2,80,0|0|8,0:0|0:0|0:0,0:0:0:0:
0,72,81086,6,0,P|32:40|156:40,1,160,4|0,0:0|0:0,0:0:0:0:
204,92,81403,2,0,P|248:96|300:72,1,80,8|0,0:0|0:0,0:0:0:0:
384,20,81614,2,0,L|372:116,1,80
456,236,81825,2,0,L|468:140,1,80,8|0,0:0|0:0,0:0:0:0:
268,240,82036,5,0,0:0:0:0:
360,212,82142,2,0,L|348:308,1,80,0|8,0:0|0:0,0:0:0:0:
172,344,82353,2,0,L|184:248,1,80
277,160,82565,2,0,L|267:239,1,80,0|8,0:0|0:0,0:0:0:0:
88,312,82776,6,0,P|56:284|64:156,1,160,4|0,0:0|0:0,0:0:0:0:
244,24,83093,1,8,0:0:0:0:
164,60,83198,1,0,0:0:0:0:
84,92,83304,2,0,P|64:40|72:-4,1,80
236,112,83515,1,8,0:0:0:0:
308,160,83621,6,0,P|348:176|472:128,1,160,0|8,0:0|0:0,0:0:0:0:
412,68,83938,1,8,0:0:0:0:
412,68,84043,1,8,0:0:0:0:
340,192,84149,5,8,0:0:0:0:
424,212,84254,1,8,0:0:0:0:
484,276,84360,1,8,0:0:0:0:
400,296,84465,1,8,0:0:0:0:
312,360,84572,6,0,L|184:348,1,120.000004577637,4|0,0:0|0:0,0:0:0:0:
200,24,84994,2,0,L|328:36,1,120.000004577637
88,248,85417,2,0,L|100:120,1,120.000004577637
424,136,85839,2,0,L|412:264,1,120.000004577637
324,352,86262,1,0,0:0:0:0:
224,268,86473,1,0,0:0:0:0:
112,336,86684,1,0,0:0:0:0:
12,252,86895,1,0,0:0:0:0:
172,44,87107,5,0,0:0:0:0:
172,44,87318,2,0,P|192:88|180:168,1,120.000004577637
184,157,87635,2,0,L|312:144,1,120.000004577637
388,132,87952,5,0,0:0:0:0:
444,252,88163,1,0,0:0:0:0:
324,308,88374,1,0,0:0:0:0:
268,188,88585,1,0,0:0:0:0:
64,92,88797,5,0,0:0:0:0:
29,219,89008,1,0,0:0:0:0:
157,254,89219,1,0,0:0:0:0:
191,126,89430,1,8,0:0:0:0:
191,126,89536,1,8,0:0:0:0:
268,188,89642,6,0,L|372:172,1,80,4|0,0:0|0:0,0:0:0:0:
416,60,89853,2,0,L|312:44,1,80,8|0,0:0|0:0,0:0:0:0:
191,126,90065,1,0,0:0:0:0:
276,196,90170,2,0,L|380:180,1,80,0|8,0:0|0:0,0:0:0:0:
488,308,90381,6,0,L|321:282,1,160,4|0,0:0|0:0,0:0:0:0:
220,260,90698,2,0,P|204:304|212:356,1,80,8|0,0:0|0:0,0:0:0:0:
16,284,90910,1,0,0:0:0:0:
104,300,91015,1,8,0:0:0:0:
44,368,91121,1,8,0:0:0:0:
76,208,91226,6,0,L|60:36,1,160,4|0,0:0|0:0,0:0:0:0:
191,126,91543,2,0,L|198:205,1,80,8|0,0:0|0:0,0:0:0:0:
264,76,91755,1,0,0:0:0:0:
344,108,91860,1,0,0:0:0:0:
272,160,91966,1,8,0:0:0:0:
448,256,92072,6,0,L|433:96,1,160
340,256,92388,2,0,L|332:335,1,80,8|0,0:0|0:0,0:0:0:0:
187,238,92600,1,0,0:0:0:0:
256,288,92705,1,0,0:0:0:0:
272,200,92811,1,8,0:0:0:0:
200,152,92917,6,0,P|140:164|100:252,1,160,4|0,0:0|0:0,0:0:0:0:
68,348,93234,2,0,P|120:340|164:336,1,80,8|0,0:0|0:0,0:0:0:0:
335,298,93445,2,0,P|295:292|256:288,2,80,0|0|8,0:0|0:0|0:0,0:0:0:0:
476,360,93762,6,0,P|496:300|456:188,1,160
272,200,94079,2,0,L|368:192,1,80,8|0,0:0|0:0,0:0:0:0:
464,104,94290,2,0,L|384:97,1,80
296,88,94501,1,8,0:0:0:0:
184,200,94607,6,0,B|188:136|188:136|176:104|176:104|184:24,1,160,4|0,0:0|0:0,0:0:0:0:
108,152,94924,2,0,B|22:160,1,80,8|0,0:0|0:0,0:0:0:0:
260,92,95135,2,0,B|345:100,1,80
191,279,95346,2,0,B|184:200,1,80,8|0,0:0|0:0,0:0:0:0:
328,200,95557,6,0,B|320:279,1,80
200,364,95769,2,0,P|152:356|120:328,1,80,8|0,0:0|0:0,0:0:0:0:
316,116,95980,2,0,P|355:120|388:142,1,80
432,220,96191,1,8,0:0:0:0:
420,308,96297,1,0,0:0:0:0:
200,364,96403,6,0,B|264:316|264:316|348:328,1,160,12|0,0:0|0:0,0:0:0:0:
191,279,96719,2,0,B|127:231|127:231|43:243,1,160,12|0,0:0|0:0,0:0:0:0:
216,200,97036,2,0,B|280:152|280:152|364:164,1,160,12|8,0:0|0:0,0:0:0:0:
448,176,97353,1,8,0:0:0:0:
436,88,97459,1,0,0:0:0:0:
72,24,97987,6,0,P|37:76|81:188,1,191.999994140625,4|0,0:0|0:0,0:0:0:0:
216,200,98304,2,0,L|352:188,1,95.9999970703126,10|0,0:0|0:0,0:0:0:0:
220,112,98515,2,0,L|84:100,1,95.9999970703126,2|0,0:0|0:0,0:0:0:0:
40,296,98726,1,8,0:0:0:0:
116,356,98832,6,0,B|184:348|184:348|232:368|232:368|328:356,1,191.999994140625,2|0,0:0|0:0,0:0:0:0:
388,252,99149,1,10,0:0:0:0:
400,348,99255,1,0,0:0:0:0:
376,156,99360,2,0,P|368:112|400:44,1,95.9999970703126,2|0,0:0|0:0,0:0:0:0:
464,116,99572,1,8,0:0:0:0:
296,216,99677,6,0,P|280:160|300:16,1,191.999994140625,6|0,0:0|0:0,0:0:0:0:
388,252,99994,2,0,P|363:289|292:315,1,95.9999970703126,10|0,0:0|0:0,0:0:0:0:
132,248,100205,2,0,P|176:250|234:298,1,95.9999970703126,2|0,0:0|0:0,0:0:0:0:
244,372,100417,1,8,0:0:0:0:
40,296,100522,6,0,B|12:256|12:256|4:100,1,191.999994140625,2|0,0:0|0:0,0:0:0:0:
236,188,100839,2,0,P|176:196|132:176,1,95.9999970703126,8|0,0:0|0:0,0:0:0:0:
196,92,101050,1,2,0:0:0:0:
300,108,101156,1,2,0:0:0:0:
404,88,101262,1,8,0:0:0:0:
500,44,101367,6,0,B|524:104|488:152|488:152|512:260,1,191.999994140625,6|0,0:0|0:0,0:0:0:0:
348,368,101684,2,0,L|360:268,1,95.9999970703126,10|0,0:0|0:0,0:0:0:0:
208,96,101895,2,0,L|219:191,1,95.9999970703126,2|0,0:0|0:0,0:0:0:0:
176,288,102107,1,8,0:0:0:0:
440,344,102212,6,0,L|462:153,1,191.999994140625,2|0,0:0|0:0,0:0:0:0:
304,112,102529,1,10,0:0:0:0:
304,112,102635,1,0,0:0:0:0:
272,212,102741,2,0,P|315:219|363:199,1,95.9999970703126,2|0,0:0|0:0,0:0:0:0:
336,0,102952,2,0,P|289:-7|245:11,1,95.9999970703126,10|0,0:0|0:0,0:0:0:0:
82,266,103163,6,0,B|82:334|154:346|154:346|174:266,1,191.999994140625,6|8,0:0|0:0,0:0:0:0:
171,108,103480,2,0,B|154:38|154:38|82:50|82:118,1,191.999994140625,6|8,0:0|0:0,0:0:0:0:
252,192,103797,2,0,B|318:192|318:192|338:184|338:184|338:200|338:200|358:192|358:192|462:192,1,191.999994140625,6|8,0:0|0:0,0:0:0:0:
468,288,104114,5,10,0:0:0:0:
508,192,104219,1,8,0:0:0:0:
468,96,104325,1,8,0:0:0:0:
272,96,104431,1,8,0:0:0:0:
362,140,104536,2,0,P|371:94|360:48,1,95.9999970703126,2|2,0:0|0:0,0:0:0:0:
172,108,104748,6,0,L|196:320,1,191.999994140625,4|0,0:0|0:0,0:0:0:0:
232,28,105065,2,0,L|124:8,1,95.9999970703126,10|0,0:0|0:0,0:0:0:0:
0,140,105276,2,0,L|108:120,1,95.9999970703126,2|0,0:0|0:0,0:0:0:0:
272,212,105487,1,8,0:0:0:0:
192,280,105593,6,0,P|172:236|192:152,1,95.9999970703126,2|0,0:0|0:0,0:0:0:0:
248,112,105804,1,0,0:0:0:0:
348,148,105910,2,0,P|368:192|348:276,1,95.9999970703126,8|0,0:0|0:0,0:0:0:0:
296,320,106121,1,2,0:0:0:0:
196,356,106226,1,0,0:0:0:0:
92,348,106332,1,8,0:0:0:0:
32,260,106438,6,0,B|74:232|122:248|122:248|170:264|215:236,1,191.999994140625,6|0,0:0|0:0,0:0:0:0:
92,348,106755,1,10,0:0:0:0:
92,348,106861,1,2,0:0:0:0:
156,144,106967,2,0,P|162:96|149:50,1,95.9999970703126,2|0,0:0|0:0,0:0:0:0:
56,112,107177,1,8,0:0:0:0:
252,184,107283,6,0,B|320:172|320:172|376:192|376:192|456:176,1,191.999994140625,2|0,0:0|0:0,0:0:0:0:
380,8,107600,2,0,B|368:48|368:48|384:108,1,95.9999970703126,8|0,0:0|0:0,0:0:0:0:
316,352,107811,2,0,B|328:312|328:312|312:252,2,95.9999970703126,2|2|8,0:0|0:0|0:0,0:0:0:0:
220,308,108128,6,0,P|160:328|36:264,1,191.999994140625,6|0,0:0|0:0,0:0:0:0:
155,143,108445,2,0,P|158:190|147:237,1,95.9999970703126,10|0,0:0|0:0,0:0:0:0:
56,112,108656,2,0,P|52:64|64:18,1,95.9999970703126,2|0,0:0|0:0,0:0:0:0:
244,100,108867,1,10,0:0:0:0:
244,100,108973,6,0,P|288:120|416:68,1,191.999994140625,2|0,0:0|0:0,0:0:0:0:
268,284,109290,2,0,P|224:264|96:316,1,191.999994140625,10|0,0:0|0:0,0:0:0:0:
155,143,109607,1,2,0:0:0:0:
155,143,109712,1,10,0:0:0:0:
328,52,109818,6,0,B|368:84|368:136|368:136|340:244,1,191.999994140625,6|0,0:0|0:0,0:0:0:0:
185,323,110135,2,0,P|221:291|268:284,1,95.9999970703126,8|0,0:0|0:0,0:0:0:0:
356,376,110346,2,0,L|252:364,1,95.9999970703126,2|0,0:0|0:0,0:0:0:0:
96,336,110557,1,8,0:0:0:0:
96,336,110663,1,0,0:0:0:0:
28,256,110769,5,8,0:0:0:0:
72,160,110874,2,0,L|64:96,5,40
100,120,111191,2,0,L|108:56,5,40
144,104,111508,6,0,P|192:84|320:112,1,160,4|0,0:0|0:0,0:0:0:0:
376,136,111825,2,0,L|388:44,1,80,10|0,0:0|0:0,0:0:0:0:
436,208,112036,2,0,L|446:287,1,80,2|0,0:0|0:0,0:0:0:0:
332,372,112248,1,10,0:0:0:0:
356,288,112353,1,0,0:0:0:0:
272,312,112459,6,0,P|220:332|168:328,1,80,2|0,0:0|0:0,0:0:0:0:
68,124,112670,2,0,P|104:108|144:104,1,80,10|0,0:0|0:0,0:0:0:0:
152,268,112881,2,8,P|135:231|131:192,2,80,2|2|10,0:0|0:0|0:0,0:0:0:0:
96,344,113198,6,0,P|144:300|260:316,1,160,2|0,0:0|0:0,0:0:0:0:
332,372,113515,2,0,L|428:356,1,80,10|0,0:0|0:0,0:0:0:0:
492,228,113726,1,2,0:0:0:0:
416,272,113832,1,2,0:0:0:0:
352,208,113938,1,10,0:0:0:0:
428,168,114043,6,0,P|440:120|432:68,2,80,2|2|0,0:0|0:0|0:0,0:0:0:0:
264,228,114360,2,0,L|168:220,1,80,8|0,0:0|0:0,0:0:0:0:
68,48,114572,1,8,0:0:0:0:
80,136,114677,1,8,0:0:0:0:
92,224,114783,1,8,0:0:0:0:
68,308,114888,6,0,P|96:336|216:328,1,160,4|2,0:0|0:0,0:0:0:0:
371,358,115205,2,0,L|292:364,1,80,10|0,0:0|0:0,0:0:0:0:
184,222,115417,2,0,L|264:228,1,80,2|0,0:0|0:0,0:0:0:0:
376,176,115628,2,0,P|374:217|370:255,1,80,10|0,0:0|0:0,0:0:0:0:
272,104,115839,6,0,P|268:64|266:24,1,80,2|0,0:0|0:0,0:0:0:0:
384,56,116050,1,10,0:0:0:0:
384,56,116156,1,2,0:0:0:0:
451,155,116262,2,0,P|415:172|376:176,1,80,2|0,0:0|0:0,0:0:0:0:
251,260,116473,2,0,P|214:247|184:222,1,80,10|0,0:0|0:0,0:0:0:0:
104,96,116684,5,4,0:0:0:0:
104,96,116790,2,0,P|111:135|104:174,1,80,10|0,0:0|0:0,0:0:0:0:
40,304,117001,1,4,0:0:0:0:
40,304,117107,2,0,P|70:277|107:264,2,80,10|0|4,0:0|0:0|0:0,0:0:0:0:
200,352,117424,6,0,P|244:364|348:312,1,160,2|0,0:0|0:0,0:0:0:0:
251,260,117741,1,8,0:0:0:0:
194,139,117846,1,0,0:0:0:0:
272,179,117952,5,8,0:0:0:0:
357,161,118057,1,8,0:0:0:0:
443,143,118163,1,8,0:0:0:0:
443,143,118269,6,0,L|429:331,1,160,4|0,0:0|0:0,0:0:0:0:
357,161,118586,2,0,L|351:81,1,80,8|0,0:0|0:0,0:0:0:0:
251,260,118797,2,0,L|245:339,1,80,2|0,0:0|0:0,0:0:0:0:
112,200,119008,1,8,0:0:0:0:
112,200,119114,6,0,L|100:40,1,160,2|0,0:0|0:0,0:0:0:0:
48,280,119431,2,0,P|88:300|136:300,1,80,8|0,0:0|0:0,0:0:0:0:
264,160,119642,2,0,P|224:163|189:182,2,80,2|0|8,0:0|0:0|0:0,0:0:0:0:
344,224,119959,6,0,P|364:168|312:64,1,160,2|0,0:0|0:0,0:0:0:0:
252,260,120276,2,0,P|252:304|272:356,1,80,8|0,0:0|0:0,0:0:0:0:
452,304,120487,2,0,P|452:260|432:208,1,80,2|0,0:0|0:0,0:0:0:0:
264,160,120698,1,8,0:0:0:0:
264,160,120804,6,0,P|214:170|145:274,1,160,2|0,0:0|0:0,0:0:0:0:
220,356,121121,1,8,0:0:0:0:
252,260,121226,1,0,0:0:0:0:
48,272,121332,1,2,0:0:0:0:
84,368,121438,1,0,0:0:0:0:
148,288,121543,1,8,0:0:0:0:
148,288,121649,6,0,B|152:244|132:216|132:216|136:200|136:200|116:176|124:112,1,160,4|0,0:0|0:0,0:0:0:0:
336,20,121966,2,0,P|284:44|240:36,1,80,8|0,0:0|0:0,0:0:0:0:
121,134,122177,2,0,L|199:120,1,80,2|0,0:0|0:0,0:0:0:0:
380,200,122388,2,0,P|328:176|284:184,1,80,8|0,0:0|0:0,0:0:0:0:
111,275,122600,5,0,0:0:0:0:
212,353,122705,1,2,0:0:0:0:
339,336,122811,1,8,0:0:0:0:
417,235,122917,1,2,0:0:0:0:
400,108,123022,1,0,0:0:0:0:
299,30,123128,1,2,0:0:0:0:
172,47,123234,1,8,0:0:0:0:
94,148,123339,6,0,P|168:144|272:140,1,160,4|0,0:0|0:0,0:0:0:0:
360,132,123656,2,0,P|352:200|348:248,1,80,8|0,0:0|0:0,0:0:0:0:
212,353,123867,2,0,L|207:313|202:273,1,80
40,72,124079,1,8,0:0:0:0:
40,72,124184,1,0,0:0:0:0:
18,161,124290,6,0,B|58:165|58:165|94:148,1,80,0|8,0:0|0:0,0:0:0:0:
400,107,124501,2,0,B|360:111|360:111|325:94,1,80,8|8,0:0|0:0,0:0:0:0:
212,252,124712,2,0,B|243:226|243:226|255:188,1,80
256,32,124924,1,0,0:0:0:0:
256,32,125029,6,0,B|232:88|280:132|252:200,1,160,4|0,0:0|0:0,0:0:0:0:
101,165,125346,2,0,L|180:152,1,80,8|0,0:0|0:0,0:0:0:0:
406,85,125557,2,0,L|328:72,1,80,8|0,0:0|0:0,0:0:0:0:
255,189,125769,1,8,0:0:0:0:
256,189,125874,6,0,B|232:132|280:88|256:32,1,160,0|8,0:0|0:0,0:0:0:0:
184,72,126191,1,8,0:0:0:0:
184,72,126297,1,0,0:0:0:0:
332,152,126403,2,0,P|340:200|328:236,1,80
331,229,126719,6,0,P|384:212|468:272,1,160,4|0,0:0|0:0,0:0:0:0:
292,316,127036,2,0,L|192:308,1,80,8|0,0:0|0:0,0:0:0:0:
384,304,127248,2,0,L|376:404,1,80
124,300,127459,1,8,0:0:0:0:
124,300,127565,6,0,P|112:240|176:136,1,160
268,48,127881,2,0,L|252:132,1,80,8|0,0:0|0:0,0:0:0:0:
331,229,128093,2,0,L|345:150,1,80
416,96,128304,1,8,0:0:0:0:
488,200,128410,6,0,L|312:232,1,160,4|0,0:0|0:0,0:0:0:0:
292,316,128726,2,0,L|371:330,1,80,8|0,0:0|0:0,0:0:0:0:
236,236,128938,1,0,0:0:0:0:
168,292,129043,2,0,P|156:340|164:380,1,80,0|8,0:0|0:0,0:0:0:0:
276,144,129255,6,0,P|224:140|168:40,1,160
306,9,129572,2,0,P|358:13|414:113,1,160,8|0,0:0|0:0,0:0:0:0:
428,280,129888,1,0,0:0:0:0:
428,280,129994,1,0,0:0:0:0:
488,200,130100,6,0,P|372:184|320:180,1,160,4|0,0:0|0:0,0:0:0:0:
168,292,130417,2,0,P|180:248|184:208,1,80,8|0,0:0|0:0,0:0:0:0:
268,64,130628,2,0,P|256:108|252:148,1,80
356,224,130839,2,0,P|316:228|277:239,1,80,8|0,0:0|0:0,0:0:0:0:
80,140,131050,6,0,P|119:135|158:124,1,80
96,344,131262,2,0,P|80:304|84:256,1,80,8|0,0:0|0:0,0:0:0:0:
216,60,131473,2,0,P|235:94|240:133,1,80
328,328,131684,1,8,0:0:0:0:
256,252,131790,1,0,0:0:0:0:
356,224,131895,6,0,L|460:232,2,80,12|0|0,0:0|0:0|0:0,0:0:0:0:
284,148,132212,2,0,L|180:156,2,80,8|0|0,0:0|0:0|0:0,0:0:0:0:
332,56,132529,1,12,0:0:0:0:
332,56,132635,1,0,0:0:0:0:
404,108,132741,6,0,P|418:73|415:20,1,80
264,0,132952,2,0,P|249:34|252:87,1,80
312,160,133163,1,0,0:0:0:0:
224,148,133269,1,0,0:0:0:0:
136,136,133374,1,0,0:0:0:0:
48,124,133480,1,0,0:0:0:0:
140,296,133903,6,0,L|148:352,3,40
240,332,134219,2,0,L|232:388,3,40
136,116,141403,5,2,0:0:0:0:
136,116,141614,1,2,0:0:0:0:
136,116,141719,2,0,L|144:172,1,40,2|2,0:0|0:0,0:0:0:0:
216,240,142248,6,0,L|229:144,1,95.9999970703126,6|0,0:0|0:0,0:0:0:0:
40,56,142459,2,0,L|53:151,1,95.9999970703126,6|0,0:0|0:0,0:0:0:0:
124,268,142670,1,8,0:0:0:0:
197,328,142776,6,0,B|252:332|284:296|284:296|328:272|384:296,1,191.999994140625,2|0,0:0|0:0,0:0:0:0:
332,368,143093,1,10,0:0:0:0:
332,368,143198,1,0,0:0:0:0:
216,240,143304,2,0,P|204:192|224:136,1,95.9999970703126,2|0,0:0|0:0,0:0:0:0:
376,292,143515,1,8,0:0:0:0:
332,368,143621,6,0,B|260:352|260:352|216:364|216:364|128:344,1,191.999994140625,2|0,0:0|0:0,0:0:0:0:
150,175,143938,2,0,P|191:199|215:239,1,95.9999970703126,10|0,0:0|0:0,0:0:0:0:
20,348,144149,2,0,L|32:248,1,95.9999970703126,2|0,0:0|0:0,0:0:0:0:
180,92,144360,1,8,0:0:0:0:
333,150,144466,6,0,B|280:132|240:160|240:160|200:192|151:175,1,191.999994140625,2|0,0:0|0:0,0:0:0:0:
292,232,144783,2,0,P|308:276|300:332,1,95.9999970703126,8|0,0:0|0:0,0:0:0:0:
216,384,144994,1,2,0:0:0:0:
172,288,145100,1,2,0:0:0:0:
244,212,145205,1,8,0:0:0:0:
344,240,145311,6,0,P|396:268|500:180,1,191.999994140625,6|0,0:0|0:0,0:0:0:0:
316,60,145628,2,0,L|220:48,1,95.9999970703126,10|0,0:0|0:0,0:0:0:0:
333,150,145839,2,0,L|429:138,1,95.9999970703126,2|0,0:0|0:0,0:0:0:0:
512,88,146050,1,8,0:0:0:0:
292,232,146156,6,0,B|256:268|264:340|264:340|248:284|208:268,1,191.999994140625,2|0,0:0|0:0,0:0:0:0:
152,356,146473,2,0,L|44:340,1,95.9999970703126,10|0,0:0|0:0,0:0:0:0:
364,308,146684,2,0,L|472:292,1,95.9999970703126,2|0,0:0|0:0,0:0:0:0:
306,137,146895,2,0,L|290:245,1,95.9999970703126,10|0,0:0|0:0,0:0:0:0:
152,356,147107,6,0,P|112:304|124:164,1,191.999994140625,6|8,0:0|0:0,0:0:0:0:
360,28,147424,2,0,P|400:80|388:220,1,191.999994140625,6|8,0:0|0:0,0:0:0:0:
113,182,147741,2,0,B|16:172|16:172|64:144|80:80,1,191.999994140625,6|8,0:0|0:0,0:0:0:0:
152,32,148057,5,10,0:0:0:0:
256,20,148163,1,8,0:0:0:0:
356,52,148269,1,8,0:0:0:0:
408,144,148374,1,8,0:0:0:0:
343,227,148480,2,0,P|313:190|304:144,1,95.9999970703126
452,240,148691,6,0,B|432:280|444:336|444:336|392:328|352:376,1,191.999994140625,6|0,0:0|0:0,0:0:0:0:
151,320,149008,2,0,P|199:324|244:308,1,95.9999970703126,10|0,0:0|0:0,0:0:0:0:
216,112,149219,2,0,P|168:108|123:124,1,95.9999970703126,2|0,0:0|0:0,0:0:0:0:
184,216,149431,1,8,0:0:0:0:
288,200,149536,6,0,B|328:180|332:120|332:120|380:96|448:140,1,191.999994140625,2|0,0:0|0:0,0:0:0:0:
279,292,149853,2,0,P|272:244|288:200,1,95.9999970703126,10|0,0:0|0:0,0:0:0:0:
216,112,150065,2,0,L|120:128,1,95.9999970703126,2|0,0:0|0:0,0:0:0:0:
8,284,150276,1,8,0:0:0:0:
88,332,150381,6,0,B|152:320|152:320|216:336|216:336|284:324,1,191.999994140625,6|0,0:0|0:0,0:0:0:0:
376,148,150698,2,0,P|340:188|332:236,1,95.9999970703126,10|0,0:0|0:0,0:0:0:0:
440,236,150910,1,2,0:0:0:0:
480,140,151015,2,0,L|472:40,1,95.9999970703126,2|8,0:0|0:0,0:0:0:0:
216,112,151226,6,0,P|272:128|368:40,1,191.999994140625,2|0,0:0|0:0,0:0:0:0:
272,36,151543,1,8,0:0:0:0:
272,36,151649,1,0,0:0:0:0:
156,184,151755,2,0,L|24:168,1,95.9999970703126,2|2,0:0|0:0,0:0:0:0:
24,84,151966,1,8,0:0:0:0:
8,284,152072,6,0,L|206:260,1,191.999994140625,6|0,0:0|0:0,0:0:0:0:
304,248,152388,2,0,P|315:294|313:342,1,95.9999970703126,10|0,0:0|0:0,0:0:0:0:
348,152,152600,1,2,0:0:0:0:
412,236,152705,1,2,0:0:0:0:
504,184,152811,1,8,0:0:0:0:
440,100,152917,6,0,B|384:96|348:152|348:152|240:140,1,191.999994140625,2|0,0:0|0:0,0:0:0:0:
44,192,153234,1,10,0:0:0:0:
44,192,153339,1,8,0:0:0:0:
164,144,153445,2,0,L|180:40,1,95.9999970703126,10|10,0:0|0:0,0:0:0:0:
144,276,153656,1,0,0:0:0:0:
236,356,153762,6,0,B|256:368|256:368|284:344|284:344|344:392|424:360,1,191.999994140625,4|0,0:0|0:0,0:0:0:0:
361,171,154079,2,0,P|351:218|364:264,1,95.9999970703126,10|0,0:0|0:0,0:0:0:0:
440,123,154290,2,0,P|394:137|361:171,1,95.9999970703126,2|0,0:0|0:0,0:0:0:0:
456,224,154501,1,8,0:0:0:0:
486,39,154607,6,0,B|440:16|396:40|396:40|356:68|304:48,1,191.999994140625,2|0,0:0|0:0,0:0:0:0:
80,124,154924,2,0,L|112:12,1,95.9999970703126,10|0,0:0|0:0,0:0:0:0:
216,176,155135,2,0,L|232:316,1,95.9999970703126,2|0,0:0|0:0,0:0:0:0:
160,352,155346,1,8,0:0:0:0:
212,144,155452,6,0,P|260:180|388:148,1,191.999994140625,6|0,0:0|0:0,0:0:0:0:
477,134,155769,2,0,P|477:181|456:224,1,95.9999970703126,10|0,0:0|0:0,0:0:0:0:
300,92,155980,2,0,P|300:44|321:2,2,95.9999970703126,2|0|8,0:0|0:0|0:0,0:0:0:0:
241,246,156297,6,0,P|309:184|300:92,1,191.999994140625,2|0,0:0|0:0,0:0:0:0:
198,168,156614,2,0,P|206:215|241:246,1,95.9999970703126,10|0,0:0|0:0,0:0:0:0:
457,249,156825,2,0,P|408:248|352:276,2,95.9999970703126,2|2|10,0:0|0:0|0:0,0:0:0:0:
288,356,157142,6,0,P|224:376|92:320,1,191.999994140625,6|0,0:0|0:0,0:0:0:0:
288,164,157459,2,0,L|388:96,1,95.9999970703126,10|0,0:0|0:0,0:0:0:0:
472,156,157670,2,0,L|372:224,1,95.9999970703126,2|0,0:0|0:0,0:0:0:0:
96,184,157881,1,10,0:0:0:0:
136,84,157987,1,2,0:0:0:0:
200,168,158093,6,0,P|197:215|175:257,1,95.9999970703126
0,200,158304,2,0,P|2:152|24:110,1,95.9999970703126,10|0,0:0|0:0,0:0:0:0:
236,76,158515,2,0,P|283:73|325:51,1,95.9999970703126,2|0,0:0|0:0,0:0:0:0:
472,156,158726,2,0,P|429:134|382:131,1,95.9999970703126,10|0,0:0|0:0,0:0:0:0:
238,290,158938,6,0,L|194:150,1,128,6|8,0:0|0:0,0:0:0:0:
288,376,159255,6,0,L|239:221,1,160,6|8,0:0|0:0,0:0:0:0:
320,4,159572,6,0,L|348:95,1,95.9999970703126,6|0,0:0|0:0,0:0:0:0:
384,188,159783,1,8,0:0:0:0:
192,380,159888,6,0,L|163:288,1,95.9999970703126,6|0,0:0|0:0,0:0:0:0:
128,196,160100,1,8,0:0:0:0:
156,84,160205,1,0,0:0:0:0:
236,168,160311,2,0,P|240:184|240:208,6,23.9999992675781,2|2|2|2|2|2|2,2:0|2:0|2:0|2:0|2:0|2:0|2:0,0:0:0:0:
240,208,160522,6,0,P|268:152|224:24,1,191.999994140625,4|0,0:0|0:0,0:0:0:0:
0,108,160839,2,0,L|132:132,1,95.9999970703126,10|0,0:0|0:0,0:0:0:0:
308,280,161050,2,0,L|176:304,1,95.9999970703126,2|0,0:0|0:0,0:0:0:0:
384,188,161262,1,8,0:0:0:0:
484,244,161367,6,0,P|496:188|408:68,1,191.999994140625,2|0,0:0|0:0,0:0:0:0:
156,84,161684,1,10,0:0:0:0:
260,100,161790,1,2,0:0:0:0:
364,116,161895,2,0,L|344:8,2,95.9999970703126,2|2|8,0:0|0:0|0:0,0:0:0:0:
139,260,162212,6,0,P|202:192|296:196,1,191.999994140625,6|0,0:0|0:0,0:0:0:0:
232,376,162529,2,0,P|248:328|232:260,1,95.9999970703126,10|0,0:0|0:0,0:0:0:0:
48,200,162741,2,0,P|32:248|48:316,1,95.9999970703126,2|0,0:0|0:0,0:0:0:0:
212,188,162952,1,8,0:0:0:0:
156,84,163057,6,0,B|80:64|20:112|20:112|64:136,1,191.999994140625,2|0,0:0|0:0,0:0:0:0:
248,8,163374,2,0,P|272:60|268:120,1,95.9999970703126,8|0,0:0|0:0,0:0:0:0:
172,284,163586,1,2,0:0:0:0:
236,200,163691,1,2,0:0:0:0:
340,180,163797,1,8,0:0:0:0:
420,248,163903,6,0,P|432:192|468:56,1,191.999994140625,6|0,0:0|0:0,0:0:0:0:
324,280,164219,2,0,L|332:372,1,80,10|0,0:0|0:0,0:0:0:0:
236,200,164431,2,0,L|229:120,1,80,2|0,0:0|0:0,0:0:0:0:
332,24,164642,1,8,0:0:0:0:
332,24,164748,6,0,P|303:69|176:63,1,191.999994140625,2|0,0:0|0:0,0:0:0:0:
28,204,165065,2,0,L|148:184,1,95.9999970703126,10|0,0:0|0:0,0:0:0:0:
324,280,165276,2,0,L|204:260,1,95.9999970703126,2|0,0:0|0:0,0:0:0:0:
124,320,165487,1,8,0:0:0:0:
56,92,165593,6,0,L|290:53,1,223.999993164063,6|0,0:0|0:0,0:0:0:0:
424,256,165910,2,0,P|416:328|376:368,1,111.999996582031,10|0,0:0|0:0,0:0:0:0:
224,300,166121,2,0,P|232:228|272:188,1,111.999996582031,2|0,0:0|0:0,0:0:0:0:
364,156,166332,1,8,0:0:0:0:
124,320,166438,6,0,P|186:271|332:284,1,223.999993164063,2|0,0:0|0:0,0:0:0:0:
392,356,166755,1,8,0:0:0:0:
392,356,166860,1,0,0:0:0:0:
364,156,166966,5,0,0:0:0:0:
264,168,167072,1,0,0:0:0:0:
164,180,167177,1,0,0:0:0:0:
56,196,167283,1,4,0:0:0:0:
