osu file format v14

[General]
AudioFilename: audio.mp3
AudioLeadIn: 0
PreviewTime: 180696
Countdown: 0
SampleSet: Soft
StackLeniency: 0.4
Mode: 0
LetterboxInBreaks: 0
WidescreenStoryboard: 1

[Editor]
DistanceSpacing: 0.7
BeatDivisor: 4
GridSize: 4
TimelineZoom: 1.9

[Metadata]
Title:Otome Kaibou
TitleUnicode:乙女解剖
Artist:mafumafu
ArtistUnicode:まふまふ
Creator:Mononymous
Version:Seolv's Insane
Source:
Tags:utaite android girl deco*27 deco 27 kaidou dissection vocaloid japanese pop jpop cover アンドロイドガール Hazu- Seolv lukas [_l_u_k_a_s_] YelloJello
BeatmapID:2726666
BeatmapSetID:1084551

[Difficulty]
HPDrainRate:5
CircleSize:4.2
OverallDifficulty:8
ApproachRate:9
SliderMultiplier:2.3
SliderTickRate:1

[Events]
//Background and Video events
0,0,"mafumafu - Otome Kaibou.jpg",0,0
Video,0,"Otome Dissection.mp4"
//Break Periods
2,97500,111029
2,181681,188044
//Storyboard Layer 0 (Background)
//Storyboard Layer 1 (Fail)
//Storyboard Layer 2 (Pass)
//Storyboard Layer 3 (Foreground)
//Storyboard Layer 4 (Overlay)
//Storyboard Sound Samples

[TimingPoints]
2376,447.761194029851,4,2,1,60,1,0
2376,-111.111111111111,4,2,1,60,0,0
9540,-111.111111111111,4,2,1,60,0,0
10323,-111.111111111111,4,2,1,5,0,0
10435,-111.111111111111,4,2,1,60,0,0
11107,-111.111111111111,4,2,1,62,0,0
11443,-111.111111111111,4,2,1,5,0,0
11555,-100,4,2,1,64,0,0
11890,-100,4,2,1,5,0,0
12002,-95.2380952380952,4,2,1,66,0,0
12338,-95.2380952380952,4,2,1,5,0,0
12450,-90.9090909090909,4,2,1,68,0,0
12898,-86.9565217391304,4,2,1,70,0,0
13234,-86.9565217391304,4,2,1,5,0,0
13346,-100,4,2,1,80,0,0
14493,-100,4,2,2,100,0,0
14801,-100,4,2,1,5,0,0
14913,-90.9090909090909,4,2,1,80,0,0
29241,-200,4,2,1,60,0,0
34614,-200,4,3,1,60,0,0
34726,-200,4,2,1,60,0,0
41778,-200,4,2,1,80,0,0
43122,-153.846153846154,4,2,1,80,0,0
43570,-117.647058823529,4,2,1,70,0,0
44913,-117.647058823529,4,2,1,70,0,0
45025,-117.647058823529,4,2,1,70,0,0
46704,-117.647058823529,4,2,1,70,0,0
46816,-117.647058823529,4,2,1,70,0,0
48495,-117.647058823529,4,2,1,70,0,0
48607,-117.647058823529,4,2,1,70,0,0
50286,-117.647058823529,4,2,1,70,0,0
50398,-117.647058823529,4,2,1,70,0,0
56107,-200,4,2,2,80,0,0
56555,-200,4,2,2,5,0,0
56778,-200,4,2,1,70,0,0
57898,-100,4,2,1,70,0,0
58234,-100,4,2,1,5,0,0
58346,-100,4,2,1,70,0,0
60025,-100,4,2,1,5,0,0
60137,-100,4,2,1,70,0,0
61816,-100,4,2,1,5,0,0
61928,-100,4,2,1,70,0,0
63047,-100,4,3,1,70,0,0
63122,-100,4,2,1,70,0,0
63607,-100,4,2,1,5,0,0
63719,-100,4,2,1,70,0,0
65062,-90.9090909090909,4,2,1,70,0,0
66741,-90.9090909090909,4,2,1,5,0,0
66853,-111.111111111111,4,2,1,80,0,0
70015,-111.111111111111,4,2,2,100,0,0
70323,-111.111111111111,4,2,1,5,0,0
70435,-66.6666666666667,4,2,1,85,0,1
72226,-66.6666666666667,4,3,1,85,0,1
72338,-66.6666666666667,4,2,1,5,0,1
72450,-66.6666666666667,4,2,1,85,0,1
75808,-66.6666666666667,4,3,1,85,0,1
75920,-66.6666666666667,4,2,1,5,0,1
76032,-66.6666666666667,4,2,1,85,0,1
80734,-58.8235294117647,4,2,1,85,0,1
81181,-58.8235294117647,4,3,1,85,0,1
81293,-58.8235294117647,4,2,1,5,0,1
81405,-58.8235294117647,4,2,1,85,0,1
82525,-133.333333333333,4,2,1,85,0,1
82861,-133.333333333333,4,2,1,5,0,1
82973,-66.6666666666667,4,2,1,85,0,0
84092,-66.6666666666667,4,2,1,85,0,0
84316,-125,4,2,1,85,0,0
84344,-125,4,2,1,100,0,0
84652,-125,4,2,1,5,0,0
84764,-66.6666666666667,4,2,1,85,0,1
86555,-66.6666666666667,4,3,1,85,0,1
86667,-66.6666666666667,4,2,1,5,0,1
86778,-66.6666666666667,4,2,1,85,0,1
90137,-66.6666666666667,4,3,1,85,0,1
90249,-66.6666666666667,4,2,1,5,0,1
90361,-66.6666666666667,4,2,1,85,0,1
94838,-58.8235294117647,4,2,1,85,0,1
96853,-500,4,2,1,85,0,1
97189,-500,4,2,1,5,0,1
97301,-100,4,2,1,80,0,0
111629,-100,4,2,2,70,0,0
112525,-100,4,2,1,40,0,0
112637,-100,4,2,2,42,0,0
112749,-100,4,2,1,44,0,0
112861,-100,4,2,2,46,0,0
112973,-100,4,2,1,48,0,0
113084,-100,4,2,2,50,0,0
113196,-100,4,2,1,52,0,0
113308,-100,4,2,1,5,0,0
113420,-117.647058823529,4,2,1,70,0,0
118681,-117.647058823529,4,2,1,5,0,0
118793,-117.647058823529,4,2,1,70,0,0
124167,-166.666666666667,4,2,1,60,0,0
124614,-166.666666666667,4,2,1,5,0,0
124838,-166.666666666667,4,2,1,60,0,0
124950,-166.666666666667,4,2,1,5,0,0
125062,-133.333333333333,4,2,1,60,0,0
125958,-100,4,2,1,70,0,0
126293,-100,4,2,1,5,0,0
126405,-100,4,2,1,70,0,0
128084,-100,4,2,1,5,0,0
128196,-100,4,2,1,70,0,0
129876,-100,4,2,1,5,0,0
129987,-100,4,2,1,70,0,0
133122,-90.9090909090909,4,2,1,70,0,0
134017,-100,4,2,1,70,0,0
134913,-83.3333333333333,4,2,1,70,0,0
138075,-83.3333333333333,4,2,2,100,0,0
138383,-83.3333333333333,4,2,1,5,0,0
138495,-66.6666666666667,4,2,1,85,0,1
140286,-66.6666666666667,4,3,1,85,0,1
140398,-66.6666666666667,4,2,1,5,0,1
140510,-66.6666666666667,4,2,1,85,0,1
143868,-66.6666666666667,4,3,1,85,0,1
143980,-66.6666666666667,4,2,1,5,0,1
144092,-66.6666666666667,4,2,1,85,0,1
148793,-58.8235294117647,4,2,1,85,0,1
149241,-58.8235294117647,4,3,1,85,0,1
149353,-58.8235294117647,4,2,1,85,0,1
150920,-58.8235294117647,4,2,1,5,0,1
151032,-66.6666666666667,4,2,1,85,0,0
152152,-66.6666666666667,4,2,1,85,0,0
152403,-66.6666666666667,4,2,2,100,0,0
152711,-66.6666666666667,4,2,1,5,0,0
152823,-66.6666666666667,4,2,1,85,0,1
154614,-66.6666666666667,4,3,1,85,0,1
154726,-66.6666666666667,4,2,1,5,0,1
154838,-66.6666666666667,4,2,1,85,0,1
159987,-66.6666666666667,4,3,1,85,0,1
160099,-66.6666666666667,4,2,1,5,0,1
160211,-66.6666666666667,4,2,1,85,0,1
162450,-58.8235294117647,4,2,1,85,0,1
162898,-58.8235294117647,4,2,1,85,0,1
164913,-100,4,2,1,85,0,1
165361,-76.9230769230769,4,2,1,80,0,0
179577,-76.9230769230769,4,2,1,5,0,0
179689,-76.9230769230769,4,2,1,70,0,0
179801,-76.9230769230769,4,2,1,5,0,0
180808,-76.9230769230769,4,2,1,60,0,0
181368,-76.9230769230769,4,2,1,5,0,0
181480,-76.9230769230769,4,2,1,75,0,0
190211,-76.9230769230769,4,2,1,77,0,0
190659,-76.9230769230769,4,2,1,79,0,0
191107,-76.9230769230769,4,2,1,81,0,0
191778,-76.9230769230769,4,2,1,82,0,0
192226,-76.9230769230769,4,3,1,82,0,0
192338,-76.9230769230769,4,2,1,5,0,0
192450,-76.9230769230769,4,2,1,84,0,0
193122,-76.9230769230769,4,2,1,82,0,0
193905,-76.9230769230769,4,2,1,5,0,0
194017,-90.9090909090909,4,2,1,80,0,0
195361,-90.9090909090909,4,2,1,75,0,0
195389,-90.9090909090909,4,2,2,100,0,0
195696,-90.9090909090909,4,2,1,5,0,0
195808,-66.6666666666667,4,2,1,85,0,1
197599,-66.6666666666667,4,3,1,85,0,1
197711,-66.6666666666667,4,2,1,5,0,1
197823,-66.6666666666667,4,2,1,85,0,1
201181,-66.6666666666667,4,3,1,85,0,1
201293,-66.6666666666667,4,2,1,5,0,1
201405,-66.6666666666667,4,2,1,85,0,1
205883,-58.8235294117647,4,2,1,85,0,1
207898,-153.846153846154,4,2,1,85,0,1
208234,-153.846153846154,4,2,1,5,0,1
208346,-500,4,2,1,80,0,0
211928,-83.3333333333333,4,2,1,80,0,0
220771,-500,4,2,1,5,0,0

[Colours]
Combo1 : 106,106,106
Combo2 : 255,0,0
Combo3 : 255,128,0
Combo4 : 192,192,192

[HitObjects]
155,328,1704,37,2,0:0:0:0:
230,348,1928,1,2,0:0:0:0:
303,372,2152,1,2,0:0:0:0:
409,297,2375,6,0,B|367:155|425:238|383:69,2,230,2|2|2,0:0|0:0|0:0,0:0:0:0:
409,297,3495,1,2,0:0:0:0:
353,231,3719,1,2,0:0:0:0:
268,261,3943,1,2,0:0:0:0:
268,261,4390,1,2,0:0:0:0:
38,109,4838,37,2,0:0:0:0:
171,60,5062,1,2,0:0:0:0:
153,199,5286,1,2,0:0:0:0:
76,23,5510,5,2,0:0:0:0:
237,141,5734,1,2,0:0:0:0:
48,232,5958,2,0,P|146:250|186:342,2,206.999993682861,2|2|2,0:0|0:0|0:0,0:0:0:0:
212,274,7077,37,2,0:0:0:0:
283,257,7301,1,2,0:0:0:0:
330,312,7525,1,2,0:0:0:0:
330,312,7973,1,2,0:0:0:0:
384,72,8420,5,2,0:0:0:0:
359,183,8644,1,2,0:0:0:0:
384,72,8868,1,2,0:0:0:0:
460,143,9092,37,2,0:0:0:0:
288,105,9316,1,2,0:0:0:0:
116,67,9540,1,0,0:0:0:0:
270,249,9987,6,0,L|238:44,1,206.999993682861,2|2,0:0|0:0,0:0:0:0:
112,174,10659,2,0,L|214:189,1,103.499996841431,0|2,0:0|0:0,0:0:0:0:
389,260,11107,38,0,P|318:279|309:352,1,155.249995262146,2|0,0:0|0:0,0:0:0:0:
321,363,11555,2,0,P|264:303|185:325,1,172.5,2|0,0:0|0:0,0:0:0:0:
174,314,12002,6,0,P|117:373|20:324,1,181.124994472504,2|0,0:0|0:0,0:0:0:0:
29,335,12450,38,0,P|32:271|40:209,1,126.500003860474,2|0,0:0|0:0,0:0:0:0:
167,73,12898,1,2,0:0:0:0:
167,73,13346,5,2,0:0:0:0:
372,118,13570,1,2,0:0:0:0:
324,64,13793,1,2,0:0:0:0:
216,268,14017,37,2,0:0:0:0:
229,343,14241,1,2,0:0:0:0:
216,268,14465,1,2,0:0:0:0:
41,316,14913,22,0,B|26:298|21:269|21:269|55:243|97:249|97:249|120:271|165:285,1,189.750005790711,6|0,3:2|0:0,0:0:0:0:
289,199,15362,2,0,P|253:197|228:287,1,126.500003860474,8|0,0:0|0:0,0:0:0:0:
225,281,15697,1,0,0:0:0:0:
146,358,15809,2,0,P|178:301|187:161,1,189.750005790711,0|0,3:0|2:0,0:0:0:0:
157,111,16257,1,8,0:0:0:0:
120,240,16480,2,0,P|136:272|226:248,1,126.500003860474,0|0,0:0|3:0,0:0:0:0:
73,322,16929,5,0,0:0:0:0:
217,253,17153,1,8,0:0:0:0:
349,355,17377,1,0,0:0:0:0:
251,347,17600,37,0,3:0:0:0:
200,239,17824,1,0,0:0:0:0:
163,316,18048,1,8,0:0:0:0:
208,289,18272,1,0,0:0:0:0:
106,220,18496,6,0,B|50:223|11:255|11:255|23:287|23:287|34:315|79:304,1,189.750005790711,0|0,3:0|0:0,0:0:0:0:
182,210,18944,2,0,P|164:165|90:144,1,126.500003860474,8|0,0:0|0:0,0:0:0:0:
77,146,19279,1,0,0:0:0:0:
152,280,19390,2,0,B|210:312|253:273|235:247|295:226|353:275,1,189.750005790711,0|0,3:0|0:0,0:0:0:0:
395,317,19838,1,8,0:0:0:0:
231,375,20062,2,0,P|212:316|245:265,1,126.500003860474,0|0,0:0|3:0,0:0:0:0:
379,213,20511,37,0,0:0:0:0:
232,156,20735,1,8,0:0:0:0:
394,67,21071,5,0,0:0:0:0:
403,76,21182,2,0,P|397:104|374:138,1,63.2500019302369,0|0,3:0|0:0,0:0:0:0:
315,41,21406,2,0,P|297:67|291:98,1,63.2500019302369,0|0,0:0|0:0,0:0:0:0:
379,213,21630,2,0,P|330:146|232:157,1,189.750005790711,8|0,0:0|0:0,0:0:0:0:
150,266,22077,38,0,B|132:281|116:289|116:289|94:254|100:211|100:211|125:194|136:149,1,189.750005790711,0|0,3:0|0:0,0:0:0:0:
46,30,22526,2,0,P|22:69|57:142,1,126.500003860474,8|0,0:0|0:0,0:0:0:0:
60,145,22861,1,0,0:0:0:0:
162,197,22973,2,0,P|80:186|13:272,1,189.750005790711,0|0,3:0|0:0,0:0:0:0:
21,347,23421,1,8,0:0:0:0:
195,331,23644,2,0,P|126:386|66:373,1,126.500003860474,0|0,0:0|3:0,0:0:0:0:
116,287,24093,5,0,0:0:0:0:
276,249,24317,1,8,0:0:0:0:
114,273,24541,1,0,0:0:0:0:
231,175,24764,37,0,3:0:0:0:
138,197,24988,1,0,0:0:0:0:
184,101,25212,5,8,0:0:0:0:
138,197,25436,1,0,0:0:0:0:
312,276,25660,38,0,B|315:226|333:182|333:182|329:160|299:146|299:146|303:178|289:214,1,189.750005790711,0|0,3:0|0:0,0:0:0:0:
298,347,26108,2,0,P|357:334|386:279,1,126.500003860474,8|0,0:0|0:0,0:0:0:0:
211,88,26556,2,0,P|192:146|225:197,1,126.500003860474,0|0,3:0|0:0,0:0:0:0:
297,187,26891,2,0,P|315:128|282:77,1,126.500003860474,8|0,0:0|0:0,0:0:0:0:
245,61,27227,1,8,0:0:0:0:
122,213,27451,5,8,0:3:0:0:
297,187,27675,1,8,0:3:0:0:
211,86,27899,1,8,0:3:0:0:
217,271,28123,1,8,0:3:0:0:
217,271,28235,1,8,0:3:0:0:
20,346,28794,37,2,3:1:0:0:
20,346,28906,2,0,P|80:318|147:313,1,126.500003860474,2|2,3:1|0:1,0:0:0:0:
198,360,29242,21,2,3:2:0:0:
302,271,29690,1,2,3:2:0:0:
268,340,30137,5,2,3:2:0:0:
268,340,30361,1,2,0:0:0:0:
308,199,30585,37,2,3:2:0:0:
308,199,30809,1,2,0:0:0:0:
308,199,31033,2,0,L|233:186,1,57.5,0|2,3:0|0:0,0:0:0:0:
367,145,31481,2,0,L|347:91,1,57.5,2|2,3:2|0:2,0:0:0:0:
381,223,31929,1,0,3:0:0:0:
484,300,32153,5,2,0:0:0:0:
455,232,32377,1,2,3:2:0:0:
381,223,32600,1,2,0:0:0:0:
332,277,32824,1,2,3:2:0:0:
455,232,33272,1,2,3:2:0:0:
381,223,33720,1,2,3:2:0:0:
332,277,33944,1,2,0:0:0:0:
455,232,34168,1,2,3:2:0:0:
484,300,34391,1,2,0:0:0:0:
405,331,34614,38,0,P|374:309|367:279,1,57.5,0|2,0:0|0:0,0:0:0:0:
484,300,35063,2,0,P|499:276|499:247,1,57.5,2|2,3:2|0:0,0:0:0:0:
470,374,35511,1,0,3:0:0:0:
470,374,35959,1,2,3:2:0:0:
226,268,36405,6,0,P|207:244|207:229,2,38.3333333333333,2|2|2,3:2|0:0|0:0,0:0:0:0:
205,230,36853,2,0,P|216:201|229:194,2,38.3333333333333,2|2|2,3:2|0:0|0:0,0:0:0:0:
220,189,37301,2,0,P|250:184|263:192,2,38.3333333333333,2|2|2,3:2|0:0|0:0,0:0:0:0:
260,183,37749,2,0,P|279:207|279:222,2,38.3333333333333,2|2|2,3:2|0:0|0:0,0:0:0:0:
145,119,38197,38,0,L|103:113,3,28.75,2|2|2|0,3:2|0:0|0:0|0:0,0:0:0:0:
158,108,38645,1,2,3:2:0:0:
139,197,38869,1,2,0:0:0:0:
125,274,39092,6,0,L|167:268,3,28.75,2|2|2|2,3:2|0:0|0:0|0:0,0:0:0:0:
112,263,39541,1,2,3:2:0:0:
131,352,39765,1,2,0:0:0:0:
56,327,39988,1,0,3:0:0:0:
56,327,40211,2,0,L|121:350,1,57.5,2|2,3:2|3:2,0:0:0:0:
250,289,40660,37,2,3:2:0:0:
250,289,40884,2,0,L|254:219,1,57.5,2|2,3:2|3:2,0:0:0:0:
333,292,41332,2,0,L|337:222,1,57.5,2|2,3:2|3:2,0:0:0:0:
337,219,41668,1,0,3:0:0:0:
338,202,41779,1,2,3:2:0:0:
26,90,43122,6,0,P|54:71|107:74,1,74.7499965782167,10|2,0:0|0:1,0:0:0:0:
173,152,43570,37,2,3:2:0:0:
24,214,43906,1,8,0:3:0:0:
24,214,44018,2,0,P|46:172|108:156,1,97.7500018644333,2|8,3:1|0:3,0:0:0:0:
109,294,44466,2,0,P|153:276|175:234,1,97.7500018644333,2|2,3:2|0:0,0:0:0:0:
173,152,44914,1,2,3:2:0:0:
278,240,45137,6,0,B|234:215|170:244|208:280|172:309|119:311|86:280,1,195.500003728867,2|2,0:0|0:0,0:0:0:0:
249,345,45809,1,10,0:0:0:0:
315,381,46033,2,0,P|376:359|420:349,1,97.7500018644333,8|0,0:3|3:0,0:0:0:0:
430,350,46369,1,8,0:3:0:0:
430,350,46481,2,0,P|442:302|459:257,2,97.7500018644333,2|10|2,3:2|0:0|0:0,0:0:0:0:
314,273,47153,38,0,P|281:216|314:148,1,146.62500279665,2|0,3:2|0:0,0:0:0:0:
329,140,47600,2,0,L|446:154,1,97.7500018644333,10|8,0:0|0:3,0:0:0:0:
241,229,48048,1,2,3:2:0:0:
241,229,48160,1,8,0:3:0:0:
241,229,48272,2,0,L|169:220,1,48.8750009322167,2|0,0:0|0:0,0:0:0:0:
138,274,48496,1,10,0:0:0:0:
266,364,48720,5,2,0:0:0:0:
340,237,48944,2,0,L|328:139,1,97.7500018644333,0|2,0:0|0:0,0:0:0:0:
323,117,49279,1,8,0:3:0:0:
323,117,49391,1,10,0:0:0:0:
193,15,49614,2,0,P|212:72|181:112,1,97.7500018644333,8|0,0:3|3:0,0:0:0:0:
175,119,49951,2,0,L|114:109,1,48.8750009322167,8|0,0:3|0:0,0:0:0:0:
43,167,50287,1,10,0:0:0:0:
43,167,50510,1,0,0:0:0:0:
147,269,50735,38,0,P|161:229|154:200,2,65.1666679096222,2|0|0,3:2|0:0|0:0,0:0:0:0:
107,332,51182,2,0,P|134:364|163:372,2,65.1666679096222,10|0|2,0:0|0:0|0:0,0:0:0:0:
72,265,51630,2,0,P|30:272|8:293,2,65.1666679096222,2|2|2,3:2|0:0|0:0,0:0:0:0:
147,269,52077,2,0,P|176:282|195:308,2,65.1666679096222,10|2|2,0:0|0:0|0:0,0:0:0:0:
2,370,52526,5,2,3:2:0:0:
2,370,52638,1,0,0:0:0:0:
2,370,52749,1,2,0:1:0:0:
2,370,52862,1,0,0:0:0:0:
2,370,52974,1,10,0:0:0:0:
195,308,53197,1,8,0:3:0:0:
324,352,53420,38,0,P|352:331|362:294,1,48.8750009322167,2|8,3:2|0:3,0:0:0:0:
301,275,53645,2,0,P|280:287|268:308,1,48.8750009322167,2|0,3:2|0:0,0:0:0:0:
336,359,53869,6,0,P|364:338|374:301,1,48.8750009322167,10|2,0:0|0:0,0:0:0:0:
296,267,54093,2,0,P|275:279|261:299,1,48.8750009322167,2|0,0:0|0:0,0:0:0:0:
260,384,54317,1,0,3:0:0:0:
374,246,54540,38,0,P|385:165|420:53,1,195.500003728867,2|0,0:0|0:0,0:0:0:0:
356,146,55212,2,0,P|309:170|283:173,3,48.8750009322167,2|8|2|0,3:2|0:3|0:0|0:0,0:0:0:0:
288,188,55660,2,0,P|244:159|193:151,1,97.7500018644333,10|0,3:0|0:0,0:0:0:0:
90,240,56108,5,4,0:0:0:0:
79,229,56778,2,0,L|74:209,2,14.375,8|0|8,0:3|0:0|0:3,0:0:0:0:
90,240,57003,37,8,0:1:0:0:
226,221,57227,1,8,0:1:0:0:
269,90,57451,1,8,3:1:0:0:
248,94,57563,1,8,0:1:0:0:
235,108,57674,1,8,0:1:0:0:
319,231,57899,5,4,3:2:0:0:
398,231,58123,1,0,0:0:0:0:
444,296,58347,2,0,P|449:250|468:165,2,115,2|0|10,0:0|0:0|0:0,0:0:0:0:
398,231,59242,1,10,0:0:0:0:
319,231,59466,1,0,0:0:0:0:
444,296,59690,1,0,3:0:0:0:
393,70,60138,38,0,B|348:78|348:78|337:97|337:97|288:109,2,115,2|0|8,0:1|0:0|0:0,0:0:0:0:
291,108,61033,1,2,0:1:0:0:
198,146,61257,1,0,0:0:0:0:
291,108,61481,1,0,3:0:0:0:
214,311,61928,6,0,B|190:328|159:332|159:332|144:306|80:303,2,115,2|0|10,0:1|0:0|0:0,0:0:0:0:
111,306,62824,1,2,0:1:0:0:
28,368,63048,1,2,3:2:0:0:
214,311,63272,1,2,3:2:0:0:
17,277,63720,37,2,0:1:0:0:
24,206,63944,1,0,0:0:0:0:
32,132,64168,1,8,0:0:0:0:
32,132,64615,1,2,0:1:0:0:
24,206,64839,1,2,0:0:0:0:
94,262,65063,6,0,B|135:222|162:200|233:218|233:218|222:235|194:242,1,189.750005790711,10|0,0:0|0:0,0:0:0:0:
188,243,65511,1,10,0:0:0:0:
117,130,65847,1,0,0:0:0:0:
117,130,65959,2,0,P|167:119|254:133,2,126.500003860474,10|0|8,0:0|0:0|0:0,0:0:0:0:
232,253,66854,37,8,3:0:0:0:
311,295,67078,1,8,0:0:0:0:
399,287,67302,1,8,3:0:0:0:
457,217,67526,1,8,0:0:0:0:
232,253,67749,6,0,L|212:325,1,51.7499984207154,8|8,3:0|0:0,0:0:0:0:
311,294,67974,2,0,L|310:368,1,51.7499984207154,0|0,0:0|0:0,0:0:0:0:
399,287,68196,2,0,L|417:359,1,51.7499984207154,8|8,3:0|0:0,0:0:0:0:
457,217,68420,2,0,L|509:270,1,51.7499984207154,8|8,3:0|0:0,0:0:0:0:
218,302,68869,37,10,0:0:0:0:
9,265,69093,1,10,0:0:0:0:
46,56,69317,1,10,0:0:0:0:
255,93,69541,1,10,0:0:0:0:
74,210,69764,5,2,0:0:0:0:
143,156,69988,1,2,0:0:0:0:
178,230,70212,1,0,0:0:0:0:
14,375,70436,6,0,P|-2:283|5:141,1,172.500006580353,6|0,3:2|0:0,0:0:0:0:
13,188,70772,1,0,0:0:0:0:
1,113,70884,2,0,P|108:113|169:253,1,258.75000987053,10|0,0:0|0:0,0:0:0:0:
127,291,71332,1,2,3:2:0:0:
177,142,71556,1,2,0:0:0:0:
337,124,71779,1,10,0:0:0:0:
293,339,72003,6,0,B|265:342|243:360|243:360|221:307|221:230|265:166,1,258.75000987053,2|0,0:0|0:0,0:0:0:0:
356,183,72451,2,0,P|351:243|336:270,1,86.2500032901765,2|0,0:0|0:0,0:0:0:0:
204,293,72675,1,8,0:0:0:0:
327,103,72899,1,2,0:0:0:0:
422,309,73123,38,0,P|327:327|253:382,2,172.500006580353,2|2|10,3:2|0:0|0:0,0:0:0:0:
285,381,73794,1,2,0:0:0:0:
304,170,74017,6,0,P|390:171|475:187,1,172.500006580353,2|0,3:2|0:0,0:0:0:0:
493,211,74353,1,0,0:0:0:0:
484,111,74465,2,0,B|395:110|373:179|405:200|375:272|285:258,1,258.75000987053,10|2,0:0|0:0,0:0:0:0:
236,216,74914,1,2,3:2:0:0:
360,59,75138,1,2,0:0:0:0:
422,242,75361,1,10,0:0:0:0:
186,276,75585,38,0,B|39:237|81:86|214:157|71:270,1,258.75000987053,2|0,0:0|0:0,0:0:0:0:
23,208,76033,2,0,P|21:176|41:120,1,86.2500032901765,2|0,0:0|0:0,0:0:0:0:
142,87,76257,1,8,0:0:0:0:
285,304,76481,6,0,P|199:309|128:355,2,172.500006580353,2|2|2,0:0|3:2|0:0,0:0:0:0:
115,374,77153,1,10,0:0:0:0:
263,173,77377,1,2,0:0:0:0:
372,370,77600,38,0,B|391:275|391:275|398:271|398:271|427:107,1,258.75000987053,0|0,3:0|0:0,0:0:0:0:
257,10,78048,2,0,P|236:66|341:64,1,172.500006580353,10|0,0:0|0:0,0:0:0:0:
437,274,78496,5,2,3:2:0:0:
363,293,78720,1,2,0:0:0:0:
437,274,78944,1,10,0:0:0:0:
195,224,79168,38,0,P|141:240|93:289,1,86.2500032901765,2|0,0:0|0:0,0:0:0:0:
81,327,79391,1,0,3:0:0:0:
91,82,79615,6,0,P|39:173|35:255,1,172.500006580353,2|8,0:0|0:0,0:0:0:0:
257,351,80063,2,0,P|309:260|178:242,1,258.75000987053,2|0,0:0|0:0,0:0:0:0:
170,300,80511,1,0,0:0:0:0:
179,308,80623,1,2,0:0:0:0:
242,279,80735,38,0,P|266:249|257:183,1,97.7500018644333,10|0,0:0|0:0,0:0:0:0:
65,14,80959,6,0,B|144:36|137:123|137:123|168:42|272:51,1,293.2500055933,2|0,0:0|0:0,0:0:0:0:
281,56,81406,1,2,0:0:0:0:
386,184,81630,1,10,0:0:0:0:
242,279,81854,1,2,0:0:0:0:
296,184,82078,37,0,3:0:0:0:
392,323,82302,1,2,0:0:0:0:
292,371,82526,2,0,P|288:335|311:292,1,86.2500032901765,10|0,0:0|0:0,0:0:0:0:
495,86,82973,6,0,P|423:142|291:183,2,172.500006580353,8|2|8,0:3|0:1|0:3,0:0:0:0:
370,253,83645,1,8,0:3:0:0:
382,243,83756,2,0,P|314:189|235:156,1,172.500006580353,8|0,0:3|0:0,0:0:0:0:
196,236,84093,38,0,P|212:282|232:279,3,57.500002193451,4|2|0|8,0:1|0:0|0:0|0:1,0:0:0:0:
235,156,84540,1,0,0:0:0:0:
79,355,84765,6,0,B|46:345|46:345|70:249|70:249|30:236,1,172.500006580353,6|0,3:2|0:0,0:0:0:0:
6,233,85099,1,0,0:0:0:0:
100,283,85211,2,0,L|383:228,1,258.75000987053,10|0,0:0|0:0,0:0:0:0:
340,258,85659,1,2,3:2:0:0:
191,171,85883,1,2,0:0:0:0:
214,30,86107,1,10,0:0:0:0:
414,68,86332,38,0,B|314:95|314:95|287:142|287:142|160:179,1,258.75000987053,2|0,0:0|0:0,0:0:0:0:
292,235,86778,2,0,P|317:206|310:160,1,86.2500032901765,2|0,0:0|0:0,0:0:0:0:
214,30,87002,1,8,0:0:0:0:
91,144,87226,1,2,0:0:0:0:
225,302,87450,6,0,P|316:320|379:276,2,172.500006580353,2|2|10,3:2|0:0|0:0,0:0:0:0:
362,245,88123,1,2,0:0:0:0:
457,384,88347,38,0,P|458:298|474:213,1,172.500006580353,2|0,3:2|0:0,0:0:0:0:
493,211,88681,1,0,0:0:0:0:
469,117,88794,2,0,P|337:100|307:258,1,258.75000987053,10|0,0:0|0:0,0:0:0:0:
282,224,89241,1,2,3:2:0:0:
360,59,89465,1,2,0:0:0:0:
181,52,89689,1,10,0:0:0:0:
56,225,89914,6,0,B|161:244|161:244|210:234|228:176|201:145|201:145|158:159,1,258.75000987053,2|0,0:0|0:0,0:0:0:0:
121,256,90362,2,0,P|111:285|138:337,1,86.2500032901765,2|0,0:0|0:0,0:0:0:0:
253,384,90584,1,8,0:0:0:0:
300,214,90808,38,0,P|295:128|248:56,2,172.500006580353,2|2|2,0:0|3:2|0:0,0:0:0:0:
167,13,91480,1,10,0:0:0:0:
300,214,91704,1,2,0:0:0:0:
20,184,91928,6,0,B|101:154|136:241|102:264|161:338|225:297,1,258.75000987053,0|0,3:0|0:0,0:0:0:0:
384,148,92377,2,0,P|328:127|330:232,1,172.500006580353,10|0,0:0|0:0,0:0:0:0:
490,351,92823,37,2,3:2:0:0:
501,279,93047,1,2,0:0:0:0:
490,351,93271,1,10,0:0:0:0:
288,103,93495,6,0,P|234:119|186:168,1,86.2500032901765,2|0,0:0|0:0,0:0:0:0:
151,223,93720,1,0,3:0:0:0:
143,82,93944,38,0,P|206:30|347:23,1,172.500006580353,2|8,0:0|0:0,0:0:0:0:
381,229,94391,2,0,P|318:281|177:288,1,172.500006580353,2|0,0:0|3:0,0:0:0:0:
0,214,94839,6,0,P|169:190|116:390,1,391.000007457733,2|2,0:0|0:0,0:0:0:0:
96,383,95511,1,4,3:2:0:0:
31,140,95735,37,2,0:0:0:0:
67,133,95847,1,0,0:0:0:0:
99,127,95959,1,14,0:2:0:0:
286,103,96182,1,2,0:0:0:0:
96,46,96406,5,6,0:2:0:0:
245,183,96630,1,6,0:2:0:0:
394,320,96853,2,0,L|402:275,1,46,6|2,0:2|0:0,0:0:0:0:
173,152,111629,5,4,0:0:0:0:
493,350,113421,6,0,P|499:278|453:223,1,146.62500279665,6|8,3:2|0:3,0:0:0:0:
415,305,113868,1,10,3:2:0:0:
257,377,114092,2,0,P|196:355|152:345,1,97.7500018644333,8|2,0:3|3:2,0:0:0:0:
108,294,114428,1,8,0:3:0:0:
108,294,114540,2,0,P|153:276|201:264,2,97.7500018644333,2|10|2,3:2|0:0|0:0,0:0:0:0:
314,269,115212,38,0,P|281:212|314:144,1,146.62500279665,2|8,3:2|0:3,0:0:0:0:
343,127,115659,2,0,L|460:141,1,97.7500018644333,10|2,0:0|0:0,0:0:0:0:
244,28,116107,1,2,3:2:0:0:
244,28,116219,1,8,0:3:0:0:
244,28,116331,2,0,L|237:76,1,48.8750009322167,2|0,0:0|0:0,0:0:0:0:
356,6,116555,1,10,0:0:0:0:
440,138,116779,5,2,0:0:0:0:
314,269,117003,2,0,L|216:281,1,97.7500018644333,0|2,3:0|0:0,0:0:0:0:
183,289,117338,1,8,3:0:0:0:
183,289,117450,1,8,0:0:0:0:
280,82,117674,2,0,P|299:139|268:179,1,97.7500018644333,10|0,0:3|3:0,0:0:0:0:
262,178,118010,2,0,L|201:168,1,48.8750009322167,8|0,0:3|0:0,0:0:0:0:
42,146,118346,1,10,0:0:0:0:
42,146,118570,1,0,0:0:0:0:
142,291,118793,38,0,P|182:305|211:298,2,65.1666679096222,2|2|2,3:2|0:0|0:0,0:0:0:0:
79,251,119241,2,0,P|47:278|39:307,2,65.1666679096222,10|2|2,0:0|0:0|0:0,0:0:0:0:
146,216,119689,2,0,P|139:174|118:152,2,65.1666679096222,2|2|2,3:2|0:0|0:0,0:0:0:0:
142,291,120137,2,0,P|129:320|103:339,2,65.1666679096222,10|2|2,0:0|0:0|0:0,0:0:0:0:
44,180,120585,5,2,3:2:0:0:
44,180,120697,1,2,0:0:0:0:
44,180,120809,1,2,0:0:0:0:
44,180,120921,1,8,0:3:0:0:
44,180,121033,1,10,0:0:0:0:
194,121,121256,1,8,0:3:0:0:
54,0,121480,38,0,P|26:21|16:58,3,48.8750009322167,2|8|2|2,3:2|0:3|3:2|0:0,0:0:0:0:
33,51,121929,1,10,0:0:0:0:
193,118,122153,1,2,0:0:0:0:
167,127,122377,1,0,3:0:0:0:
321,36,122600,6,0,P|310:117|305:138,2,97.7500018644333,2|10|8,0:0|0:0|0:3,0:0:0:0:
368,191,123271,2,0,P|321:215|295:218,3,48.8750009322167,2|8|2|0,3:2|0:3|0:0|0:0,0:0:0:0:
306,241,123719,2,0,P|262:212|211:204,1,97.7500018644333,8|8,3:1|0:3,0:0:0:0:
225,349,124167,37,2,0:0:0:0:
225,349,125062,5,4,3:0:0:0:
10,249,125510,1,0,3:0:0:0:
14,270,125622,1,0,0:0:0:0:
28,283,125734,1,0,3:0:0:0:
196,222,125958,37,4,0:1:0:0:
236,139,126182,1,0,0:0:0:0:
175,54,126405,2,0,B|137:47|114:76|125:80|105:103|60:92,2,115,6|0|8,0:0|0:0|0:1,0:0:0:0:
175,54,127301,1,2,3:2:0:0:
236,139,127525,1,0,0:0:0:0:
196,222,127749,1,8,3:1:0:0:
453,26,128197,6,0,B|361:38|361:38|383:69|383:69,2,115,14|0|8,0:0|0:0|0:1,0:0:0:0:
453,26,129092,1,10,0:0:0:0:
373,56,129316,1,0,0:0:0:0:
444,117,129540,1,10,3:2:0:0:
312,317,129988,38,0,B|295:293|291:262|291:262|317:247|320:183,2,115,14|0|8,0:0|0:0|0:1,0:0:0:0:
316,214,130883,1,10,3:2:0:0:
242,268,131107,1,0,0:0:0:0:
150,260,131331,1,2,3:2:0:0:
5,83,131668,5,0,3:0:0:0:
5,83,131779,2,0,P|26:161|34:229,1,115,2|0,0:1|0:0,0:0:0:0:
115,48,132227,37,8,0:1:0:0:
197,36,132451,1,0,3:0:0:0:
63,115,132674,1,8,0:1:0:0:
197,36,132899,1,2,0:1:0:0:
245,294,133123,6,0,B|192:309|151:254|182:230|134:187|70:208,1,189.750005790711,10|0,0:0|0:0,0:0:0:0:
89,292,133571,2,0,B|142:307|183:252|152:228|200:185|264:206,1,189.750005790711,10|0,0:0|0:0,0:0:0:0:
311,244,134018,37,10,0:0:0:0:
261,119,134242,1,2,0:0:0:0:
311,244,134466,2,0,P|328:168|352:100,1,115,10|0,2:0|0:0,0:0:0:0:
104,97,134913,5,8,3:0:0:0:
173,131,135137,1,8,0:0:0:0:
29,138,135361,1,8,3:0:0:0:
189,208,135585,1,8,0:0:0:0:
27,362,135808,38,0,P|85:328|119:318,1,68.9999978942872,8|8,3:0|0:0,0:0:0:0:
250,255,136032,2,0,P|221:235|190:220,1,68.9999978942872,8|8,3:0|0:0,0:0:0:0:
20,243,136256,6,0,P|87:242|121:250,1,68.9999978942872,8|8,3:0|0:0,0:0:0:0:
217,380,136480,2,0,P|202:348|182:320,1,68.9999978942872,8|8,3:0|0:0,0:0:0:0:
182,320,136928,37,10,0:0:0:0:
45,103,137152,1,10,0:0:0:0:
312,83,137376,1,10,0:0:0:0:
142,200,137599,5,10,0:0:0:0:
187,121,137824,1,2,0:0:0:0:
275,166,138048,1,2,0:0:0:0:
230,245,138272,1,0,0:0:0:0:
503,384,138496,6,0,B|467:362|467:362|490:234,1,172.500006580353,4|0,3:2|0:0,0:0:0:0:
499,214,138831,1,0,0:0:0:0:
452,132,138944,2,0,B|361:149|361:149|334:197|334:197|218:226,1,258.75000987053,10|0,0:0|0:0,0:0:0:0:
191,232,139391,1,2,3:2:0:0:
304,82,139615,1,2,0:0:0:0:
379,269,139838,1,10,0:0:0:0:
166,340,140062,6,0,B|147:211|147:211|150:200|150:200|130:85,1,258.75000987053,2|0,0:0|0:0,0:0:0:0:
174,15,140510,2,0,P|206:43|214:85,1,86.2500032901765,2|0,0:0|0:0,0:0:0:0:
98,212,140734,1,8,0:0:0:0:
260,281,140958,1,2,0:0:0:0:
367,117,141182,38,0,P|295:70|206:89,2,172.500006580353,2|2|10,3:2|0:0|0:0,0:0:0:0:
260,281,141853,1,2,0:0:0:0:
83,69,142077,6,0,P|97:153|99:239,1,172.500006580353,2|0,3:2|0:0,0:0:0:0:
79,256,142413,1,0,0:0:0:0:
5,224,142526,2,0,P|45:347|184:344,1,258.75000987053,10|0,0:0|0:0,0:0:0:0:
230,328,142973,1,2,3:2:0:0:
231,190,143197,1,2,0:0:0:0:
99,239,143420,1,10,0:0:0:0:
325,380,143645,38,0,B|451:377|451:377|491:352|490:277|408:260,1,258.75000987053,2|0,0:0|0:0,0:0:0:0:
340,205,144092,2,0,P|330:234|329:292,1,86.2500032901765,2|0,0:0|0:0,0:0:0:0:
511,340,144316,1,8,0:0:0:0:
370,115,144540,6,0,P|284:120|239:188,2,172.500006580353,0|2|2,0:0|3:2|0:0,0:0:0:0:
228,293,145212,1,10,0:0:0:0:
112,87,145436,1,2,0:0:0:0:
72,350,145660,38,0,B|57:317|33:304|33:304|99:279|180:291|246:342,1,258.75000987053,2|0,3:2|0:0,0:0:0:0:
475,181,146107,2,0,P|419:160|421:265,1,172.500006580353,10|0,0:0|0:0,0:0:0:0:
342,384,146555,5,2,3:2:0:0:
430,358,146779,1,2,0:0:0:0:
342,384,147003,1,10,0:0:0:0:
444,67,147227,38,0,P|468:103|478:145,1,86.2500032901765,2|0,0:0|0:0,0:0:0:0:
478,219,147450,1,0,3:0:0:0:
342,384,147674,6,0,P|394:293|398:211,1,172.500006580353,2|8,0:0|0:0,0:0:0:0:
170,55,148122,2,0,P|118:146|249:164,1,258.75000987053,2|0,0:0|0:0,0:0:0:0:
272,125,148570,1,0,0:0:0:0:
277,102,148682,1,0,0:0:0:0:
232,182,148794,38,0,P|229:219|257:270,1,97.7500018644333,10|0,0:0|0:0,0:0:0:0:
395,234,149018,6,0,B|305:204|253:271|306:317|230:389|137:342,1,293.2500055933,2|0,0:0|0:0,0:0:0:0:
96,310,149465,1,2,0:0:0:0:
232,182,149689,1,10,0:0:0:0:
361,330,149913,1,2,0:0:0:0:
480,101,150137,37,0,3:0:0:0:
395,234,150361,1,2,0:0:0:0:
432,371,150585,2,0,P|512:326|497:236,1,195.500003728867,10|0,0:0|0:0,0:0:0:0:
205,24,151032,6,0,P|201:120|228:223,2,172.500006580353,8|2|8,0:3|0:1|0:3,0:0:0:0:
336,266,151704,1,8,0:3:0:0:
351,259,151816,2,0,P|307:242|227:339,1,172.500006580353,8|0,0:3|0:0,0:0:0:0:
286,367,152152,38,0,P|349:361|359:346,3,57.500002193451,4|2|2|8,0:1|0:0|0:0|0:1,0:0:0:0:
196,183,152599,1,0,0:0:0:0:
53,359,152824,6,0,P|16:338|32:212,1,172.500006580353,6|0,3:2|0:0,0:0:0:0:
33,206,153159,1,0,0:0:0:0:
99,147,153271,2,0,L|382:202,1,258.75000987053,10|0,0:0|0:0,0:0:0:0:
365,178,153720,1,2,3:2:0:0:
203,218,153944,1,2,0:0:0:0:
88,36,154167,1,10,0:0:0:0:
383,59,154391,38,0,B|276:66|259:129|294:153|246:230|176:217,1,258.75000987053,2|0,0:0|0:0,0:0:0:0:
128,222,154838,2,0,P|114:184|138:145,1,86.2500032901765,2|0,0:0|0:0,0:0:0:0:
289,71,155063,1,8,0:0:0:0:
161,291,155287,1,2,0:0:0:0:
48,104,155511,6,0,P|118:58|199:78,2,172.500006580353,2|2|10,3:2|0:0|0:0,0:0:0:0:
231,138,156182,1,2,0:0:0:0:
21,287,156406,38,0,P|107:288|192:304,1,172.500006580353,2|0,3:2|0:0,0:0:0:0:
221,320,156742,1,0,0:0:0:0:
312,324,156853,2,0,P|329:192|171:162,1,258.75000987053,10|0,0:0|0:0,0:0:0:0:
169,184,157302,1,2,3:2:0:0:
367,239,157526,1,2,0:0:0:0:
337,33,157749,1,10,0:0:0:0:
183,332,157974,6,0,B|273:311|286:210|286:210|330:251|415:233,1,258.75000987053,2|0,0:0|0:0,0:0:0:0:
387,171,158421,2,0,P|352:130|320:132,1,86.2500032901765,2|0,0:0|0:0,0:0:0:0:
184,222,158645,1,8,0:0:0:0:
494,380,158869,38,0,P|489:294|443:223,2,172.500006580353,2|2|2,0:0|3:2|0:0,0:0:0:0:
323,130,159541,1,10,0:0:0:0:
433,67,159765,1,2,0:0:0:0:
314,326,159987,6,0,L|56:311,1,258.75000987053,0|0,3:0|0:0,0:0:0:0:
93,141,160436,2,0,B|148:172|148:172|130:312,1,172.500006580353,10|0,0:0|0:0,0:0:0:0:
261,101,160884,37,2,3:2:0:0:
192,51,161108,1,2,0:0:0:0:
261,101,161332,1,10,0:0:0:0:
42,272,161556,6,0,P|96:256|144:207,1,86.2500032901765,2|0,0:0|0:0,0:0:0:0:
141,161,161779,1,0,3:0:0:0:
37,355,162003,38,0,P|120:338|187:284,1,172.500006580353,2|8,0:0|0:0,0:0:0:0:
173,16,162451,6,0,P|103:85|151:166,1,195.500003728867,2|0,0:0|3:0,0:0:0:0:
429,344,162898,38,0,P|430:171|259:193,1,391.000007457733,2|0,0:0|0:0,0:0:0:0:
268,278,163570,1,0,3:0:0:0:
481,140,163794,5,2,0:0:0:0:
445,133,163906,1,0,0:0:0:0:
413,127,164018,1,0,0:0:0:0:
494,54,164241,1,2,0:0:0:0:
360,255,164465,37,2,3:2:0:0:
292,59,164689,1,2,0:0:0:0:
360,255,164914,2,0,L|367:182,3,57.5,10|0|0|0,0:0|0:0|0:0|0:0,0:0:0:0:
377,171,165362,6,0,P|280:202|150:347,2,298.999986312867,4|8|0,3:2|0:0|3:0,0:0:0:0:
99,80,166593,1,0,0:0:0:0:
99,80,166705,2,0,P|124:104|131:163,1,74.7499965782167,8|0,0:0|0:0,0:0:0:0:
190,186,166929,2,0,P|181:219|134:255,1,74.7499965782167,0|0,0:0|0:0,0:0:0:0:
24,346,167153,37,0,3:0:0:0:
28,323,167265,1,0,0:0:0:0:
32,300,167377,1,0,0:0:0:0:
107,324,167488,1,0,0:0:0:0:
103,347,167600,1,8,0:0:0:0:
455,351,168048,5,0,3:0:0:0:
494,321,168160,1,0,0:0:0:0:
495,275,168272,1,0,0:0:0:0:
478,243,168384,1,0,0:0:0:0:
452,237,168496,2,0,L|341:259,2,99.6666621042889,8|0|0,0:0|0:0|0:0,0:0:0:0:
274,363,168944,38,0,P|239:321|246:287,3,74.7499965782167,0|0|0|0,3:0|0:0|0:0|0:0,0:0:0:0:
261,235,169391,2,0,P|196:321|95:361,1,149.499993156433,8|0,0:0|0:0,0:0:0:0:
44,247,169839,5,0,3:0:0:0:
31,224,169951,1,0,0:0:0:0:
26,204,170063,1,0,0:0:0:0:
23,182,170175,1,0,0:0:0:0:
84,130,170287,37,8,0:0:0:0:
97,107,170399,1,0,0:0:0:0:
112,92,170511,1,0,0:0:0:0:
129,79,170623,1,0,0:0:0:0:
188,124,170735,6,0,L|341:102,1,149.499993156433,0|0,3:0|0:0,0:0:0:0:
351,117,171071,1,0,0:0:0:0:
414,173,171182,2,0,L|261:151,1,149.499993156433,8|0,0:0|0:0,0:0:0:0:
151,328,171629,38,0,L|163:240,1,74.7499965782167,0|0,3:0|0:0,0:0:0:0:
254,336,171854,2,0,L|266:248,1,74.7499965782167,0|0,0:0|0:0,0:0:0:0:
468,350,172078,6,0,L|456:262,1,74.7499965782167,8|0,0:0|0:0,0:0:0:0:
382,357,172302,2,0,L|370:269,1,74.7499965782167,0|0,0:0|0:0,0:0:0:0:
358,198,172525,37,0,3:0:0:0:
357,187,172637,1,0,0:0:0:0:
355,175,172750,1,0,0:0:0:0:
459,43,172974,2,0,P|477:72|461:114,1,74.7499965782167,8|0,0:0|0:0,0:0:0:0:
448,130,173197,1,0,0:0:0:0:
235,166,173421,5,0,3:0:0:0:
232,154,173533,1,0,0:0:0:0:
94,192,173757,1,0,0:0:0:0:
89,178,173869,2,0,P|120:178|164:208,1,74.7499965782167,8|0,0:0|0:0,0:0:0:0:
204,256,174093,2,0,P|219:282|215:335,1,74.7499965782167,0|0,0:0|0:0,0:0:0:0:
49,373,174317,38,0,B|32:278|32:278|33:271|33:271|9:129,1,224.24998973465,0|0,3:0|0:0,0:0:0:0:
79,67,174765,2,0,B|99:186|99:186|98:194|98:194|115:288,1,224.24998973465,8|0,0:0|0:0,0:0:0:0:
208,366,175212,2,0,P|314:299|247:246,1,224.24998973465,0|0,3:0|0:0,0:0:0:0:
201,251,175660,1,8,0:0:0:0:
201,251,175884,2,0,L|116:268,1,74.7499965782167,0|0,0:0|0:0,0:0:0:0:
297,184,176108,5,0,3:0:0:0:
307,188,176220,1,0,0:0:0:0:
316,191,176332,1,0,0:0:0:0:
327,194,176444,2,0,P|364:142|330:48,1,149.499993156433
276,76,176779,2,0,L|265:-6,1,74.7499965782167
170,114,177002,37,0,3:0:0:0:
147,111,177115,1,0,0:0:0:0:
125,108,177227,1,0,0:0:0:0:
103,106,177339,1,0,0:0:0:0:
82,102,177451,1,8,0:0:0:0:
192,198,177675,2,0,L|289:190,1,74.7499965782167,0|0,0:0|0:0,0:0:0:0:
101,287,177899,5,8,0:0:0:0:
161,37,178123,1,8,0:0:0:0:
411,97,178346,1,8,0:0:0:0:
351,347,178571,1,8,0:0:0:0:
351,347,178682,1,8,0:0:0:0:
256,192,179242,12,2,181481,3:2:0:0:
256,192,188644,12,2,193570,3:2:0:0:
75,346,194017,22,0,P|93:324|150:309,1,63.2500019302369,10|0,0:0|0:0,0:0:0:0:
124,206,194241,2,0,P|152:210|193:252,1,63.2500019302369,8|0,0:0|0:0,0:0:0:0:
278,186,194465,2,0,P|288:212|272:269,1,63.2500019302369,8|0,0:0|0:0,0:0:0:0:
286,379,194689,37,8,0:0:0:0:
201,369,194801,2,0,L|75:351,1,126.500003860474,8|0,0:0|0:0,0:0:0:0:
78,326,195137,6,0,L|59:246,1,63.2500019302369,2|0,0:0|0:0,0:0:0:0:
82,88,195361,2,2,B|100:38|160:61|160:61|234:82|239:9,1,189.750005790711,10|0,0:1|0:0,0:0:0:0:
245,5,195808,6,0,B|278:15|278:15|254:111|254:111|294:124,1,172.500006580353,6|0,3:2|0:0,0:0:0:0:
310,127,196145,1,0,0:0:0:0:
392,147,196256,2,0,P|305:135|233:282,1,258.75000987053,10|0,0:0|0:0,0:0:0:0:
322,243,196705,1,2,3:2:0:0:
373,25,196929,1,2,0:0:0:0:
322,243,197152,1,10,0:0:0:0:
158,358,197377,6,0,P|145:227|191:74,1,258.75000987053,2|0,0:0|0:0,0:0:0:0:
295,51,197824,2,0,P|306:90|285:140,1,86.2500032901765,2|0,0:0|0:0,0:0:0:0:
121,258,198048,1,8,0:0:0:0:
84,156,198272,1,2,0:0:0:0:
295,270,198495,38,0,P|243:332|137:356,2,172.500006580353,2|2|10,3:2|0:0|0:0,0:0:0:0:
242,98,199167,1,2,0:0:0:0:
349,339,199391,6,0,P|423:298|520:292,1,172.500006580353,2|0,3:2|0:0,0:0:0:0:
512,301,199727,1,0,0:0:0:0:
446,330,199838,2,0,P|342:265|366:145,1,258.75000987053,10|0,0:0|0:0,0:0:0:0:
430,127,200287,1,2,3:2:0:0:
303,22,200511,1,2,0:0:0:0:
121,41,200734,1,10,0:0:0:0:
64,199,200958,38,0,B|118:171|183:197|209:251|209:251|256:261|301:216,1,258.75000987053,2|0,0:0|0:0,0:0:0:0:
209,109,201406,2,0,P|179:140|181:189,1,86.2500032901765,2|0,0:0|0:0,0:0:0:0:
246,294,201630,1,8,0:0:0:0:
362,158,201854,6,0,B|375:73|375:73|311:1,2,172.500006580353,2|2|2,0:0|3:2|0:0,0:0:0:0:
143,42,202526,1,10,0:0:0:0:
252,100,202750,1,2,0:0:0:0:
105,291,202974,38,0,B|67:298|51:322|51:322|63:99,1,258.75000987053,2|0,3:2|0:0,0:0:0:0:
187,15,203421,2,0,P|263:23|252:99,1,172.500006580353,10|0,0:0|0:0,0:0:0:0:
105,291,203869,5,2,3:2:0:0:
29,250,204093,1,2,0:0:0:0:
96,202,204317,1,10,0:0:0:0:
341,343,204541,38,0,P|305:366|263:376,1,86.2500032901765,2|0,0:0|0:0,0:0:0:0:
184,356,204764,1,0,3:0:0:0:
309,187,204988,6,0,P|225:203|158:257,1,172.500006580353,2|8,0:0|0:0,0:0:0:0:
452,368,205436,38,0,P|443:286|486:65,1,258.75000987053,2|0,0:0|0:0,0:0:0:0:
470,35,205884,6,0,B|343:9|301:97|336:143|262:251|132:186,1,391.000007457733,2|2,0:0|0:0,0:0:0:0:
25,49,206555,1,0,3:0:0:0:
32,326,206779,37,2,0:0:0:0:
26,294,206891,1,0,0:0:0:0:
19,258,207003,1,10,0:0:0:0:
210,91,207226,1,2,0:0:0:0:
295,326,207450,5,2,3:2:0:0:
83,154,207674,1,2,0:0:0:0:
320,40,207899,2,0,P|299:68|292:125,1,74.7499965782167,10|0,0:0|0:0,0:0:0:0:
309,358,208347,38,0,B|499:346|474:157|257:247|414:351,1,345,6|0,3:2|0:0,0:0:0:0:
406,346,211928,6,0,B|395:332|395:332|208:298,1,206.999993682861,0|0,3:0|0:0,0:0:0:0:
259,246,212376,2,0,B|251:255|251:255|127:277,1,137.999995788574,8|0,0:0|0:0,0:0:0:0:
127,277,212711,1,0,0:0:0:0:
134,287,212823,2,0,L|110:81,1,206.999993682861,0|0,3:0|0:0,0:0:0:0:
106,88,213271,1,8,0:0:0:0:
50,203,213495,2,0,B|57:193|57:193|181:170,1,137.999995788574,0|0,0:0|3:0,0:0:0:0:
396,120,213943,38,0,L|421:55,1,68.9999978942872
252,109,214167,2,0,L|241:40,1,68.9999978942872,8|0,0:0|0:0,0:0:0:0:
327,81,214390,1,0,0:0:0:0:
444,188,214614,6,0,L|485:132,1,68.9999978942872,0|0,3:0|0:0,0:0:0:0:
421,55,214838,2,0,L|396:120,1,68.9999978942872,0|0,0:0|0:0,0:0:0:0:
327,81,215062,2,0,L|334:12,1,68.9999978942872,8|0,0:0|0:0,0:0:0:0:
241,40,215286,2,0,L|252:109,1,68.9999978942872,0|0,0:0|0:0,0:0:0:0:
361,191,215510,37,0,3:0:0:0:
177,149,215734,1,0,0:0:0:0:
210,292,215958,5,8,0:0:0:0:
252,108,216182,1,0,0:0:0:0:
58,247,216405,37,0,3:0:0:0:
248,194,216629,1,0,0:0:0:0:
195,4,216853,1,8,0:0:0:0:
5,57,217077,1,0,0:0:0:0:
181,175,217301,6,0,L|247:193,1,68.9999978942872,0|0,3:0|0:0,0:0:0:0:
296,145,217525,2,0,L|246:193,1,68.9999978942872,0|0,0:0|0:0,0:0:0:0:
264,260,217749,2,0,L|246:193,1,68.9999978942872,8|0,0:0|0:0,0:0:0:0:
224,101,217973,37,0,0:0:0:0:
335,217,218196,1,0,3:0:0:0:
178,253,218420,1,0,0:0:0:0:
224,101,218644,1,8,0:0:0:0:
335,217,218868,1,0,0:0:0:0:
189,345,219092,6,0,B|142:256|57:288|57:288|85:291|98:311,1,206.999993682861,0|0,3:0|0:0,0:0:0:0:
253,270,219540,2,0,B|255:248|278:232|278:232|188:244|189:345,1,206.999993682861,8|0,0:0|0:0,0:0:0:0:
96,309,219987,37,4,0:0:0:0:
170,105,220211,1,4,0:0:0:0:
374,179,220435,1,4,0:0:0:0:
300,383,220659,1,4,0:0:0:0:
