osu file format v14

[General]
AudioFilename: audio.mp3
AudioLeadIn: 0
PreviewTime: 180696
Countdown: 0
SampleSet: Soft
StackLeniency: 0.4
Mode: 0
LetterboxInBreaks: 0
WidescreenStoryboard: 0

[Editor]
DistanceSpacing: 0.7
BeatDivisor: 4
GridSize: 32
TimelineZoom: 1.9

[Metadata]
Title:Otome Kaibou
TitleUnicode:乙女解剖
Artist:mafumafu
ArtistUnicode:まふまふ
Creator:Mononymous
Version:Hazu's Hard
Source:
Tags:utaite android girl deco*27 deco 27 kaidou dissection vocaloid japanese pop jpop cover アンドロイドガール Hazu- Seolv lukas [_l_u_k_a_s_] YelloJello
BeatmapID:2286643
BeatmapSetID:1084551

[Difficulty]
HPDrainRate:4
CircleSize:4
OverallDifficulty:6
ApproachRate:8
SliderMultiplier:1.4
SliderTickRate:1

[Events]
//Background and Video events
0,0,"mafumafu - Otome Kaibou.jpg",0,0
Video,0,"Otome Dissection.mp4"
//Break Periods
2,181680,187894
//Storyboard Layer 0 (Background)
//Storyboard Layer 1 (Fail)
//Storyboard Layer 2 (Pass)
//Storyboard Layer 3 (Foreground)
//Storyboard Layer 4 (Overlay)
//Storyboard Sound Samples

[TimingPoints]
2376,447.761194029851,4,2,1,60,1,0
2376,-111.111111111111,4,2,1,60,0,0
10323,-100,4,2,1,5,0,0
10435,-111.111111111111,4,2,1,60,0,0
11107,-111.111111111111,4,2,1,62,0,0
11443,-111.111111111111,4,2,1,5,0,0
11555,-111.111111111111,4,2,1,64,0,0
12002,-111.111111111111,4,2,1,66,0,0
12338,-111.111111111111,4,2,1,5,0,0
12450,-111.111111111111,4,2,1,68,0,0
12898,-111.111111111111,4,2,1,70,0,0
13234,-111.111111111111,4,2,1,5,0,0
13346,-111.111111111111,4,2,1,80,0,0
14493,-111.111111111111,4,2,2,100,0,0
14801,-111.111111111111,4,2,1,5,0,0
14913,-100,4,2,1,80,0,0
29241,-111.111111111111,4,2,1,60,0,0
34614,-111.111111111111,4,3,1,60,0,0
34726,-111.111111111111,4,2,1,60,0,0
36293,-111.111111111111,4,2,1,60,0,0
36405,-111.111111111111,4,2,1,60,0,0
41778,-111.111111111111,4,2,1,80,0,0
43122,-111.111111111111,4,2,1,80,0,0
43570,-111.111111111111,4,2,1,70,0,0
44913,-111.111111111111,4,2,1,70,0,0
45025,-111.111111111111,4,2,1,70,0,0
45361,-111.111111111111,4,3,1,60,0,0
45473,-111.111111111111,4,2,1,60,0,0
46704,-111.111111111111,4,2,1,70,0,0
46816,-111.111111111111,4,2,1,70,0,0
48495,-111.111111111111,4,2,1,70,0,0
48607,-111.111111111111,4,2,1,70,0,0
48943,-111.111111111111,4,3,1,60,0,0
49055,-111.111111111111,4,2,1,60,0,0
50286,-111.111111111111,4,2,1,70,0,0
50398,-111.111111111111,4,2,1,70,0,0
50622,-111.111111111111,4,2,1,70,0,0
50734,-111.111111111111,4,2,1,70,0,0
56107,-111.111111111111,4,2,2,80,0,0
56555,-111.111111111111,4,2,2,5,0,0
56778,-111.111111111111,4,2,1,70,0,0
58234,-111.111111111111,4,2,1,5,0,0
58346,-111.111111111111,4,2,1,70,0,0
59465,-111.111111111111,4,3,1,60,0,0
59540,-111.111111111111,4,2,1,60,0,0
60025,-111.111111111111,4,2,1,5,0,0
60137,-111.111111111111,4,2,1,70,0,0
61816,-111.111111111111,4,2,1,5,0,0
61928,-111.111111111111,4,2,1,70,0,0
63047,-111.111111111111,4,3,1,70,0,0
63122,-111.111111111111,4,2,1,70,0,0
63607,-111.111111111111,4,2,1,5,0,0
63719,-111.111111111111,4,2,1,70,0,0
66741,-111.111111111111,4,2,1,5,0,0
66853,-111.111111111111,4,2,1,80,0,0
69987,-111.111111111111,4,2,1,80,0,0
70015,-111.111111111111,4,2,2,100,0,0
70323,-111.111111111111,4,2,1,5,0,0
70435,-100,4,2,1,85,0,1
72226,-100,4,3,1,85,0,1
72338,-100,4,2,1,5,0,1
72450,-100,4,2,1,85,0,1
75808,-100,4,3,1,85,0,1
75920,-100,4,2,1,5,0,1
76032,-100,4,2,1,85,0,1
80734,-100,4,2,1,85,0,1
81181,-100,4,3,1,85,0,1
81293,-100,4,2,1,5,0,1
81405,-100,4,2,1,85,0,1
82861,-100,4,2,1,5,0,1
82973,-100,4,2,1,85,0,0
84092,-100,4,2,1,85,0,0
84316,-100,4,2,1,85,0,0
84344,-100,4,2,1,100,0,0
84652,-100,4,2,1,5,0,0
84764,-100,4,2,1,85,0,1
86555,-100,4,3,1,85,0,1
86667,-100,4,2,1,5,0,1
86778,-100,4,2,1,85,0,1
90137,-100,4,3,1,85,0,1
90249,-100,4,2,1,5,0,1
90361,-100,4,2,1,85,0,1
94838,-100,4,2,1,85,0,1
97189,-100,4,2,1,5,0,1
97301,-100,4,2,1,80,0,0
111629,-100,4,2,2,70,0,0
112525,-100,4,2,1,40,0,0
112637,-100,4,2,2,42,0,0
112749,-100,4,2,1,44,0,0
112861,-100,4,2,2,46,0,0
112973,-100,4,2,1,48,0,0
113084,-100,4,2,2,50,0,0
113196,-100,4,2,1,52,0,0
113308,-100,4,2,1,5,0,0
113420,-111.111111111111,4,2,1,70,0,0
118346,-111.111111111111,4,2,1,70,0,0
118681,-111.111111111111,4,2,1,5,0,0
118793,-111.111111111111,4,2,1,70,0,0
124167,-111.111111111111,4,2,1,60,0,0
124614,-111.111111111111,4,2,1,5,0,0
124838,-111.111111111111,4,2,1,60,0,0
124950,-111.111111111111,4,2,1,5,0,0
125062,-111.111111111111,4,2,1,60,0,0
125958,-111.111111111111,4,2,1,70,0,0
126293,-111.111111111111,4,2,1,5,0,0
126405,-111.111111111111,4,2,1,70,0,0
128084,-111.111111111111,4,2,1,5,0,0
128196,-111.111111111111,4,2,1,70,0,0
129876,-111.111111111111,4,2,1,5,0,0
129987,-111.111111111111,4,2,1,70,0,0
131667,-111.111111111111,4,2,1,5,0,0
131778,-111.111111111111,4,2,1,70,0,0
138047,-111.111111111111,4,2,1,70,0,0
138075,-111.111111111111,4,2,2,100,0,0
138383,-111.111111111111,4,2,1,5,0,0
138495,-100,4,2,1,85,0,1
140286,-100,4,3,1,85,0,1
140398,-100,4,2,1,5,0,1
140510,-100,4,2,1,85,0,1
143868,-100,4,3,1,85,0,1
143980,-100,4,2,1,5,0,1
144092,-100,4,2,1,85,0,1
149241,-100,4,3,1,85,0,1
149353,-100,4,2,1,85,0,1
150920,-100,4,2,1,5,0,1
151032,-100,4,2,1,85,0,0
152152,-100,4,2,1,85,0,0
152376,-100,4,2,1,85,0,0
152403,-100,4,2,2,100,0,0
152711,-100,4,2,1,5,0,0
152823,-100,4,2,1,85,0,1
154614,-100,4,3,1,85,0,1
154726,-100,4,2,1,5,0,1
154838,-100,4,2,1,85,0,1
159987,-100,4,3,1,85,0,1
160099,-100,4,2,1,5,0,1
160211,-100,4,2,1,85,0,1
165361,-100,4,2,1,80,0,0
179577,-100,4,2,1,5,0,0
179689,-100,4,2,1,70,0,0
179801,-100,4,2,1,5,0,0
180808,-100,4,2,1,60,0,0
181368,-100,4,2,1,5,0,0
181480,-111.111111111111,4,2,1,75,0,0
188644,-111.111111111111,4,2,1,75,0,0
190211,-111.111111111111,4,2,1,77,0,0
190659,-111.111111111111,4,2,1,79,0,0
191107,-111.111111111111,4,2,1,81,0,0
191778,-111.111111111111,4,2,1,82,0,0
192226,-111.111111111111,4,3,1,82,0,0
192338,-111.111111111111,4,2,1,5,0,0
192450,-111.111111111111,4,2,1,84,0,0
193122,-111.111111111111,4,2,1,82,0,0
193905,-111.111111111111,4,2,1,5,0,0
194017,-111.111111111111,4,2,1,80,0,0
195361,-111.111111111111,4,2,1,75,0,0
195389,-111.111111111111,4,2,2,100,0,0
195696,-111.111111111111,4,2,1,5,0,0
195808,-100,4,2,1,85,0,1
197599,-100,4,3,1,85,0,1
197711,-100,4,2,1,5,0,1
197823,-100,4,2,1,85,0,1
201181,-100,4,3,1,85,0,1
201293,-100,4,2,1,5,0,1
201405,-100,4,2,1,85,0,1
208234,-100,4,2,1,5,0,1
208346,-100,4,2,1,80,0,0
220771,-100,4,2,1,5,0,0

[Colours]
Combo1 : 106,106,106
Combo2 : 255,0,0
Combo3 : 255,128,0
Combo4 : 192,192,192

[HitObjects]
331,206,2375,38,0,B|406:194|393:247|465:234,2,140,0|2|2,0:0|0:0|0:0,0:0:0:0:
267,267,3495,1,2,0:0:0:0:
195,215,3719,1,2,0:0:0:0:
133,277,3943,6,0,P|140:313|150:366,1,62.9999980773926,2|0,0:0|0:0,0:0:0:0:
56,339,4390,2,0,P|46:280|30:196,1,125.999996154785,2|2,0:0|0:0,0:0:0:0:
86,143,5062,1,2,0:0:0:0:
167,187,5286,1,2,0:0:0:0:
167,187,5510,2,0,P|210:191|241:180,1,62.9999980773926,2|2,0:0|0:0,0:0:0:0:
302,116,5958,38,0,B|348:102|348:102|446:131,2,125.999996154785,2|2|2,0:0|0:0|0:0,0:0:0:0:
225,160,7077,1,2,0:0:0:0:
299,207,7301,1,2,0:0:0:0:
227,258,7525,6,0,P|186:251|139:242,1,62.9999980773926,2|0,0:0|0:0,0:0:0:0:
82,279,7973,2,0,P|49:245|66:152,1,125.999996154785,2|2,0:0|0:0,0:0:0:0:
105,100,8644,2,0,B|134:89|134:89|181:103,1,62.9999980773926,2|2,0:0|0:0,0:0:0:0:
211,173,9091,1,2,0:0:0:0:
268,106,9315,1,2,0:0:0:0:
322,191,9540,38,0,P|389:184|459:178,2,125.999996154785,0|2|2,0:0|0:0|0:0,0:0:0:0:
247,238,10659,1,0,0:0:0:0:
165,203,10883,1,2,0:0:0:0:
93,254,11107,6,0,P|85:288|73:337,1,62.9999980773926,2|0,0:0|0:0,0:0:0:0:
154,361,11555,2,0,P|201:336|282:366,1,125.999996154785,2|2,0:0|0:0,0:0:0:0:
403,239,12450,2,0,P|356:264|275:234,1,125.999996154785,2|2,0:0|0:0,0:0:0:0:
219,173,13122,37,0,0:0:0:0:
219,173,13346,2,0,P|210:135|197:92,2,62.9999980773926,2|2|2,0:0|0:0|0:0,0:0:0:0:
151,230,14017,2,0,P|142:260|135:291,2,62.9999980773926,2|2|2,0:0|0:0|0:0,0:0:0:0:
202,40,14913,22,0,P|246:33|296:26,1,70,6|0,3:2|0:0,0:0:0:0:
310,52,15249,1,0,0:0:0:0:
310,52,15361,1,8,0:0:0:0:
387,4,15584,1,0,0:0:0:0:
455,64,15808,2,0,P|448:105|438:158,1,70,0|0,3:0|0:0,0:0:0:0:
483,155,16144,2,0,P|489:189|495:223,1,70,8|0,2:0|0:0,0:0:0:0:
465,259,16480,1,8,0:0:0:0:
381,221,16704,5,0,3:0:0:0:
310,278,16928,2,0,P|316:312|322:346,2,70,0|8|0,0:0|0:0|0:0,0:0:0:0:
222,254,17599,2,0,P|228:288|234:322,1,70,0|0,3:0|0:0,0:0:0:0:
154,368,18047,2,0,P|148:334|142:300,1,70,8|0,0:0|0:0,0:0:0:0:
64,238,18495,38,0,P|54:197|70:150,1,70,0|0,3:0|0:0,0:0:0:0:
92,138,18831,1,0,0:0:0:0:
92,138,18943,1,8,0:0:0:0:
170,92,19167,1,0,0:0:0:0:
240,148,19390,2,0,P|281:141|319:134,1,70,0|0,3:0|0:0,0:0:0:0:
346,162,19726,2,0,P|387:155|425:148,1,70,8|0,0:0|0:0,0:0:0:0:
456,169,20062,1,8,0:0:0:0:
501,245,20286,5,0,3:0:0:0:
437,309,20510,2,0,P|402:315|368:321,1,70,0|8,0:0|0:0,0:0:0:0:
334,289,20846,2,0,P|299:282|265:296,1,70
246,334,21181,1,0,3:0:0:0:
169,305,21405,1,0,0:0:0:0:
169,305,21517,1,0,0:0:0:0:
169,305,21629,2,0,P|134:300|87:292,1,70,8|0,0:0|0:0,0:0:0:0:
35,219,22077,38,0,P|24:174|13:130,1,70,0|0,3:0|0:0,0:0:0:0:
8,110,22413,1,0,0:0:0:0:
8,110,22525,1,8,0:0:0:0:
74,48,22749,1,0,0:0:0:0:
157,83,22973,2,0,P|165:116|173:150,1,70,0|0,3:0|0:0,0:0:0:0:
147,188,23308,2,0,P|155:221|163:255,1,70,8|0,0:0|0:0,0:0:0:0:
206,272,23644,1,8,0:0:0:0:
272,210,23868,5,0,3:0:0:0:
323,284,24092,2,0,P|364:289|404:295,2,70,0|8|0,0:0|0:0|0:0,0:0:0:0:
272,210,24764,2,0,P|237:214|202:219,1,70,0|0,3:0|0:0,0:0:0:0:
141,287,25211,2,0,P|106:282|71:277,1,70,8|0,0:0|0:0,0:0:0:0:
5,204,25659,38,0,P|-2:170|17:118,1,70,0|0,3:0|0:0,0:0:0:0:
45,113,25995,1,0,0:0:0:0:
45,113,26107,1,8,0:0:0:0:
128,76,26331,1,0,0:0:0:0:
197,134,26555,2,0,P|231:129|266:124,1,70,0|0,3:0|0:0,0:0:0:0:
296,90,26890,2,0,P|330:85|365:80,1,70,8|0,0:0|0:0,0:0:0:0:
405,102,27226,1,8,0:0:0:0:
479,154,27450,5,8,0:3:0:0:
398,195,27674,1,8,0:3:0:0:
471,248,27898,1,8,0:3:0:0:
391,292,28122,1,8,0:3:0:0:
391,292,28234,2,0,P|339:284|267:273,1,105,8|2,0:3|3:1,0:0:0:0:
197,258,28793,2,0,L|209:309,3,35,2|2|2|2,3:1|3:1|0:1|0:1,0:0:0:0:
183,331,29241,5,2,3:2:0:0:
132,162,29689,2,0,P|179:171|266:188,1,125.999996154785,2|2,3:2|3:2,0:0:0:0:
324,241,30361,2,0,P|381:231|412:225,1,62.9999980773926,2|2,0:0|3:2,0:0:0:0:
452,172,30808,5,2,0:0:0:0:
452,172,31032,2,0,P|454:134|438:99,1,62.9999980773926,0|2,3:0|0:0,0:0:0:0:
382,49,31479,1,2,3:2:0:0:
303,90,31704,2,0,P|278:85|231:78,1,62.9999980773926,2|0,0:2|3:0,0:0:0:0:
165,125,32152,2,0,P|134:118|102:114,2,62.9999980773926,2|2|2,0:0|3:2|0:0,0:0:0:0:
244,186,32823,37,2,3:2:0:0:
114,306,33271,2,0,P|93:250|125:173,1,125.999996154785,2|2,3:2|3:2,0:0:0:0:
185,140,33943,2,0,P|227:149|260:157,1,62.9999980773926,2|2,0:0|3:2,0:0:0:0:
302,228,34390,5,2,0:0:0:0:
302,228,34614,2,0,P|344:237|377:245,1,62.9999980773926,0|2,0:0|0:0,0:0:0:0:
428,302,35062,1,2,3:2:0:0:
496,245,35286,2,0,P|501:217|487:171,1,62.9999980773926,2|0,0:0|3:0,0:0:0:0:
358,70,35957,2,0,P|327:62|263:50,1,94.499997116089,2|0,3:2|0:0,0:0:0:0:
225,76,36405,38,0,L|160:64,2,41.9999987182618,2|2|2,3:2|0:0|0:0,0:0:0:0:
132,142,36853,2,0,L|173:149,2,41.9999987182618,2|2|2,3:2|0:0|0:0,0:0:0:0:
193,236,37301,2,0,L|128:224,2,41.9999987182618,2|2|2,3:2|0:0|0:0,0:0:0:0:
100,302,37749,2,0,L|141:309,2,41.9999987182618,2|2|2,3:2|0:0|0:0,0:0:0:0:
230,357,38196,6,0,L|220:311,3,31.4999990386963,2|2|2|0,3:2|0:0|0:0|0:0,0:0:0:0:
253,293,38644,2,0,P|301:303|343:313,1,62.9999980773926,2|2,3:2|0:0,0:0:0:0:
401,323,39092,2,0,L|391:277,3,31.4999990386963,2|2|2|2,3:2|0:0|0:0|0:0,0:0:0:0:
425,260,39540,1,2,3:2:0:0:
359,189,39764,37,2,0:0:0:0:
359,189,39987,2,0,P|328:182|297:175,1,62.9999980773926,0|2,3:0|3:2,0:0:0:0:
224,226,40435,2,0,P|193:219|162:212,1,62.9999980773926,2|2,3:2|3:2,0:0:0:0:
112,139,40883,2,0,P|81:132|50:125,2,62.9999980773926,2|2|2,3:2|3:2|3:2,0:0:0:0:
198,107,41555,5,2,3:2:0:0:
198,107,41667,1,0,3:0:0:0:
198,107,41778,1,2,3:2:0:0:
198,107,43122,1,10,0:0:0:0:
280,181,43346,37,2,0:1:0:0:
280,181,43458,1,2,0:1:0:0:
280,181,43570,2,0,P|315:175|349:169,1,62.9999980773926,2|0,3:2|0:0,0:0:0:0:
382,198,43905,1,8,0:3:0:0:
382,198,44017,2,0,P|417:192|451:186,1,62.9999980773926,2|8,3:1|0:3,0:0:0:0:
502,260,44465,1,2,3:2:0:0:
502,260,44577,2,0,P|514:299|506:338,1,62.9999980773926,8|0,0:3|0:0,0:0:0:0:
478,349,44913,2,0,P|446:354|415:359,1,62.9999980773926,2|2,3:2|0:0,0:0:0:0:
339,314,45361,6,0,P|307:319|276:324,1,62.9999980773926,0|2,0:0|0:0,0:0:0:0:
247,357,45696,1,8,0:3:0:0:
247,357,45808,1,10,0:0:0:0:
177,303,46032,2,0,P|184:266|192:231,1,62.9999980773926,8|0,0:3|3:0,0:0:0:0:
167,209,46368,1,8,0:3:0:0:
167,209,46480,2,0,P|174:172|182:137,1,62.9999980773926,2|10,3:2|0:0,0:0:0:0:
128,75,46928,1,2,0:0:0:0:
41,126,47152,37,2,3:2:0:0:
84,213,47376,1,0,0:0:0:0:
84,213,47487,1,8,0:3:0:0:
84,213,47599,2,0,P|77:243|69:278,1,62.9999980773926,10|8,0:0|0:3,0:0:0:0:
136,339,48047,1,2,3:2:0:0:
136,339,48159,2,0,P|187:331|223:324,1,62.9999980773926,8|0,0:3|0:0,0:0:0:0:
232,300,48495,1,10,0:0:0:0:
302,352,48719,1,2,0:0:0:0:
371,297,48943,6,0,P|377:256|363:221,1,62.9999980773926,0|2,3:0|0:0,0:0:0:0:
339,205,49278,1,8,0:3:0:0:
339,205,49390,2,0,P|332:174|339:143,1,62.9999980773926,10|8,0:0|0:3,0:0:0:0:
412,93,49838,2,0,L|399:43,3,31.4999990386963,0|8|0|0,0:0|0:3|0:0|0:0,0:0:0:0:
364,41,50286,2,0,P|307:29|253:18,1,94.499997116089,10|0,0:0|0:0,0:0:0:0:
233,45,50734,38,0,L|246:97,2,41.9999987182618,2|2|0,3:2|0:0|0:0,0:0:0:0:
145,37,51181,2,0,L|158:89,2,41.9999987182618,10|2|2,0:0|0:0|0:0,0:0:0:0:
58,24,51629,2,0,P|68:67|84:131,1,83.9999974365235,2|2,3:2|0:0,0:0:0:0:
34,181,52077,1,10,0:0:0:0:
110,224,52301,1,0,0:0:0:0:
37,274,52525,6,0,L|29:314,3,31.4999990386963,2|2|2|8,3:2|0:0|0:1|0:3,0:0:0:0:
63,335,52973,2,0,P|102:348|146:336,1,62.9999980773926,10|8,0:0|0:3,0:0:0:0:
200,302,53420,2,0,L|207:271,3,31.4999990386963,2|8|2|0,3:2|0:3|3:2|0:0,0:0:0:0:
247,253,53868,1,10,0:0:0:0:
321,301,54092,1,2,0:0:0:0:
404,244,54316,38,0,P|410:208|418:166,1,62.9999980773926,0|2,3:0|0:0,0:0:0:0:
394,147,54652,1,8,0:3:0:0:
394,147,54764,1,10,0:0:0:0:
318,91,54987,1,0,0:0:0:0:
233,109,55211,1,2,3:2:0:0:
233,109,55323,2,0,P|227:139|222:171,1,62.9999980773926,8|0,0:3|0:0,0:0:0:0:
180,186,55659,2,0,L|124:172,3,31.4999990386963,10|8|8|8,3:0|0:3|0:3|0:3,0:0:0:0:
110,199,56107,5,4,0:0:0:0:
110,199,56778,2,0,L|51:188,2,31.4999990386963,8|8|8,0:3|0:3|0:1,0:0:0:0:
176,257,57226,1,8,0:1:0:0:
249,315,57450,1,8,3:1:0:0:
249,315,57562,2,0,P|284:321|340:331,1,62.9999980773926,8|0,0:1|0:0,0:0:0:0:
340,358,57898,37,4,3:2:0:0:
417,199,58346,2,0,L|404:139,2,41.9999987182618,2|2|2,0:0|0:0|0:0,0:0:0:0:
331,190,58793,2,0,L|318:130,2,41.9999987182618,10|2|2,0:0|0:0|0:0,0:0:0:0:
245,188,59241,2,0,L|227:95,1,83.9999974365235,10|2,0:0|0:0,0:0:0:0:
210,24,59689,5,0,3:0:0:0:
380,83,60137,2,0,L|428:70,2,41.9999987182618,2|2|2,0:1|0:0|0:0,0:0:0:0:
312,137,60584,2,0,L|264:124,2,41.9999987182618,10|2|2,0:0|0:0|0:0,0:0:0:0:
387,181,61032,2,0,P|406:231|393:278,1,83.9999974365235,2|0,0:1|0:0,0:0:0:0:
341,320,61480,37,0,3:0:0:0:
188,231,61928,2,0,L|178:173,2,41.9999987182618,2|2|2,0:1|0:0|0:0,0:0:0:0:
126,295,62376,2,0,L|118:336,2,41.9999987182618,10|2|2,0:0|0:0|0:0,0:0:0:0:
57,239,62823,2,0,P|48:185|68:142,1,83.9999974365235,2|2,0:1|0:0,0:0:0:0:
130,112,63271,5,2,3:2:0:0:
288,189,63719,2,0,P|350:177|406:167,1,83.9999974365235,2|0,0:1|0:0,0:0:0:0:
451,205,64167,1,8,0:0:0:0:
335,71,64614,1,2,0:1:0:0:
260,112,64838,37,2,0:0:0:0:
260,112,64950,1,2,0:0:0:0:
260,112,65062,2,0,P|218:119|161:130,1,94.499997116089,10|2,0:0|0:0,0:0:0:0:
132,156,65510,2,0,P|144:201|154:241,1,62.9999980773926,10|2,0:0|0:0,0:0:0:0:
76,269,65958,2,0,P|64:314|54:354,1,62.9999980773926,10|2,0:0|0:0,0:0:0:0:
143,357,66405,2,0,P|187:320|246:324,1,94.499997116089,10|0,0:0|0:0,0:0:0:0:
263,332,66853,5,8,3:0:0:0:
341,373,67077,1,8,0:0:0:0:
420,334,67301,1,8,3:0:0:0:
429,246,67525,1,8,0:0:0:0:
359,191,67749,2,0,L|306:203,3,31.4999990386963,8|8|8|8,3:0|0:0|3:0|0:0,0:0:0:0:
289,176,68196,2,0,L|236:164,3,31.4999990386963,8|8|8|8,3:0|0:0|3:0|0:0,0:0:0:0:
131,129,68868,38,0,P|139:168|149:217,2,62.9999980773926,10|10|10,0:0|0:0|0:0,0:0:0:0:
64,70,69540,1,10,0:0:0:0:
11,141,69764,1,2,0:0:0:0:
11,141,69876,1,0,0:0:0:0:
11,141,69987,2,2,P|19:180|35:258,1,94.499997116089,2|0,0:0|0:0,0:0:0:0:
13,276,70435,21,6,3:2:0:0:
103,319,70659,1,0,0:0:0:0:
103,319,70771,1,0,0:0:0:0:
103,319,70883,2,0,B|181:304|164:363|244:341,1,140,10|2,0:0|3:2,0:0:0:0:
301,278,71555,1,2,0:0:0:0:
366,340,71778,1,10,0:0:0:0:
432,278,72002,6,0,P|439:238|422:195,1,70,2|0,0:0|3:0,0:0:0:0:
355,159,72450,1,2,0:0:0:0:
355,159,72562,1,0,0:0:0:0:
355,159,72674,1,8,0:0:0:0:
274,201,72898,2,0,P|267:241|284:284,1,70,2|2,0:0|3:2,0:0:0:0:
354,312,73346,1,2,0:0:0:0:
276,360,73570,2,0,P|239:352|182:344,1,70,10|2,0:0|0:0,0:0:0:0:
113,376,74017,37,2,3:2:0:0:
46,313,74241,1,0,0:0:0:0:
46,313,74353,1,0,0:0:0:0:
46,313,74465,2,0,P|30:255|74:179,1,140,10|2,0:0|3:2,0:0:0:0:
147,148,75137,1,2,0:0:0:0:
210,212,75361,1,10,0:0:0:0:
288,166,75584,6,0,P|346:156|384:150,1,70,2|0,0:0|3:0,0:0:0:0:
440,211,76032,1,2,0:0:0:0:
440,211,76144,1,0,0:0:0:0:
440,211,76256,1,8,0:0:0:0:
505,147,76480,2,0,P|499:108|490:60,1,70,2|2,0:0|3:2,0:0:0:0:
415,31,76928,1,2,0:0:0:0:
345,89,77152,2,0,P|351:123|356:158,1,70,10|2,0:0|0:0,0:0:0:0:
283,223,77599,38,0,P|243:227|198:209,1,70,0|0,3:0|0:0,0:0:0:0:
188,187,77935,1,0,0:0:0:0:
188,187,78047,2,0,B|138:180|138:180|98:196|98:196|38:188,1,140,10|2,0:0|3:2,0:0:0:0:
3,112,78719,1,2,0:0:0:0:
35,26,78943,1,10,0:0:0:0:
126,25,79167,6,0,P|134:58|148:114,1,70,2|0,0:0|3:0,0:0:0:0:
219,153,79614,2,0,P|227:119|235:85,1,70,2|8,0:0|0:0,0:0:0:0:
330,40,80062,1,2,0:0:0:0:
323,130,80286,2,0,P|331:163|345:219,1,70,0|0,3:0|0:0,0:0:0:0:
420,240,80734,1,10,0:0:0:0:
339,297,80958,38,0,B|266:287|286:343|205:335,1,140,2|2,0:0|0:0,0:0:0:0:
140,276,81629,1,10,0:0:0:0:
83,347,81853,2,0,P|53:353|11:337,1,70,2|0,0:0|3:0,0:0:0:0:
3,250,82301,1,2,0:0:0:0:
78,199,82525,2,0,P|67:148|54:83,1,105,10|0,0:0|0:0,0:0:0:0:
79,56,82973,5,8,0:3:0:0:
163,88,83196,1,2,0:1:0:0:
234,31,83420,1,8,0:3:0:0:
308,87,83644,1,8,0:3:0:0:
308,87,83756,2,0,B|364:76|351:126|419:103,1,105,8|4,0:3|0:1,0:0:0:0:
457,94,84204,1,0,0:0:0:0:
457,94,84316,2,2,P|443:131|454:177,1,70,8|0,0:1|0:0,0:0:0:0:
511,243,84764,37,6,3:2:0:0:
437,292,84987,1,0,0:0:0:0:
437,292,85099,1,0,0:0:0:0:
437,292,85211,2,0,B|390:286|390:286|347:300|347:300|300:292,1,140,10|2,0:0|3:2,0:0:0:0:
232,230,85883,1,2,0:0:0:0:
176,301,86106,1,10,0:0:0:0:
94,260,86331,6,0,P|86:215|78:174,1,70,2|0,0:0|3:0,0:0:0:0:
12,137,86778,1,2,0:0:0:0:
12,137,86890,1,0,0:0:0:0:
12,137,87002,2,0,P|4:92|-4:51,1,70,8|2,0:0|0:0,0:0:0:0:
73,15,87450,1,2,3:2:0:0:
149,65,87674,1,2,0:0:0:0:
228,21,87898,2,0,P|266:14|305:27,1,70,10|2,0:0|0:0,0:0:0:0:
371,84,88345,37,2,3:2:0:0:
296,131,88569,1,0,0:0:0:0:
296,131,88681,1,0,0:0:0:0:
296,131,88793,2,0,P|310:195|330:291,1,140,10|2,0:0|3:2,0:0:0:0:
402,316,89465,1,2,0:0:0:0:
476,263,89689,1,10,0:0:0:0:
463,173,89913,6,0,P|405:163|367:157,1,70,2|0,0:0|3:0,0:0:0:0:
331,99,90360,1,2,0:0:0:0:
331,99,90472,1,0,0:0:0:0:
331,99,90584,1,8,0:0:0:0:
258,157,90808,2,0,P|264:191|269:226,1,70,2|2,0:0|3:2,0:0:0:0:
217,301,91256,1,2,0:0:0:0:
141,249,91481,2,0,P|135:214|129:179,1,70,10|2,0:0|0:0,0:0:0:0:
164,88,91928,38,0,P|204:75|249:85,1,70,0|0,3:0|0:0,0:0:0:0:
269,103,92263,1,0,0:0:0:0:
269,103,92375,2,0,B|369:84|369:84|419:104,1,140,10|2,0:0|3:2,0:0:0:0:
487,135,93047,1,2,0:0:0:0:
409,182,93271,1,10,0:0:0:0:
489,225,93495,6,0,P|497:258|511:314,1,70,2|0,0:0|3:0,0:0:0:0:
431,358,93943,2,0,P|422:324|414:290,1,70,2|8,0:0|0:0,0:0:0:0:
312,261,94390,2,0,P|320:294|334:350,1,70,2|0,0:0|3:0,0:0:0:0:
230,383,94838,2,0,P|221:349|213:315,1,70,2|8,0:0|0:0,0:0:0:0:
131,227,95286,1,2,0:0:0:0:
62,306,95510,38,0,L|5:297,3,35,4|0|2|0,3:2|0:0|0:0|0:0,0:0:0:0:
9,258,95957,1,14,0:2:0:0:
57,181,96181,2,0,P|49:137|41:97,1,70,2|6,0:0|0:2,0:0:0:0:
85,30,96629,1,6,0:2:0:0:
153,90,96853,2,0,B|191:86|191:86|222:97|222:97|268:93,1,105,6|0,0:2|0:0,0:0:0:0:
287,60,97301,6,0,B|321:46|321:46|366:64,1,70,2|0,0:0|0:0,0:0:0:0:
413,125,97749,2,0,P|405:171|398:213,1,70,2|0,0:0|0:0,0:0:0:0:
362,276,98196,2,0,P|404:288|469:250,2,105,2|2|2,0:0|0:0|0:0,0:0:0:0:
303,206,99092,37,0,0:0:0:0:
230,260,99316,2,0,P|236:289|247:341,2,70,2|2|2,0:0|0:0|0:0,0:0:0:0:
156,206,99987,2,0,P|148:240|141:274,1,70,2|2,0:0|0:0,0:0:0:0:
66,325,100435,2,0,P|58:290|51:256,1,70,2|2,0:0|0:0,0:0:0:0:
6,176,100883,6,0,P|48:163|90:178,1,70,2|0,0:0|0:0,0:0:0:0:
142,109,101331,2,0,P|180:129|199:169,1,70,2|0,0:0|0:0,0:0:0:0:
284,138,101778,2,0,P|297:180|263:248,2,105,2|2|2,0:0|0:0|0:0,0:0:0:0:
216,75,102674,37,0,0:0:0:0:
140,126,102898,2,0,P|103:120|50:111,1,70,2|2,0:0|0:0,0:0:0:0:
38,146,103234,2,0,P|44:177|56:240,1,70,2|2,0:0|0:0,0:0:0:0:
23,250,103569,1,2,0:0:0:0:
94,321,103793,1,2,0:0:0:0:
94,321,103905,1,0,0:0:0:0:
94,321,104017,2,0,P|129:326|164:332,1,70,2|0,0:0|0:0,0:0:0:0:
224,263,104465,6,0,P|256:256|301:281,1,70,2|0,0:0|0:0,0:0:0:0:
351,336,104913,2,0,P|383:343|428:318,1,70,2|0,0:0|0:0,0:0:0:0:
477,261,105361,2,0,P|488:202|502:129,2,105,2|2|2,0:0|0:0|0:0,0:0:0:0:
416,329,106256,37,0,0:0:0:0:
361,255,106481,2,0,P|367:226|376:180,2,70,2|2|2,0:0|0:0|0:0,0:0:0:0:
271,271,107152,2,0,P|277:242|286:196,1,70,2|2,0:0|0:0,0:0:0:0:
206,155,107599,2,0,P|200:184|191:230,1,70,2|2,0:0|0:0,0:0:0:0:
113,270,108047,6,0,P|69:269|41:243,1,70,2|0,0:0|0:0,0:0:0:0:
26,165,108495,2,0,P|48:127|85:116,1,70,2|0,0:0|0:0,0:0:0:0:
155,154,108943,2,0,P|211:144|289:131,2,105,2|2|2,0:0|0:0|0:0,0:0:0:0:
95,223,109838,38,0,P|60:217|13:209,2,70,2|2|2,0:0|0:0|0:0,0:0:0:0:
166,295,110510,1,8,0:3:0:0:
166,295,110622,1,8,0:3:0:0:
166,295,110734,1,8,0:1:0:0:
234,234,110958,1,8,0:1:0:0:
300,295,111181,2,0,L|355:284,3,35,8|8|8|0,0:1|0:1|0:3|0:2,0:0:0:0:
376,306,111629,21,4,0:0:0:0:
376,306,113420,6,0,P|407:300|438:296,1,62.9999980773926,6|2,3:2|0:0,0:0:0:0:
458,258,113755,1,8,0:3:0:0:
458,258,113867,1,10,3:2:0:0:
410,183,114092,2,0,P|378:187|347:192,1,62.9999980773926,8|2,0:3|0:0,0:0:0:0:
316,168,114427,1,8,0:3:0:0:
316,168,114540,2,0,P|284:172|253:177,1,62.9999980773926,2|10,3:2|0:0,0:0:0:0:
176,134,114987,1,2,0:0:0:0:
106,207,115211,37,2,3:2:0:0:
32,163,115435,1,0,0:0:0:0:
32,163,115546,1,8,0:3:0:0:
32,163,115659,2,0,P|25:133|35:94,1,62.9999980773926,10|2,0:0|0:0,0:0:0:0:
94,40,116106,1,2,3:2:0:0:
94,40,116219,2,0,P|145:32|181:25,1,62.9999980773926,8|0,0:3|0:0,0:0:0:0:
197,45,116554,1,10,0:0:0:0:
281,69,116778,1,2,0:0:0:0:
363,99,117002,6,0,P|414:91|450:84,1,62.9999980773926,0|2,3:0|0:0,0:0:0:0:
465,117,117338,1,8,3:0:0:0:
465,117,117450,2,0,P|459:153|453:186,1,62.9999980773926,8|10,0:0|0:3,0:0:0:0:
388,238,117898,2,0,L|395:268,3,31.4999990386963,0|8|0|0,3:0|0:3|0:0|0:0,0:0:0:0:
415,308,118345,2,0,P|358:296|304:285,1,94.499997116089,10|0,0:0|0:0,0:0:0:0:
278,284,118793,38,0,L|291:342,2,41.9999987182618,2|2|2,3:2|0:0|0:0,0:0:0:0:
212,361,119241,2,0,L|202:320,2,41.9999987182618,10|2|2,0:0|0:0|0:0,0:0:0:0:
115,303,119689,2,0,L|128:361,2,41.9999987182618,2|2|2,3:2|0:0|0:0,0:0:0:0:
49,380,120137,2,0,L|39:339,2,41.9999987182618,10|2|2,0:0|0:0|0:0,0:0:0:0:
41,259,120584,6,0,L|30:207,3,31.4999990386963,2|2|2|8,3:2|0:0|0:0|0:3,0:0:0:0:
51,187,121032,2,0,P|44:153|35:109,1,62.9999980773926,10|8,0:0|0:3,0:0:0:0:
113,77,121480,2,0,L|119:107,3,31.4999990386963,2|8|2|2,3:2|0:3|3:2|0:0,0:0:0:0:
158,133,121928,1,10,0:0:0:0:
219,70,122152,1,2,0:0:0:0:
301,128,122376,38,0,P|335:131|369:119,1,62.9999980773926,0|2,3:0|0:0,0:0:0:0:
384,85,122712,1,8,0:3:0:0:
384,85,122824,1,10,0:0:0:0:
457,132,123047,1,8,0:3:0:0:
401,201,123271,1,2,3:2:0:0:
401,201,123383,2,0,P|395:231|386:270,1,62.9999980773926,8|0,0:3|0:0,0:0:0:0:
418,295,123719,2,0,L|430:342,3,31.4999990386963,8|0|8|8,3:1|0:0|0:3|0:3,0:0:0:0:
396,358,124167,5,2,0:0:0:0:
396,358,125062,2,0,P|359:350|312:338,1,62.9999980773926,4|0,3:0|0:0,0:0:0:0:
248,367,125511,2,0,P|211:359|164:347,1,62.9999980773926,0|0,3:0|3:0,0:0:0:0:
99,369,125958,37,4,0:1:0:0:
193,220,126405,2,0,L|254:207,2,41.9999987182618,6|2|0,0:0|0:0|0:0,0:0:0:0:
119,178,126853,2,0,L|58:165,2,41.9999987182618,8|2|2,0:1|0:0|0:0,0:0:0:0:
188,124,127301,2,0,P|234:113|297:101,1,83.9999974365235,2|2,3:2|0:0,0:0:0:0:
329,47,127749,5,8,3:1:0:0:
463,160,128196,2,0,L|452:225,2,41.9999987182618,14|2|0,0:0|0:0|0:0,0:0:0:0:
370,205,128644,2,0,L|377:163,2,41.9999987182618,8|0|2,0:1|0:0|0:0,0:0:0:0:
295,126,129092,2,0,P|288:170|275:246,1,83.9999974365235,10|2,0:0|0:0,0:0:0:0:
329,284,129540,37,10,3:2:0:0:
154,260,129987,2,0,L|142:202,2,41.9999987182618,14|2|0,0:0|0:0|0:0,0:0:0:0:
91,318,130435,2,0,L|103:376,2,41.9999987182618,8|2|2,0:1|0:0|0:0,0:0:0:0:
13,282,130883,2,0,P|0:232|20:181,1,83.9999974365235,10|0,3:2|0:0,0:0:0:0:
72,143,131331,5,2,3:2:0:0:
241,189,131778,2,0,P|254:239|234:290,1,83.9999974365235,2|0,0:1|0:0,0:0:0:0:
174,318,132226,1,8,0:1:0:0:
77,170,132674,1,8,0:1:0:0:
151,119,132898,37,2,0:1:0:0:
151,119,133010,1,0,0:0:0:0:
151,119,133122,2,0,P|193:126|250:137,1,94.499997116089,10|0,0:0|0:0,0:0:0:0:
279,108,133570,2,0,P|319:101|368:92,1,62.9999980773926,10|0,0:0|0:0,0:0:0:0:
418,139,134018,2,0,P|406:184|396:224,1,62.9999980773926,10|2,0:0|0:0,0:0:0:0:
319,230,134465,2,0,P|307:271|333:335,1,94.499997116089,10|0,2:0|0:0,0:0:0:0:
358,343,134913,5,8,3:0:0:0:
440,312,135137,1,8,0:0:0:0:
455,225,135361,1,8,3:0:0:0:
392,162,135585,1,8,0:0:0:0:
307,186,135808,2,0,L|267:193,3,31.4999990386963,8|8|8|8,3:0|0:0|3:0|0:0,0:0:0:0:
238,167,136256,2,0,L|198:160,3,31.4999990386963,8|8|8|8,3:0|0:0|3:0|0:0,0:0:0:0:
85,107,136928,38,0,P|93:146|103:195,2,62.9999980773926,10|10|10,0:0|0:0|0:0,0:0:0:0:
144,41,137600,1,10,0:0:0:0:
227,92,137824,1,2,0:0:0:0:
227,92,137936,1,0,0:0:0:0:
227,92,138047,2,2,P|292:107|335:115,1,94.499997116089,2|0,0:0|0:0,0:0:0:0:
361,93,138495,21,4,3:2:0:0:
448,143,138719,1,0,0:0:0:0:
448,143,138831,1,0,0:0:0:0:
448,143,138943,2,0,P|481:211|448:285,1,140,10|2,0:0|3:2,0:0:0:0:
386,320,139615,1,2,0:0:0:0:
319,259,139838,1,10,0:0:0:0:
245,313,140062,6,0,P|216:306|167:298,1,70,2|0,0:0|3:0,0:0:0:0:
95,331,140510,1,2,0:0:0:0:
95,331,140622,1,0,0:0:0:0:
95,331,140734,2,0,P|88:291|105:248,1,70,8|2,0:0|0:0,0:0:0:0:
171,213,141181,1,2,3:2:0:0:
104,149,141406,1,2,0:0:0:0:
187,112,141630,2,0,P|221:119|262:129,1,70,10|2,0:0|0:0,0:0:0:0:
332,187,142077,37,2,3:2:0:0:
257,234,142301,1,0,0:0:0:0:
257,234,142413,1,0,0:0:0:0:
257,234,142525,2,0,P|197:242|101:258,1,140,10|2,0:0|3:2,0:0:0:0:
34,218,143197,1,2,0:0:0:0:
5,304,143421,1,10,0:0:0:0:
80,354,143644,6,0,P|138:344|176:338,1,70,2|0,0:0|3:0,0:0:0:0:
244,374,144092,1,2,0:0:0:0:
244,374,144204,1,0,0:0:0:0:
244,374,144316,1,8,0:0:0:0:
309,310,144540,2,0,P|367:300|405:294,1,70,0|2,0:0|3:2,0:0:0:0:
444,234,144988,1,2,0:0:0:0:
372,178,145211,2,0,P|337:183|302:189,1,70,10|2,0:0|0:0,0:0:0:0:
228,125,145659,38,0,P|193:119|158:113,1,70,2|0,3:2|0:0,0:0:0:0:
116,119,145995,1,0,0:0:0:0:
116,119,146107,2,0,P|70:167|84:243,1,140,10|2,0:0|3:2,0:0:0:0:
153,288,146779,1,2,0:0:0:0:
231,241,147003,1,10,0:0:0:0:
298,301,147227,6,0,P|332:306|366:313,1,70,2|0,0:0|3:0,0:0:0:0:
441,249,147674,2,0,P|433:215|425:181,1,70,2|8,0:0|0:0,0:0:0:0:
480,91,148122,1,2,0:0:0:0:
395,56,148346,2,0,P|358:50|311:69,1,70,0|0,3:0|0:0,0:0:0:0:
259,120,148794,1,10,0:0:0:0:
171,77,149017,38,0,B|129:69|129:69|29:98,1,140,2|2,0:0|0:0,0:0:0:0:
6,182,149689,1,10,0:0:0:0:
90,216,149913,2,0,P|96:243|107:293,1,70,2|0,0:0|3:0,0:0:0:0:
69,368,150361,1,2,0:0:0:0:
159,375,150585,2,0,P|206:347|267:360,1,105,10|0,0:0|0:0,0:0:0:0:
292,377,151033,5,8,0:3:0:0:
358,314,151256,1,2,0:1:0:0:
322,230,151480,1,8,0:3:0:0:
236,213,151704,1,8,0:3:0:0:
236,213,151816,2,0,B|182:203|194:250|130:228,1,105,8|4,0:3|0:1,0:0:0:0:
90,216,152264,1,0,0:0:0:0:
90,216,152376,2,2,P|80:183|89:145,1,70,8|0,0:1|0:0,0:0:0:0:
141,83,152824,37,6,3:2:0:0:
227,131,153047,1,0,0:0:0:0:
227,131,153159,1,0,0:0:0:0:
227,131,153271,2,0,B|275:144|275:144|371:122,1,140,10|2,0:0|3:2,0:0:0:0:
448,156,153943,1,2,0:0:0:0:
375,209,154166,1,10,0:0:0:0:
456,250,154390,6,0,P|468:284|462:323,1,70,2|0,0:0|3:0,0:0:0:0:
384,354,154838,1,2,0:0:0:0:
384,354,154950,1,0,0:0:0:0:
384,354,155062,2,0,P|357:349|297:338,1,70,8|2,0:0|0:0,0:0:0:0:
239,289,155510,1,2,3:2:0:0:
174,353,155734,1,2,0:0:0:0:
92,311,155958,2,0,P|83:275|101:223,1,70,10|2,0:0|0:0,0:0:0:0:
161,177,156405,37,2,3:2:0:0:
247,228,156629,1,0,0:0:0:0:
247,228,156741,1,0,0:0:0:0:
247,228,156853,2,0,B|295:223|295:223|337:242|337:242|403:237,1,140,10|2,0:0|3:2,0:0:0:0:
454,182,157525,1,2,0:0:0:0:
371,143,157749,1,10,0:0:0:0:
444,90,157972,6,0,P|448:51|415:2,1,70,2|0,0:0|3:0,0:0:0:0:
355,8,158420,1,2,0:0:0:0:
355,8,158532,1,0,0:0:0:0:
355,8,158644,1,8,0:0:0:0:
281,61,158868,2,0,P|248:55|193:46,1,70,2|2,0:0|3:2,0:0:0:0:
127,15,159316,1,2,0:0:0:0:
56,72,159541,2,0,P|63:107|72:144,1,70,10|2,0:0|0:0,0:0:0:0:
24,226,159987,38,0,P|17:261|8:298,1,70
5,343,160323,1,0,0:0:0:0:
5,343,160435,2,0,P|78:302|139:326,1,140,10|2,0:0|3:2,0:0:0:0:
197,376,161107,1,2,0:0:0:0:
243,297,161331,1,10,0:0:0:0:
314,352,161555,6,0,P|350:346|394:338,1,70,2|0,0:0|3:0,0:0:0:0:
452,271,162002,2,0,P|416:265|372:257,1,70,2|8,0:0|0:0,0:0:0:0:
309,183,162450,2,0,P|345:177|389:169,1,70,2|0,0:0|3:0,0:0:0:0:
462,96,162898,2,0,P|426:90|382:82,1,70,2|8,0:0|0:0,0:0:0:0:
294,15,163346,1,0,0:0:0:0:
212,83,163570,38,0,L|221:130,3,35,0|0|2|0,3:0|0:0|0:0|0:0,0:0:0:0:
187,150,164017,1,10,0:0:0:0:
107,105,164241,2,0,P|70:100|25:121,1,70,2|2,0:0|3:2,0:0:0:0:
0,192,164689,1,2,0:0:0:0:
80,235,164913,2,0,L|89:282,3,35,10|0|0|0,0:0|0:0|0:0|0:0,0:0:0:0:
58,306,165361,5,4,3:2:0:0:
149,345,165584,1,0,0:0:0:0:
149,345,165696,1,0,0:0:0:0:
149,345,165808,2,0,B|197:340|197:340|239:359|239:359|305:354,1,140,8|0,0:0|3:0,0:0:0:0:
363,309,166480,2,0,L|405:318,2,35,0|0|8,0:0|0:0|0:0,0:0:0:0:
289,263,166928,37,0,0:0:0:0:
289,263,167040,1,0,0:0:0:0:
289,263,167152,2,0,L|282:218,3,35,0|0|0|0,3:0|0:0|0:0|0:0,0:0:0:0:
311,192,167599,2,0,P|315:138|298:111,1,70,8|0,0:0|0:0,0:0:0:0:
224,90,168047,2,0,L|183:98,3,35,0|0|0|0,3:0|0:0|0:0|0:0,0:0:0:0:
154,125,168495,2,0,L|92:113,2,46.6666666666667,8|0|0,0:0|0:0|0:0,0:0:0:0:
237,177,168943,6,0,P|245:211|255:257,1,70,0|0,3:0|0:0,0:0:0:0:
224,281,169278,1,0,0:0:0:0:
224,281,169390,2,0,P|232:315|242:361,1,70,8|0,0:0|0:0,0:0:0:0:
330,361,169838,2,0,L|318:318,3,35,0|0|0|0,3:0|0:0|0:0|0:0,0:0:0:0:
345,288,170286,2,0,L|333:245,3,35,8|0|0|0,0:0|0:0|0:0|0:0,0:0:0:0:
356,213,170734,37,0,3:0:0:0:
279,173,170958,1,0,0:0:0:0:
279,173,171070,1,0,0:0:0:0:
279,173,171181,2,0,P|243:166|205:178,1,70,8|0,0:0|0:0,0:0:0:0:
148,240,171629,2,0,P|114:248|80:241,1,70,0|0,3:0|0:0,0:0:0:0:
35,161,172077,2,0,P|26:115|19:80,1,70,8|0,0:0|0:0,0:0:0:0:
102,36,172525,5,0,3:0:0:0:
186,91,172749,1,0,0:0:0:0:
186,91,172861,1,0,0:0:0:0:
186,91,172973,2,0,P|228:98|277:106,1,70,8|0,0:0|0:0,0:0:0:0:
329,50,173420,2,0,P|371:57|420:65,1,70,0|0,3:0|0:0,0:0:0:0:
460,127,173868,2,0,P|446:169|433:216,1,70,8|0,0:0|0:0,0:0:0:0:
366,250,174316,38,0,P|311:258|259:232,1,105,0|0,3:0|0:0,0:0:0:0:
240,201,174764,2,0,B|195:184|195:184|89:211,1,140,8|0,0:0|3:0,0:0:0:0:
46,275,175435,1,0,0:0:0:0:
46,275,175547,1,0,0:0:0:0:
46,275,175659,2,0,P|40:310|62:362,1,70,8|0,0:0|0:0,0:0:0:0:
144,364,176107,5,0,3:0:0:0:
215,308,176331,2,0,L|203:256,2,35,0|0|8,0:0|0:0|0:0,0:0:0:0:
303,356,176778,1,0,0:0:0:0:
303,356,176890,1,0,0:0:0:0:
303,356,177002,2,0,P|352:362|379:350,1,70,0|0,3:0|0:0,0:0:0:0:
408,272,177450,2,0,P|374:264|340:272,1,70,8|0,0:0|0:0,0:0:0:0:
251,293,177898,37,8,0:0:0:0:
190,224,178122,1,8,0:0:0:0:
130,292,178346,1,8,0:0:0:0:
69,230,178570,1,8,0:0:0:0:
69,230,178681,2,0,P|55:174|95:109,1,105,8|8,0:0|0:3,0:0:0:0:
153,90,179241,2,0,L|145:48,2,35,2|0|0,0:0|0:0|0:0,0:0:0:0:
225,145,179689,5,0,0:0:0:0:
225,145,181480,5,2,3:2:0:0:
225,145,188644,6,0,P|238:197|246:229,1,62.9999980773926,2|0,3:2|0:0,0:0:0:0:
326,227,189092,2,0,P|352:284|327:354,1,125.999996154785,2|2,3:2|3:2,0:0:0:0:
253,376,189764,1,2,0:0:0:0:
190,314,189987,1,2,3:2:0:0:
117,363,190211,38,0,P|88:357|41:347,1,62.9999980773926,2|0,0:0|3:0,0:0:0:0:
30,265,190659,2,0,P|59:271|106:281,1,62.9999980773926,2|0,0:0|3:0,0:0:0:0:
170,236,191107,2,0,L|210:244,2,31.4999990386963,2|0|0,0:0|0:0|3:0,0:0:0:0:
99,182,191555,1,0,0:0:0:0:
91,94,191778,1,2,3:2:0:0:
160,40,192002,1,2,0:0:0:0:
247,51,192226,6,0,P|286:46|327:39,1,62.9999980773926,0|2,0:0|0:0,0:0:0:0:
396,25,192674,1,2,3:2:0:0:
468,75,192898,2,0,P|477:111|472:138,1,62.9999980773926,2|0,0:0|3:0,0:0:0:0:
406,195,193346,1,2,0:0:0:0:
322,167,193570,2,0,B|283:158|283:158|205:180,1,94.499997116089,2|0,3:2|0:0,0:0:0:0:
206,209,194017,37,10,0:0:0:0:
134,157,194241,1,8,0:0:0:0:
84,229,194465,1,8,0:0:0:0:
9,181,194689,1,8,0:0:0:0:
9,181,194801,2,0,P|-1:125|30:75,1,94.499997116089,8|2,0:0|0:0,0:0:0:0:
50,66,195249,1,0,0:0:0:0:
50,66,195361,2,2,P|84:60|133:51,1,62.9999980773926,10|0,0:1|0:0,0:0:0:0:
200,12,195808,21,6,3:2:0:0:
272,82,196031,1,0,0:0:0:0:
272,82,196143,1,0,0:0:0:0:
272,82,196256,2,0,B|293:118|293:118|265:223,1,140,10|2,0:0|3:2,0:0:0:0:
198,272,196927,1,2,0:0:0:0:
141,201,197152,1,10,0:0:0:0:
62,247,197376,6,0,P|51:279|63:326,1,70,2|0,0:0|0:0,0:0:0:0:
143,366,197822,1,2,0:0:0:0:
143,366,197934,1,0,0:0:0:0:
143,366,198047,2,0,P|167:361|223:349,1,70,8|2,0:0|0:0,0:0:0:0:
300,329,198494,1,2,3:2:0:0:
231,269,198718,1,2,0:0:0:0:
320,249,198943,2,0,P|344:244|400:232,1,70,10|2,0:0|0:0,0:0:0:0:
465,174,199389,37,2,3:2:0:0:
402,114,199613,1,0,0:0:0:0:
402,114,199725,1,0,0:0:0:0:
402,114,199838,2,0,P|351:86|273:105,1,140,10|2,0:0|3:2,0:0:0:0:
220,177,200509,1,2,0:0:0:0:
288,236,200733,1,10,0:0:0:0:
207,277,200958,6,0,P|149:267|111:261,1,70,2|0,0:0|0:0,0:0:0:0:
74,330,201404,1,2,0:0:0:0:
74,330,201516,1,0,0:0:0:0:
74,330,201628,1,8,0:0:0:0:
13,253,201853,2,0,P|8:218|23:182,1,70,2|2,0:0|3:2,0:0:0:0:
89,126,202300,1,2,0:0:0:0:
157,186,202525,2,0,P|191:191|226:197,1,70,10|2,0:0|0:0,0:0:0:0:
301,135,202973,38,0,P|341:125|383:140,1,70,2|0,3:2|0:0,0:0:0:0:
405,166,203308,1,0,0:0:0:0:
405,166,203420,2,0,P|417:234|435:334,1,140,10|2,0:0|3:2,0:0:0:0:
367,370,204091,1,2,0:0:0:0:
297,311,204315,1,10,0:0:0:0:
228,370,204540,6,0,P|186:362|135:353,1,70,2|0,0:0|3:0,0:0:0:0:
61,365,204987,2,0,P|71:326|82:280,1,70,2|8,0:0|0:0,0:0:0:0:
5,220,205435,2,0,P|-4:182|10:140,1,70,2|0,0:0|3:0,0:0:0:0:
103,102,205883,2,0,P|141:110|202:125,1,70,2|8,0:0|0:0,0:0:0:0:
280,70,206330,1,2,0:0:0:0:
322,171,206555,38,0,L|333:223,3,35,0|0|2|0,3:0|0:0|0:0|0:0,0:0:0:0:
369,226,207001,1,10,0:0:0:0:
433,162,207226,2,0,P|424:122|414:79,1,70,2|2,0:0|3:2,0:0:0:0:
335,53,207673,1,2,0:0:0:0:
259,104,207898,2,0,P|208:96|142:86,1,105,10|0,0:0|0:0,0:0:0:0:
115,111,208346,5,6,3:2:0:0:
44,162,208570,1,0,0:0:0:0:
44,162,208681,1,0,0:0:0:0:
44,162,208793,2,0,P|36:192|47:238,1,70,8|0,0:0|0:0,0:0:0:0:
121,277,209242,2,0,P|162:271|212:262,1,70,0|0,3:0|0:0,0:0:0:0:
221,299,209577,2,0,P|262:305|312:314,1,70,8|0,0:0|0:0,0:0:0:0:
334,295,209914,1,8,0:0:0:0:
404,352,210138,37,0,3:0:0:0:
482,306,210362,2,0,P|488:272|494:238,2,70,0|8|0,0:0|0:0|0:0,0:0:0:0:
407,253,211032,2,0,P|413:219|419:185,1,70,0|0,3:0|0:0,0:0:0:0:
329,199,211480,2,0,P|335:165|341:131,1,70,8|0,0:0|0:0,0:0:0:0:
261,71,211929,6,0,P|228:61|185:71,1,70,0|0,3:0|0:0,0:0:0:0:
157,93,212265,1,0,0:0:0:0:
157,93,212376,1,8,0:0:0:0:
92,157,212600,1,0,0:0:0:0:
171,199,212823,2,0,P|177:233|183:267,1,70,0|0,3:0|0:0,0:0:0:0:
140,285,213159,2,0,P|146:319|152:353,1,70,8|0,0:0|0:0,0:0:0:0:
194,372,213496,1,8,0:0:0:0:
271,325,213720,37,0,3:0:0:0:
354,360,213943,2,0,P|403:368|452:375,2,70,0|8|0,0:0|0:0|0:0,0:0:0:0:
403,283,214614,2,0,P|452:291|501:298,1,70,0|0,3:0|0:0,0:0:0:0:
454,204,215062,2,0,P|419:198|384:193,1,70,8|0,0:0|0:0,0:0:0:0:
312,136,215510,5,0,3:0:0:0:
228,173,215734,2,0,P|222:207|235:252,1,70,0|8,0:0|0:0,0:0:0:0:
311,280,216181,1,0,0:0:0:0:
236,331,216405,2,0,P|193:321|142:310,1,70,0|0,3:0|0:0,0:0:0:0:
86,357,216853,2,0,P|43:347|-8:336,1,70,8|0,0:0|0:0,0:0:0:0:
11,250,217301,37,0,3:0:0:0:
74,184,217525,2,0,P|108:191|142:199,2,70,0|8|0,0:0|0:0|0:0,0:0:0:0:
129,112,218196,2,0,P|163:119|197:127,1,70,0|0,3:0|0:0,0:0:0:0:
180,37,218644,2,0,P|214:44|248:52,1,70,8|0,0:0|0:0,0:0:0:0:
342,22,219093,5,0,3:0:0:0:
428,74,219316,1,0,0:0:0:0:
428,74,219428,1,0,0:0:0:0:
428,74,219540,2,0,P|445:115|420:192,1,105,8|0,0:0|0:0,0:0:0:0:
394,196,219987,1,4,0:0:0:0:
314,151,220211,1,4,0:0:0:0:
237,199,220435,1,4,0:0:0:0:
162,146,220659,2,0,L|114:136,1,35,4|0,0:0|0:0,0:0:0:0:
