osu file format v14

[General]
AudioFilename: audio.mp3
AudioLeadIn: 0
PreviewTime: 59992
Countdown: 0
SampleSet: Soft
StackLeniency: 0.3
Mode: 0
LetterboxInBreaks: 0
WidescreenStoryboard: 0

[Editor]
Bookmarks: 2973,14008,20359,24992,27801,49640
DistanceSpacing: 0.8
BeatDivisor: 8
GridSize: 8
TimelineZoom: 1.2

[Metadata]
Title:Lemon (Arrange ver.)
TitleUnicode:Lemon (Arrange ver.)
Artist:mafumafu
ArtistUnicode:まふまふ
Creator:edgykatsu
Version:Bittersweet
Source:
Tags:arrange ver nico nico douga utaite cover yonezu kenshi piano 米津玄師
BeatmapID:1634524
BeatmapSetID:778207

[Difficulty]
HPDrainRate:5
CircleSize:4
OverallDifficulty:9
ApproachRate:9
SliderMultiplier:2.2
SliderTickRate:1

[Events]
//Background and Video events
0,0,"crop1.jpg",0,0
//Break Periods
//Storyboard Layer 0 (Background)
//Storyboard Layer 1 (Fail)
//Storyboard Layer 2 (Pass)
//Storyboard Layer 3 (Foreground)
//Storyboard Sound Samples

[TimingPoints]
101,689.655172413793,4,2,0,50,1,0
12398,-333.333333333333,4,2,0,50,0,0
13433,-100,4,2,0,50,0,0
14467,-100,4,2,2,50,0,0
14697,-100,4,2,0,50,0,0
15847,-100,4,2,2,50,0,0
16077,-100,4,2,0,50,0,0
17226,-100,4,2,2,50,0,0
17456,-100,4,2,0,50,0,0
18629,-100,4,2,2,50,0,0
18856,-100,4,2,0,50,0,0
19538,-153.846153846153,4,2,0,50,0,0
20106,-100,4,2,2,50,0,0
20333,-100,4,2,0,50,0,0
21356,-100,4,2,2,50,0,0
21583,-100,4,2,0,50,0,0
22833,-100,4,2,2,50,0,0
23061,-100,4,2,0,50,0,0
24197,-100,4,2,2,50,0,0
24812,-133.333333333333,4,2,0,50,0,0
27801,-100,4,2,0,50,0,0
28401,-100,4,2,2,50,0,0
28515,-100,4,2,0,50,0,0
29765,-100,4,2,2,50,0,0
29992,-100,4,2,0,50,0,0
30901,-66.6666666666667,4,2,0,50,0,0
31129,-66.6666666666667,4,2,2,50,0,0
31242,-100,4,2,0,50,0,0
32606,-100,4,2,2,50,0,0
32720,-100,4,2,0,50,0,0
33970,-100,4,2,2,50,0,0
34083,-100,4,2,0,50,0,0
34311,-66.6666666666667,4,2,0,50,0,0
34765,-285.714285714284,4,2,0,50,0,0
34992,-100,4,2,0,50,0,0
35220,-100,4,2,2,50,0,0
35447,-100,4,2,0,50,0,0
35674,-66.6666666666667,4,2,0,50,0,0
36470,-285.714285714284,4,2,2,50,0,0
36697,-100,4,2,0,50,0,0
37947,-100,4,2,2,50,0,0
38174,-100,4,2,0,50,0,0
39311,-100,4,2,2,50,0,0
39538,-100,4,2,0,50,0,0
40674,-100,4,2,2,50,0,0
40901,-100,4,2,0,50,0,0
42265,-100,4,2,2,50,0,0
42379,-100,4,2,0,50,0,0
44879,-100,4,2,2,50,0,0
45106,-100,4,2,0,50,0,0
46242,-100,4,2,2,50,0,0
46470,-100,4,2,0,50,0,0
47606,-100,4,2,2,50,0,0
47833,-100,4,2,0,50,0,0
48629,-399.999999999997,4,2,0,50,0,0
49083,-100,4,2,2,50,0,0
57606,-133.333333333333,4,2,0,50,0,0
59985,-181.818181818181,4,2,0,50,0,0
60790,-100,4,2,0,50,0,1
77342,-100,4,2,0,50,0,0
86924,-399.999999999997,4,2,0,50,0,0

[Colours]
Combo1 : 205,58,94
Combo2 : 154,154,154
Combo3 : 92,92,92

[HitObjects]
157,149,2859,5,0,0:0:0:0:
157,149,4152,5,0,0:0:0:0:
157,146,5618,5,0,0:0:0:0:
159,146,7169,1,0,0:0:0:0:
204,208,7514,2,0,L|219:250,1,36.6666666666667
301,257,8376,5,0,0:0:0:0:
301,255,9755,5,0,0:0:0:0:
303,255,11134,5,0,0:0:0:0:
278,168,11652,1,0,0:0:0:0:
278,168,11825,2,0,P|316:159|345:159,1,55
381,211,12169,1,0,0:0:0:0:
381,211,12428,2,0,P|348:229|336:278,1,90.7499972305299
232,159,13894,5,0,0:0:0:0:
232,159,14066,1,0,0:0:0:0:
232,159,14238,6,0,P|188:174|168:204,1,73.3333333333333,0|8,0:0|0:0,0:0:0:0:
256,226,14928,1,0,0:0:0:0:
338,180,15273,6,0,P|378:153|406:159,1,73.3333333333333
401,157,15618,1,0,0:0:0:0:
401,157,15790,1,0,0:0:0:0:
390,232,15963,6,0,P|350:253|312:244,1,73.3333333333333,8|0,0:0|0:0,0:0:0:0:
335,178,16307,2,0,P|290:166|249:194,1,73.3333333333333
266,176,16652,1,0,0:0:0:0:
266,176,16738,5,0,0:0:0:0:
200,213,16997,1,0,0:0:0:0:
200,213,17169,6,0,L|159:243,1,36.6666666666667,0|8,0:0|0:0,0:0:0:0:
144,256,17514,2,0,L|126:308,1,36.6666666666667
228,315,17859,1,0,0:0:0:0:
228,315,18032,2,0,P|273:307|301:265,1,73.3333333333333
297,258,18376,2,0,P|323:219|321:173,1,73.3333333333333
318,177,18721,6,0,P|312:218|282:249,1,73.3333333333333
292,242,19066,1,0,0:0:0:0:
234,191,19238,2,0,L|199:147,1,36.6666666666667
192,129,19497,1,0,0:0:0:0:
192,129,19583,1,0,0:0:0:0:
105,153,19756,2,0,B|86:106|86:106|119:65,1,95.3333289693199
185,106,20359,6,0,B|205:152|205:152|186:188,2,82.5
185,106,20963,1,0,0:0:0:0:
185,106,21049,1,0,0:0:0:0:
112,164,21221,2,0,P|101:217|109:246,1,82.5
181,208,21566,6,0,P|182:254|166:285,1,82.5,8|0,0:0|0:0,0:0:0:0:
203,306,21911,2,0,P|219:267|213:228,1,82.5
227,139,22256,2,0,L|264:49,1,82.5
259,63,22687,1,0,0:0:0:0:
315,216,22945,5,8,0:0:0:0:
234,297,23549,2,0,L|255:212,1,73.3333333333333
251,225,24238,5,8,0:0:0:0:
366,212,24928,5,0,0:0:0:0:
351,141,25014,1,0,0:0:0:0:
270,69,25100,1,0,0:0:0:0:
269,146,25187,1,0,0:0:0:0:
190,73,25273,1,0,0:0:0:0:
190,73,25359,1,0,0:0:0:0:
190,73,25445,1,0,0:0:0:0:
158,166,27687,6,0,L|188:246,1,82.5000031471254
188,243,28118,1,0,0:0:0:0:
188,243,28290,1,0,0:0:0:0:
278,206,28376,6,0,L|298:255,1,27.5,8|0,0:0|0:0,0:0:0:0:
301,125,28807,2,0,P|260:109|226:142,1,82.5
278,206,29152,2,0,P|244:226|196:217,1,82.5
200,221,29497,1,0,0:0:0:0:
207,224,29583,1,0,0:0:0:0:
200,221,29669,1,0,0:0:0:0:
134,300,29842,5,8,0:0:0:0:
134,300,30014,2,0,L|225:299,1,82.5
301,247,30359,2,0,P|300:208|271:178,1,82.5
143,163,30704,2,0,P|165:135|208:109,1,82.5
200,164,31049,6,0,P|169:194|154:239,1,82.5000031471254,0|8,0:0|0:0,0:0:0:0:
214,225,31307,2,0,P|190:257|182:281,1,55
185,271,31566,5,0,0:0:0:0:
276,322,31652,1,0,0:0:0:0:
344,238,31738,2,0,P|344:196|317:160,1,82.5
374,181,32083,2,0,P|337:120|315:112,1,82.5
329,116,32428,1,0,0:0:0:0:
249,81,32514,1,0,0:0:0:0:
255,189,32600,1,0,0:0:0:0:
255,189,32687,6,0,P|228:231|199:237,1,73.3333333333333,8|0,0:0|0:0,0:0:0:0:
207,236,33032,1,0,0:0:0:0:
131,161,33204,1,0,0:0:0:0:
131,161,33376,6,0,P|179:136|194:98,1,73.3333333333333
188,120,33721,1,0,0:0:0:0:
281,132,33807,1,0,0:0:0:0:
274,216,33894,1,0,0:0:0:0:
274,216,33980,6,0,P|319:257|345:266,1,82.5
419,128,34411,2,0,P|417:182|414:203,1,55.0000020980836
402,180,34583,2,0,P|390:236|384:253,1,55.0000020980836
374,249,34842,2,0,L|347:291,1,38.4999988250733
252,257,35359,6,0,P|246:220|266:177,1,82.5
375,114,35790,2,0,P|324:75|276:104,1,110.000004196167
318,158,36135,2,0,P|352:203|408:187,1,110.000004196167
399,195,36480,1,0,0:0:0:0:
403,282,36652,6,0,P|366:311|359:311,1,51.3333317667644,8|0,0:0|0:0,0:0:0:0:
323,233,37256,2,0,P|295:201|259:187,1,82.5
258,186,37601,1,0,0:0:0:0:
230,268,37687,2,0,P|245:302|289:322,1,82.5
365,199,38032,5,8,0:0:0:0:
365,199,38376,2,0,P|311:158|308:127,1,73.3333333333333
310,156,38721,1,0,0:0:0:0:
244,212,38894,6,0,P|225:291|217:299,1,73.3333333333333
231,282,39238,1,0,0:0:0:0:
162,247,39325,1,0,0:0:0:0:
162,247,39411,6,0,P|159:198|179:168,1,82.5,8|0,0:0|0:0,0:0:0:0:
257,159,39756,2,0,P|290:134|301:99,1,73.3333333333333
381,103,40100,6,0,P|419:138|428:180,1,73.3333333333333
426,157,40445,1,0,0:0:0:0:
381,226,40618,1,0,0:0:0:0:
381,226,40790,6,0,P|359:268|335:277,1,73.3333333333333,8|0,0:0|0:0,0:0:0:0:
267,219,41135,2,0,P|236:186|203:183,1,73.3333333333333
210,183,41480,1,0,0:0:0:0:
153,254,41652,2,0,P|150:302|128:325,1,73.3333333333333
135,321,41997,1,0,0:0:0:0:
71,278,42083,6,0,L|54:322,1,27.5
101,203,42342,1,8,0:0:0:0:
101,203,42514,2,0,P|154:181|163:152,1,73.3333333333333
159,146,42859,2,0,P|132:186|99:194,1,73.3333333333333
112,196,43204,5,0,0:0:0:0:
136,281,43290,1,0,0:0:0:0:
216,235,43376,1,0,0:0:0:0:
296,168,43549,5,0,0:0:0:0:
328,168,43635,1,0,0:0:0:0:
352,192,43721,1,0,0:0:0:0:
358,210,43807,1,0,0:0:0:0:
429,231,43894,2,0,P|474:186|469:158,1,73.3333333333333
475,182,44238,1,0,0:0:0:0:
436,97,44411,1,0,0:0:0:0:
436,97,44583,6,0,P|393:104|363:85,1,73.3333333333333
301,127,44928,6,0,P|276:166|242:178,1,73.3333333333333,8|0,0:0|0:0,0:0:0:0:
252,176,45273,1,0,0:0:0:0:
228,273,45445,1,0,0:0:0:0:
228,273,45618,2,0,P|288:271|303:260,1,73.3333333333333
302,246,45963,2,0,P|338:226|353:191,1,73.3333333333333
351,198,46307,5,8,0:0:0:0:
324,84,46652,1,0,0:0:0:0:
230,128,46997,6,0,P|188:164|170:182,1,73.3333333333333
175,176,47342,1,0,0:0:0:0:
99,269,47687,6,0,L|99:186,1,73.3333333333333,8|0,0:0|0:0,0:0:0:0:
154,125,48376,6,0,L|235:97,1,73.3333333333333
259,115,48721,2,0,L|285:122,1,27.5
204,303,49152,5,8,0:0:0:0:
355,145,49756,5,0,0:0:0:0:
295,200,50445,6,0,L|263:231,1,27.5000010490418,8|0,0:0|0:0,0:0:0:0:
198,140,51307,5,0,0:0:0:0:
121,162,51825,6,0,L|121:208,1,36.6666666666667,8|0,0:0|0:0,0:0:0:0:
62,105,52514,5,0,0:0:0:0:
62,297,53204,6,0,L|110:297,1,36.6666666666667,8|0,0:0|0:0,0:0:0:0:
189,305,53894,5,0,0:0:0:0:
284,213,54583,6,0,L|329:212,1,36.6666666666667,8|0,0:0|0:0,0:0:0:0:
422,321,55273,5,0,0:0:0:0:
423,211,55963,6,0,L|424:165,1,36.6666666666667,8|0,0:0|0:0,0:0:0:0:
346,97,56652,5,0,0:0:0:0:
255,127,57342,6,0,L|254:178,1,27.5,8|0,0:0|0:0,0:0:0:0:
295,240,57859,6,0,P|334:228|357:193,1,82.5000031471254
356,194,58376,1,0,0:0:0:0:
294,148,58894,6,0,L|262:117,1,27.5000010490418
228,113,59066,2,0,L|196:82,1,27.5000010490418
152,101,59411,2,0,P|128:133|139:175,1,82.5000031471254
210,281,60100,1,0,0:0:0:0:
298,120,60187,1,0,0:0:0:0:
340,290,60273,1,0,0:0:0:0:
193,163,60359,1,0,0:0:0:0:
385,191,60445,1,0,0:0:0:0:
385,191,60618,1,0,0:0:0:0:
385,191,60790,6,0,P|412:144|403:100,1,73.3333333333333
411,126,61135,1,0,0:0:0:0:
316,71,61221,1,0,0:0:0:0:
314,251,61394,1,0,0:0:0:0:
241,150,61480,1,0,0:0:0:0:
241,150,61652,6,0,P|174:148|150:126,1,73.3333333333333
170,146,61997,1,0,0:0:0:0:
69,102,62083,2,0,P|113:104|146:121,1,82.5
164,97,62428,2,0,P|125:68|65:68,1,110
113,164,62859,5,0,0:0:0:0:
72,288,62945,1,0,0:0:0:0:
192,253,63032,1,0,0:0:0:0:
92,148,63118,1,0,0:0:0:0:
53,281,63204,1,0,0:0:0:0:
212,234,63290,1,0,0:0:0:0:
214,235,63463,1,0,0:0:0:0:
212,234,63549,1,0,0:0:0:0:
212,234,63721,6,0,P|235:185|235:149,1,73.3333333333333
236,166,64066,1,0,0:0:0:0:
341,101,64238,6,0,P|401:113|422:149,1,73.3333333333333
323,266,64583,2,0,P|276:260|252:247,1,73.3333333333333
356,118,64928,2,0,P|413:142|427:181,1,73.3333333333333
307,277,65273,2,0,P|262:262|241:245,1,73.3333333333333
169,207,65618,5,0,0:0:0:0:
169,72,65704,1,0,0:0:0:0:
101,139,65790,1,0,0:0:0:0:
236,139,65876,1,0,0:0:0:0:
236,139,66049,1,0,0:0:0:0:
236,139,66221,6,0,P|279:160|305:198,1,82.5
377,89,66566,1,0,0:0:0:0:
377,89,66652,6,0,P|385:150|383:184,1,73.3333333333333
289,235,66997,6,0,P|246:204|239:175,1,73.3333333333333
252,183,67342,2,0,P|242:137|245:107,1,73.3333333333333
154,148,67687,2,0,P|156:184|147:220,1,73.3333333333333
159,223,68032,2,0,P|142:255|110:272,1,73.3333333333333
110,271,68376,5,0,0:0:0:0:
329,319,68463,2,0,P|331:273|308:236,1,82.5
234,269,68807,2,0,P|229:224|249:191,1,82.5
247,194,69152,1,0,0:0:0:0:
324,103,69238,1,0,0:0:0:0:
362,223,69324,1,0,0:0:0:0:
362,223,69411,2,0,P|392:201|407:158,1,82.5
407,160,69842,5,0,0:0:0:0:
407,160,69928,2,0,P|418:225|430:244,1,82.5
466,321,70359,2,0,P|419:341|379:329,1,82.5
328,248,70704,1,0,0:0:0:0:
328,248,70790,1,0,0:0:0:0:
263,169,70963,1,0,0:0:0:0:
193,120,71135,6,0,P|146:131|134:173,1,73.3333333333333
134,150,71480,1,0,0:0:0:0:
63,220,71566,1,0,0:0:0:0:
196,221,71652,1,0,0:0:0:0:
134,290,71738,1,0,0:0:0:0:
134,290,71997,6,0,P|179:324|200:327,1,73.3333333333333
202,251,72342,2,0,P|167:219|139:207,1,73.3333333333333
143,208,72687,5,0,0:0:0:0:
202,144,72773,2,0,P|237:122|254:79,1,82.5
254,82,73118,1,0,0:0:0:0:
332,155,73290,2,0,P|316:195|325:238,1,82.5
407,209,73635,2,0,P|419:255|403:292,1,82.5
279,290,73980,5,0,0:0:0:0:
264,251,74066,1,0,0:0:0:0:
270,206,74152,1,0,0:0:0:0:
296,171,74238,1,0,0:0:0:0:
332,144,74325,1,0,0:0:0:0:
332,144,74411,1,0,0:0:0:0:
332,144,74583,6,0,P|373:110|363:61,1,73.3333333333333
286,73,74928,2,0,P|236:96|228:125,1,73.3333333333333
188,237,75273,5,0,0:0:0:0:
202,239,75618,1,0,0:0:0:0:
223,242,75963,6,0,P|255:225|277:178,1,73.3333333333333
288,144,76480,5,0,0:0:0:0:
321,134,76566,1,0,0:0:0:0:
350,146,76652,1,0,0:0:0:0:
361,180,76738,1,0,0:0:0:0:
356,213,76824,1,0,0:0:0:0:
356,213,76911,2,0,P|334:262|307:282,1,82.5
312,279,77342,1,0,0:0:0:0:
242,269,77514,6,0,P|214:240|205:207,1,73.3333333333333
205,208,77859,1,0,0:0:0:0:
215,108,77945,1,0,0:0:0:0:
186,209,78032,1,0,0:0:0:0:
186,206,78204,2,0,L|154:273,1,73.3333333333333
240,313,78549,2,0,P|286:328|304:304,1,73.3333333333333
311,289,78894,2,0,L|397:287,1,73.3333333333333
477,271,79238,2,0,P|445:255|416:275,1,73.3333333333333
416,274,79583,5,0,0:0:0:0:
312,221,79669,1,0,0:0:0:0:
312,221,79756,2,0,P|260:187|265:164,1,73.3333333333333
199,249,80100,6,0,P|189:302|163:338,1,73.3333333333333
180,319,80445,1,0,0:0:0:0:
111,177,80618,1,0,0:0:0:0:
111,177,80790,6,0,P|175:144|179:126,1,73.3333333333333
172,148,81135,1,0,0:0:0:0:
253,125,81480,2,0,P|314:126|331:166,1,110
330,165,81911,1,0,0:0:0:0:
276,244,81997,1,0,0:0:0:0:
393,245,82083,1,0,0:0:0:0:
318,329,82169,1,0,0:0:0:0:
318,329,82256,6,0,P|279:351|235:357,1,82.5
242,357,82687,1,0,0:0:0:0:
139,289,82773,1,0,0:0:0:0:
139,289,82859,6,0,P|137:231|163:209,1,73.3333333333333
221,254,83204,2,0,P|229:207|209:179,1,73.3333333333333
217,186,83549,5,0,0:0:0:0:
317,140,83894,1,0,0:0:0:0:
317,140,84238,2,0,P|362:133|383:108,1,73.3333333333333
264,222,84583,2,0,P|219:215|198:190,1,73.3333333333333
201,195,84928,5,0,0:0:0:0:
146,311,85273,1,0,0:0:0:0:
146,311,85618,1,0,0:0:0:0:
349,344,85790,1,0,0:0:0:0:
349,344,85963,6,0,P|366:298|360:271,1,73.3333333333333
361,275,86307,1,0,0:0:0:0:
301,151,86394,5,0,0:0:0:0:
301,151,86652,2,0,P|284:203|267:211,1,73.3333333333333
270,209,86997,2,0,P|230:185|202:193,1,75.625
