osu file format v14

[General]
AudioFilename: audio.mp3
AudioLeadIn: 0
PreviewTime: 44899
Countdown: 0
SampleSet: Normal
StackLeniency: 0.7
Mode: 1
LetterboxInBreaks: 0
WidescreenStoryboard: 0

[Editor]
DistanceSpacing: 1
BeatDivisor: 4
GridSize: 32
TimelineZoom: 1

[Metadata]
Title:Kyouka Suigetsu
TitleUnicode:鏡花水月
Artist:mafumafu
ArtistUnicode:まふまふ
Creator:newyams99
Version:Reflection
Source:
Tags:utaite
BeatmapID:1402124
BeatmapSetID:662378

[Difficulty]
HPDrainRate:6
CircleSize:3.5
OverallDifficulty:6
ApproachRate:5
SliderMultiplier:1.4
SliderTickRate:1

[Events]
//Background and Video events
0,0,"Kyouka BG.jpg",0,0
//Break Periods
2,202990,208778
//Storyboard Layer 0 (Background)
//Storyboard Layer 1 (Fail)
//Storyboard Layer 2 (Pass)
//Storyboard Layer 3 (Foreground)
//Storyboard Sound Samples

[TimingPoints]
4978,625,4,1,0,30,1,0
24978,-80,4,1,0,50,0,0
34978,-80,4,1,0,70,0,0
44978,-55.5555555555556,4,1,0,90,0,1
63728,-55.5555555555556,4,1,0,70,0,0
64353,-80,4,1,0,30,0,0
64821,-80,4,1,0,70,0,0
65290,-80,4,1,0,50,0,0
114978,-80,4,1,0,70,0,0
124978,-66.6666666666667,4,1,0,90,0,1
163728,-66.6666666666667,4,1,0,70,0,0
164353,-100,4,1,0,30,0,0
182165,-55.5555555555556,4,1,0,90,0,0
212478,-55.5555555555556,4,1,0,90,0,1
246228,-55.5555555555556,4,1,0,70,0,0
246853,-100,4,1,0,30,0,0
249353,-111.111111111111,4,1,0,30,0,0
251853,-125,4,1,0,30,0,0
254353,-142.857142857143,4,1,0,30,0,0
256853,-166.666666666667,4,1,0,20,0,0
259353,-200,4,1,0,20,0,0
261853,-250,4,1,0,20,0,0

[HitObjects]
256,192,4978,5,2,0:0:0:0:
256,192,5603,1,2,0:0:0:0:
256,192,5915,1,2,0:0:0:0:
256,192,6228,1,0,0:0:0:0:
256,192,6853,1,0,0:0:0:0:
256,192,7165,1,0,0:0:0:0:
256,192,7478,1,2,0:0:0:0:
256,192,7790,1,0,0:0:0:0:
256,192,8103,1,2,0:0:0:0:
256,192,8415,1,2,0:0:0:0:
256,192,8728,1,0,0:0:0:0:
256,192,9353,1,0,0:0:0:0:
256,192,9665,1,2,0:0:0:0:
256,192,9978,1,0,0:0:0:0:
256,192,10603,1,0,0:0:0:0:
256,192,10915,1,0,0:0:0:0:
256,192,11228,1,2,0:0:0:0:
256,192,11853,1,2,0:0:0:0:
256,192,12165,1,2,0:0:0:0:
256,192,12478,1,0,0:0:0:0:
256,192,12790,1,0,0:0:0:0:
256,192,13103,1,2,0:0:0:0:
256,192,13728,1,0,0:0:0:0:
256,192,14353,1,0,0:0:0:0:
256,192,14665,1,0,0:0:0:0:
256,192,14978,1,2,0:0:0:0:
256,192,15603,1,2,0:0:0:0:
256,192,15915,1,2,0:0:0:0:
256,192,16228,1,0,0:0:0:0:
256,192,16853,1,0,0:0:0:0:
256,192,17165,1,0,0:0:0:0:
256,192,17478,1,2,0:0:0:0:
256,192,17790,1,0,0:0:0:0:
256,192,18103,1,2,0:0:0:0:
256,192,18415,1,0,0:0:0:0:
256,192,18728,1,2,0:0:0:0:
256,192,19353,1,0,0:0:0:0:
256,192,19665,1,2,0:0:0:0:
256,192,19978,1,0,0:0:0:0:
256,192,20603,1,0,0:0:0:0:
256,192,20915,1,0,0:0:0:0:
256,192,21228,1,2,0:0:0:0:
256,192,21540,1,0,0:0:0:0:
256,192,21853,1,2,0:0:0:0:
256,192,22165,1,2,0:0:0:0:
256,192,22478,12,0,24040,0:0:0:0:
256,192,24978,5,0,0:0:0:0:
256,192,25603,1,0,0:0:0:0:
256,192,25915,1,0,0:0:0:0:
256,192,26228,1,2,0:0:0:0:
256,192,26853,1,2,0:0:0:0:
256,192,27165,1,2,0:0:0:0:
256,192,27478,1,0,0:0:0:0:
256,192,27790,1,0,0:0:0:0:
256,192,28103,1,2,0:0:0:0:
256,192,28728,1,0,0:0:0:0:
256,192,29040,1,0,0:0:0:0:
256,192,29353,1,0,0:0:0:0:
256,192,29978,1,2,0:0:0:0:
256,192,30603,1,2,0:0:0:0:
256,192,30915,1,2,0:0:0:0:
256,192,31228,1,0,0:0:0:0:
256,192,31853,1,0,0:0:0:0:
256,192,32165,1,0,0:0:0:0:
256,192,32478,1,2,0:0:0:0:
256,192,32790,1,0,0:0:0:0:
256,192,33103,1,2,0:0:0:0:
256,192,33415,1,2,0:0:0:0:
256,192,33728,1,0,0:0:0:0:
256,192,34040,1,0,0:0:0:0:
256,192,34353,1,2,0:0:0:0:
256,192,34665,1,2,0:0:0:0:
256,192,34978,5,4,0:0:0:0:
256,192,35603,1,2,0:0:0:0:
256,192,35915,1,0,0:0:0:0:
256,192,36071,1,2,0:0:0:0:
256,192,36228,1,0,0:0:0:0:
256,192,36540,1,0,0:0:0:0:
256,192,36853,1,2,0:0:0:0:
256,192,37165,1,0,0:0:0:0:
256,192,37478,1,2,0:0:0:0:
256,192,37790,1,0,0:0:0:0:
256,192,38103,1,2,0:0:0:0:
256,192,38415,1,2,0:0:0:0:
256,192,38728,1,0,0:0:0:0:
256,192,38884,1,2,0:0:0:0:
256,192,39040,1,0,0:0:0:0:
256,192,39353,1,2,0:0:0:0:
256,192,39509,1,0,0:0:0:0:
256,192,39665,1,2,0:0:0:0:
256,192,39821,1,2,0:0:0:0:
256,192,39978,1,4,0:0:0:0:
256,192,40603,1,0,0:0:0:0:
256,192,40915,1,0,0:0:0:0:
256,192,41228,1,0,0:0:0:0:
256,192,41540,1,0,0:0:0:0:
256,192,41853,1,2,0:0:0:0:
256,192,42478,1,4,0:0:0:0:
256,192,42790,1,4,0:0:0:0:
256,192,43103,1,4,0:0:0:0:
256,192,43415,1,4,0:0:0:0:
256,192,44978,5,4,0:0:0:0:
256,192,45603,1,2,0:0:0:0:
256,192,45915,1,2,0:0:0:0:
256,192,46228,1,0,0:0:0:0:
256,192,46540,1,0,0:0:0:0:
256,192,46696,1,0,0:0:0:0:
256,192,46853,1,2,0:0:0:0:
256,192,47165,1,0,0:0:0:0:
256,192,47478,1,2,0:0:0:0:
256,192,48103,1,2,0:0:0:0:
256,192,48415,1,2,0:0:0:0:
256,192,48571,1,0,0:0:0:0:
256,192,48728,1,2,0:0:0:0:
256,192,48884,1,2,0:0:0:0:
256,192,49040,1,0,0:0:0:0:
256,192,49353,1,2,0:0:0:0:
256,192,49665,1,2,0:0:0:0:
256,192,49978,1,4,0:0:0:0:
256,192,50603,1,2,0:0:0:0:
256,192,50915,1,2,0:0:0:0:
256,192,51071,1,2,0:0:0:0:
256,192,51228,1,0,0:0:0:0:
256,192,51540,1,0,0:0:0:0:
256,192,51853,1,2,0:0:0:0:
256,192,52165,1,0,0:0:0:0:
256,192,52478,1,2,0:0:0:0:
256,192,52790,1,0,0:0:0:0:
256,192,53102,1,2,0:0:0:0:
256,192,53415,1,2,0:0:0:0:
256,192,53728,1,0,0:0:0:0:
256,192,53884,1,0,0:0:0:0:
256,192,53962,1,0,0:0:0:0:
256,192,54040,1,2,0:0:0:0:
256,192,54196,1,0,0:0:0:0:
256,192,54353,1,2,0:0:0:0:
256,192,54509,1,0,0:0:0:0:
256,192,54665,1,2,0:0:0:0:
256,192,54821,1,2,0:0:0:0:
256,192,54978,1,4,0:0:0:0:
256,192,55603,1,2,0:0:0:0:
256,192,55915,1,2,0:0:0:0:
256,192,56228,1,0,0:0:0:0:
256,192,56540,1,0,0:0:0:0:
256,192,56696,1,0,0:0:0:0:
256,192,56853,1,2,0:0:0:0:
256,192,57165,1,0,0:0:0:0:
256,192,57478,1,2,0:0:0:0:
256,192,57790,1,0,0:0:0:0:
256,192,57946,1,0,0:0:0:0:
256,192,58103,1,2,0:0:0:0:
256,192,58415,1,2,0:0:0:0:
256,192,58571,1,0,0:0:0:0:
256,192,58728,1,2,0:0:0:0:
256,192,58884,1,2,0:0:0:0:
256,192,59040,1,0,0:0:0:0:
256,192,59353,1,2,0:0:0:0:
256,192,59665,1,2,0:0:0:0:
256,192,59978,1,4,0:0:0:0:
256,192,60603,1,0,0:0:0:0:
256,192,60915,1,0,0:0:0:0:
256,192,61228,1,0,0:0:0:0:
256,192,61540,1,0,0:0:0:0:
256,192,61853,1,2,0:0:0:0:
256,192,62165,1,2,0:0:0:0:
256,192,62478,1,4,0:0:0:0:
256,192,62790,1,0,0:0:0:0:
256,192,63103,1,0,0:0:0:0:
256,192,63415,1,0,0:0:0:0:
256,192,63728,5,2,0:0:0:0:
256,192,64665,5,0,0:0:0:0:
256,192,64978,5,4,0:0:0:0:
256,192,65603,5,2,0:0:0:0:
256,192,65915,1,0,0:0:0:0:
256,192,66228,1,0,0:0:0:0:
256,192,66853,1,2,0:0:0:0:
256,192,67165,1,0,0:0:0:0:
256,192,67790,1,0,0:0:0:0:
256,192,68103,1,2,0:0:0:0:
256,192,68415,1,0,0:0:0:0:
256,192,68728,1,0,0:0:0:0:
256,192,69040,1,0,0:0:0:0:
256,192,69353,1,2,0:0:0:0:
256,192,69665,1,0,0:0:0:0:
256,192,69978,1,0,0:0:0:0:
256,192,70603,1,2,0:0:0:0:
256,192,70915,1,0,0:0:0:0:
256,192,71228,1,0,0:0:0:0:
256,192,71853,1,2,0:0:0:0:
256,192,72165,1,0,0:0:0:0:
256,192,72790,1,0,0:0:0:0:
256,192,73103,1,2,0:0:0:0:
256,192,73415,1,0,0:0:0:0:
256,192,73728,1,0,0:0:0:0:
256,192,74040,1,0,0:0:0:0:
256,192,74353,1,2,0:0:0:0:
256,192,74665,1,0,0:0:0:0:
256,192,74978,1,2,0:0:0:0:
256,192,75290,1,0,0:0:0:0:
256,192,75603,1,2,0:0:0:0:
256,192,75915,1,0,0:0:0:0:
256,192,76228,1,0,0:0:0:0:
256,192,76853,1,2,0:0:0:0:
256,192,77165,1,0,0:0:0:0:
256,192,77790,1,0,0:0:0:0:
256,192,78103,1,2,0:0:0:0:
256,192,78415,1,0,0:0:0:0:
256,192,78728,1,0,0:0:0:0:
256,192,79040,1,0,0:0:0:0:
256,192,79353,1,2,0:0:0:0:
256,192,79665,1,0,0:0:0:0:
256,192,79978,1,2,0:0:0:0:
256,192,80290,1,0,0:0:0:0:
256,192,80603,1,2,0:0:0:0:
256,192,80915,1,0,0:0:0:0:
256,192,81228,1,0,0:0:0:0:
256,192,81853,1,2,0:0:0:0:
256,192,82165,1,0,0:0:0:0:
256,192,82478,1,0,0:0:0:0:
256,192,82790,1,0,0:0:0:0:
256,192,83103,1,2,0:0:0:0:
256,192,83415,1,0,0:0:0:0:
256,192,83728,1,2,0:0:0:0:
256,192,84040,1,0,0:0:0:0:
256,192,84353,1,2,0:0:0:0:
256,192,84665,1,2,0:0:0:0:
256,192,84978,1,4,0:0:0:0:
256,192,85603,1,2,0:0:0:0:
256,192,85915,1,0,0:0:0:0:
256,192,86228,1,0,0:0:0:0:
256,192,86853,1,2,0:0:0:0:
256,192,87165,1,0,0:0:0:0:
256,192,87478,1,2,0:0:0:0:
256,192,87790,1,0,0:0:0:0:
256,192,88103,1,2,0:0:0:0:
256,192,88415,1,2,0:0:0:0:
256,192,88728,1,0,0:0:0:0:
256,192,89353,1,2,0:0:0:0:
256,192,89665,1,2,0:0:0:0:
256,192,89978,1,0,0:0:0:0:
256,192,90603,1,2,0:0:0:0:
256,192,90915,1,0,0:0:0:0:
256,192,91228,1,0,0:0:0:0:
256,192,91853,1,2,0:0:0:0:
256,192,92165,1,0,0:0:0:0:
256,192,92478,1,2,0:0:0:0:
256,192,92790,1,0,0:0:0:0:
256,192,93103,1,2,0:0:0:0:
256,192,93415,1,0,0:0:0:0:
256,192,93728,1,0,0:0:0:0:
256,192,94040,1,0,0:0:0:0:
256,192,94353,1,2,0:0:0:0:
256,192,94665,1,2,0:0:0:0:
256,192,94978,1,0,0:0:0:0:
256,192,95603,1,2,0:0:0:0:
256,192,95915,1,0,0:0:0:0:
256,192,96228,1,0,0:0:0:0:
256,192,96853,1,2,0:0:0:0:
256,192,97165,1,2,0:0:0:0:
256,192,97478,1,0,0:0:0:0:
256,192,97790,1,0,0:0:0:0:
256,192,98103,1,2,0:0:0:0:
256,192,98415,1,2,0:0:0:0:
256,192,98728,1,0,0:0:0:0:
256,192,99040,1,0,0:0:0:0:
256,192,99196,1,0,0:0:0:0:
256,192,99353,1,2,0:0:0:0:
256,192,99665,1,2,0:0:0:0:
256,192,99978,1,0,0:0:0:0:
256,192,100603,1,2,0:0:0:0:
256,192,100915,1,0,0:0:0:0:
256,192,101228,1,2,0:0:0:0:
256,192,101540,1,2,0:0:0:0:
256,192,101696,1,0,0:0:0:0:
256,192,101853,1,0,0:0:0:0:
256,192,102165,1,4,0:0:0:0:
256,192,102790,1,0,0:0:0:0:
256,192,103103,1,2,0:0:0:0:
256,192,103415,1,4,0:0:0:0:
256,192,104040,1,0,0:0:0:0:
256,192,104353,1,2,0:0:0:0:
256,192,104665,1,2,0:0:0:0:
256,192,104978,1,0,0:0:0:0:
256,192,105603,1,0,0:0:0:0:
256,192,105915,1,0,0:0:0:0:
256,192,106228,1,2,0:0:0:0:
256,192,106853,1,2,0:0:0:0:
256,192,107165,1,2,0:0:0:0:
256,192,107478,1,0,0:0:0:0:
256,192,107790,1,0,0:0:0:0:
256,192,108103,1,2,0:0:0:0:
256,192,108728,1,0,0:0:0:0:
256,192,109040,1,0,0:0:0:0:
256,192,109353,1,0,0:0:0:0:
256,192,109978,1,2,0:0:0:0:
256,192,110603,1,2,0:0:0:0:
256,192,110915,1,2,0:0:0:0:
256,192,111228,1,0,0:0:0:0:
256,192,111853,1,0,0:0:0:0:
256,192,112165,1,0,0:0:0:0:
256,192,112478,1,2,0:0:0:0:
256,192,112790,1,0,0:0:0:0:
256,192,113103,1,2,0:0:0:0:
256,192,113415,1,2,0:0:0:0:
256,192,113728,1,0,0:0:0:0:
256,192,114040,1,0,0:0:0:0:
256,192,114353,1,2,0:0:0:0:
256,192,114665,1,2,0:0:0:0:
256,192,114978,5,4,0:0:0:0:
256,192,115603,1,2,0:0:0:0:
256,192,115915,1,0,0:0:0:0:
256,192,116071,1,2,0:0:0:0:
256,192,116228,1,0,0:0:0:0:
256,192,116540,1,0,0:0:0:0:
256,192,116853,1,2,0:0:0:0:
256,192,117165,1,0,0:0:0:0:
256,192,117478,1,2,0:0:0:0:
256,192,117790,1,2,0:0:0:0:
256,192,118103,1,0,0:0:0:0:
256,192,118415,1,2,0:0:0:0:
256,192,118571,1,0,0:0:0:0:
256,192,118728,1,2,0:0:0:0:
256,192,118884,1,2,0:0:0:0:
256,192,119040,1,0,0:0:0:0:
256,192,119353,1,2,0:0:0:0:
256,192,119509,1,2,0:0:0:0:
256,192,119665,1,0,0:0:0:0:
256,192,119821,1,2,0:0:0:0:
256,192,119978,1,4,0:0:0:0:
256,192,120603,1,0,0:0:0:0:
256,192,120915,1,0,0:0:0:0:
256,192,121228,1,0,0:0:0:0:
256,192,121540,1,0,0:0:0:0:
256,192,121853,1,2,0:0:0:0:
256,192,122478,1,4,0:0:0:0:
256,192,122790,1,4,0:0:0:0:
256,192,123103,1,4,0:0:0:0:
256,192,123415,1,4,0:0:0:0:
256,192,124978,5,4,0:0:0:0:
256,192,125603,1,2,0:0:0:0:
256,192,125915,1,2,0:0:0:0:
256,192,126228,1,0,0:0:0:0:
256,192,126540,1,0,0:0:0:0:
256,192,126696,1,0,0:0:0:0:
256,192,126853,1,2,0:0:0:0:
256,192,127165,1,0,0:0:0:0:
256,192,127478,1,2,0:0:0:0:
256,192,127790,1,0,0:0:0:0:
256,192,128103,1,2,0:0:0:0:
256,192,128415,1,2,0:0:0:0:
256,192,128571,1,0,0:0:0:0:
256,192,128728,1,2,0:0:0:0:
256,192,128884,1,2,0:0:0:0:
256,192,129040,1,0,0:0:0:0:
256,192,129353,1,2,0:0:0:0:
256,192,129665,1,2,0:0:0:0:
256,192,129978,1,4,0:0:0:0:
256,192,130603,1,2,0:0:0:0:
256,192,130915,1,0,0:0:0:0:
256,192,131071,1,2,0:0:0:0:
256,192,131228,1,0,0:0:0:0:
256,192,131540,1,0,0:0:0:0:
256,192,131853,1,2,0:0:0:0:
256,192,132165,1,0,0:0:0:0:
256,192,132478,1,2,0:0:0:0:
256,192,132790,1,0,0:0:0:0:
256,192,133103,1,2,0:0:0:0:
256,192,133259,1,0,0:0:0:0:
256,192,133415,1,2,0:0:0:0:
256,192,133571,1,2,0:0:0:0:
256,192,133728,1,0,0:0:0:0:
256,192,133884,1,0,0:0:0:0:
256,192,133962,1,0,0:0:0:0:
256,192,134040,1,2,0:0:0:0:
256,192,134196,1,0,0:0:0:0:
256,192,134353,1,2,0:0:0:0:
256,192,134509,1,0,0:0:0:0:
256,192,134665,1,2,0:0:0:0:
256,192,134821,1,2,0:0:0:0:
256,192,134978,1,4,0:0:0:0:
256,192,135603,1,2,0:0:0:0:
256,192,135915,1,2,0:0:0:0:
256,192,136228,1,0,0:0:0:0:
256,192,136540,1,0,0:0:0:0:
256,192,136696,1,0,0:0:0:0:
256,192,136853,1,2,0:0:0:0:
256,192,137165,1,0,0:0:0:0:
256,192,137478,1,2,0:0:0:0:
256,192,137790,1,0,0:0:0:0:
256,192,137946,1,0,0:0:0:0:
256,192,138103,1,2,0:0:0:0:
256,192,138415,1,2,0:0:0:0:
256,192,138571,1,0,0:0:0:0:
256,192,138728,1,2,0:0:0:0:
256,192,138884,1,2,0:0:0:0:
256,192,139040,1,0,0:0:0:0:
256,192,139196,1,0,0:0:0:0:
256,192,139353,1,2,0:0:0:0:
256,192,139665,1,2,0:0:0:0:
256,192,139978,1,4,0:0:0:0:
256,192,140603,1,2,0:0:0:0:
256,192,140915,1,0,0:0:0:0:
256,192,141071,1,0,0:0:0:0:
256,192,141228,1,2,0:0:0:0:
256,192,141540,1,0,0:0:0:0:
256,192,141853,1,2,0:0:0:0:
256,192,142165,1,2,0:0:0:0:
256,192,142321,1,2,0:0:0:0:
256,192,142478,1,0,0:0:0:0:
256,192,142790,1,0,0:0:0:0:
256,192,143103,1,2,0:0:0:0:
256,192,143259,1,2,0:0:0:0:
256,192,143415,1,0,0:0:0:0:
256,192,143571,1,0,0:0:0:0:
256,192,143728,1,2,0:0:0:0:
256,192,143884,1,0,0:0:0:0:
256,192,143962,1,0,0:0:0:0:
256,192,144040,1,2,0:0:0:0:
256,192,144196,1,2,0:0:0:0:
256,192,144353,1,4,0:0:0:0:
256,192,144665,1,6,0:0:0:0:
256,192,144978,1,4,0:0:0:0:
256,192,145603,1,2,0:0:0:0:
256,192,145915,1,2,0:0:0:0:
256,192,146228,1,0,0:0:0:0:
256,192,146540,1,0,0:0:0:0:
256,192,146696,1,0,0:0:0:0:
256,192,146853,1,2,0:0:0:0:
256,192,147165,1,0,0:0:0:0:
256,192,147478,1,2,0:0:0:0:
256,192,147790,1,0,0:0:0:0:
256,192,148103,1,2,0:0:0:0:
256,192,148415,1,2,0:0:0:0:
256,192,148571,1,0,0:0:0:0:
256,192,148728,1,2,0:0:0:0:
256,192,148884,1,2,0:0:0:0:
256,192,149040,1,0,0:0:0:0:
256,192,149353,1,2,0:0:0:0:
256,192,149665,1,2,0:0:0:0:
256,192,149978,1,4,0:0:0:0:
256,192,150603,1,2,0:0:0:0:
256,192,150915,1,0,0:0:0:0:
256,192,151071,1,2,0:0:0:0:
256,192,151228,1,0,0:0:0:0:
256,192,151540,1,0,0:0:0:0:
256,192,151853,1,2,0:0:0:0:
256,192,152165,1,0,0:0:0:0:
256,192,152478,1,2,0:0:0:0:
256,192,152790,1,0,0:0:0:0:
256,192,153103,1,2,0:0:0:0:
256,192,153259,1,0,0:0:0:0:
256,192,153415,1,2,0:0:0:0:
256,192,153571,1,2,0:0:0:0:
256,192,153728,1,0,0:0:0:0:
256,192,153884,1,0,0:0:0:0:
256,192,153962,1,0,0:0:0:0:
256,192,154040,1,2,0:0:0:0:
256,192,154196,1,0,0:0:0:0:
256,192,154353,1,2,0:0:0:0:
256,192,154509,1,0,0:0:0:0:
256,192,154665,1,2,0:0:0:0:
256,192,154821,1,2,0:0:0:0:
256,192,154978,1,4,0:0:0:0:
256,192,155603,1,2,0:0:0:0:
256,192,155915,1,2,0:0:0:0:
256,192,156228,1,0,0:0:0:0:
256,192,156540,1,0,0:0:0:0:
256,192,156696,1,0,0:0:0:0:
256,192,156853,1,2,0:0:0:0:
256,192,157165,1,0,0:0:0:0:
256,192,157478,1,2,0:0:0:0:
256,192,157790,1,0,0:0:0:0:
256,192,157946,1,0,0:0:0:0:
256,192,158103,1,2,0:0:0:0:
256,192,158415,1,2,0:0:0:0:
256,192,158571,1,0,0:0:0:0:
256,192,158728,1,2,0:0:0:0:
256,192,158884,1,2,0:0:0:0:
256,192,159040,1,0,0:0:0:0:
256,192,159196,1,0,0:0:0:0:
256,192,159353,1,2,0:0:0:0:
256,192,159665,1,2,0:0:0:0:
256,192,159978,1,4,0:0:0:0:
256,192,160603,1,0,0:0:0:0:
256,192,160915,1,0,0:0:0:0:
256,192,161228,1,0,0:0:0:0:
256,192,161540,1,0,0:0:0:0:
256,192,161853,1,2,0:0:0:0:
256,192,162165,1,2,0:0:0:0:
256,192,162478,1,4,0:0:0:0:
256,192,162790,1,0,0:0:0:0:
256,192,163103,1,0,0:0:0:0:
256,192,163415,1,0,0:0:0:0:
256,192,163728,1,2,0:0:0:0:
256,192,164665,5,0,0:0:0:0:
256,192,164978,1,0,0:0:0:0:
256,192,165915,1,0,0:0:0:0:
256,192,166853,1,0,0:0:0:0:
256,192,167165,1,0,0:0:0:0:
256,192,167478,1,2,0:0:0:0:
256,192,167790,1,2,0:0:0:0:
256,192,168103,1,0,0:0:0:0:
256,192,168415,1,2,0:0:0:0:
256,192,168728,1,0,0:0:0:0:
256,192,169978,1,2,0:0:0:0:
256,192,170915,1,0,0:0:0:0:
256,192,172478,1,0,0:0:0:0:
256,192,173415,1,2,0:0:0:0:
256,192,174978,1,2,0:0:0:0:
256,192,175915,1,0,0:0:0:0:
256,192,177478,1,0,0:0:0:0:
256,192,178415,1,2,0:0:0:0:
256,192,179978,1,2,0:0:0:0:
256,192,182165,5,4,0:0:0:0:
256,192,182790,1,0,0:0:0:0:
256,192,183103,1,0,0:0:0:0:
256,192,183415,1,0,0:0:0:0:
256,192,183728,1,0,0:0:0:0:
256,192,184040,1,0,0:0:0:0:
256,192,184353,1,2,0:0:0:0:
256,192,184509,1,0,0:0:0:0:
256,192,184665,1,2,0:0:0:0:
256,192,184821,1,2,0:0:0:0:
256,192,184978,1,4,0:0:0:0:
256,192,185290,1,0,0:0:0:0:
256,192,185603,1,2,0:0:0:0:
256,192,185915,1,2,0:0:0:0:
256,192,186071,1,2,0:0:0:0:
256,192,186228,1,0,0:0:0:0:
256,192,186384,1,2,0:0:0:0:
256,192,186540,1,0,0:0:0:0:
256,192,186853,1,2,0:0:0:0:
256,192,187165,1,2,0:0:0:0:
256,192,187478,1,0,0:0:0:0:
256,192,187790,1,0,0:0:0:0:
256,192,188103,1,2,0:0:0:0:
256,192,188415,1,2,0:0:0:0:
256,192,188571,1,0,0:0:0:0:
256,192,188728,1,2,0:0:0:0:
256,192,188884,1,2,0:0:0:0:
256,192,189040,1,0,0:0:0:0:
256,192,189196,1,0,0:0:0:0:
256,192,189353,1,2,0:0:0:0:
256,192,189665,1,0,0:0:0:0:
256,192,189821,1,2,0:0:0:0:
256,192,189978,1,4,0:0:0:0:
256,192,190290,1,0,0:0:0:0:
256,192,190603,1,2,0:0:0:0:
256,192,190915,1,0,0:0:0:0:
256,192,191071,1,0,0:0:0:0:
256,192,191228,1,2,0:0:0:0:
256,192,191540,1,0,0:0:0:0:
256,192,191853,1,2,0:0:0:0:
256,192,192165,1,2,0:0:0:0:
256,192,192478,1,0,0:0:0:0:
256,192,192790,1,0,0:0:0:0:
256,192,192946,1,0,0:0:0:0:
256,192,193103,1,2,0:0:0:0:
256,192,193415,1,0,0:0:0:0:
256,192,193571,1,0,0:0:0:0:
256,192,193728,1,2,0:0:0:0:
256,192,193884,1,0,0:0:0:0:
256,192,193962,1,0,0:0:0:0:
256,192,194040,1,2,0:0:0:0:
256,192,194196,1,0,0:0:0:0:
256,192,194353,1,6,0:0:0:0:
256,192,194665,1,4,0:0:0:0:
256,192,194978,1,6,0:0:0:0:
256,192,195290,1,0,0:0:0:0:
256,192,195603,1,2,0:0:0:0:
256,192,195915,1,2,0:0:0:0:
256,192,196071,1,2,0:0:0:0:
256,192,196228,1,0,0:0:0:0:
256,192,196540,1,0,0:0:0:0:
256,192,196853,1,2,0:0:0:0:
256,192,197165,1,0,0:0:0:0:
256,192,197478,1,0,0:0:0:0:
256,192,197790,1,0,0:0:0:0:
256,192,198103,1,2,0:0:0:0:
256,192,198415,1,0,0:0:0:0:
256,192,198571,1,0,0:0:0:0:
256,192,198728,1,2,0:0:0:0:
256,192,198884,1,0,0:0:0:0:
256,192,199040,1,0,0:0:0:0:
256,192,199196,1,2,0:0:0:0:
256,192,199353,1,0,0:0:0:0:
256,192,199509,1,0,0:0:0:0:
256,192,199665,1,2,0:0:0:0:
256,192,199821,1,2,0:0:0:0:
256,192,199978,1,4,0:0:0:0:
256,192,202165,1,2,0:0:0:0:
256,192,202478,1,4,0:0:0:0:
256,192,202790,1,4,0:0:0:0:
256,192,209978,5,4,0:0:0:0:
256,192,210603,1,0,0:0:0:0:
256,192,210915,1,0,0:0:0:0:
256,192,211228,1,2,0:0:0:0:
256,192,211384,1,0,0:0:0:0:
256,192,211462,1,0,0:0:0:0:
256,192,211540,1,2,0:0:0:0:
256,192,211696,1,2,0:0:0:0:
256,192,211853,1,0,0:0:0:0:
256,192,212009,1,0,0:0:0:0:
256,192,212165,1,2,0:0:0:0:
256,192,212321,1,2,0:0:0:0:
256,192,212478,1,4,0:0:0:0:
256,192,213103,1,2,0:0:0:0:
256,192,213415,1,0,0:0:0:0:
256,192,213571,1,2,0:0:0:0:
256,192,213728,1,0,0:0:0:0:
256,192,214040,1,0,0:0:0:0:
256,192,214353,1,2,0:0:0:0:
256,192,214665,1,0,0:0:0:0:
256,192,214978,1,2,0:0:0:0:
256,192,215290,1,0,0:0:0:0:
256,192,215603,1,2,0:0:0:0:
256,192,215759,1,0,0:0:0:0:
256,192,215915,1,2,0:0:0:0:
256,192,216071,1,2,0:0:0:0:
256,192,216228,1,0,0:0:0:0:
256,192,216384,1,0,0:0:0:0:
256,192,216462,1,0,0:0:0:0:
256,192,216540,1,2,0:0:0:0:
256,192,216696,1,0,0:0:0:0:
256,192,216853,1,2,0:0:0:0:
256,192,217009,1,0,0:0:0:0:
256,192,217165,1,2,0:0:0:0:
256,192,217321,1,2,0:0:0:0:
256,192,217478,1,4,0:0:0:0:
256,192,218103,1,2,0:0:0:0:
256,192,218415,1,2,0:0:0:0:
256,192,218571,1,2,0:0:0:0:
256,192,218728,1,0,0:0:0:0:
256,192,219040,1,0,0:0:0:0:
256,192,219196,1,0,0:0:0:0:
256,192,219353,1,2,0:0:0:0:
256,192,219665,1,0,0:0:0:0:
256,192,219978,1,2,0:0:0:0:
256,192,220290,1,0,0:0:0:0:
256,192,220446,1,0,0:0:0:0:
256,192,220603,1,2,0:0:0:0:
256,192,220915,1,2,0:0:0:0:
256,192,221071,1,0,0:0:0:0:
256,192,221228,1,2,0:0:0:0:
256,192,221384,1,2,0:0:0:0:
256,192,221540,1,0,0:0:0:0:
256,192,221696,1,0,0:0:0:0:
256,192,221853,1,2,0:0:0:0:
256,192,222165,1,2,0:0:0:0:
256,192,222321,1,2,0:0:0:0:
256,192,222478,1,4,0:0:0:0:
256,192,223103,1,2,0:0:0:0:
256,192,223415,1,0,0:0:0:0:
256,192,223571,1,0,0:0:0:0:
256,192,223728,1,2,0:0:0:0:
256,192,224040,1,0,0:0:0:0:
256,192,224353,1,2,0:0:0:0:
256,192,224665,1,2,0:0:0:0:
256,192,224821,1,2,0:0:0:0:
256,192,224978,1,0,0:0:0:0:
256,192,225290,1,0,0:0:0:0:
256,192,225446,1,0,0:0:0:0:
256,192,225603,1,2,0:0:0:0:
256,192,225759,1,2,0:0:0:0:
256,192,225915,1,0,0:0:0:0:
256,192,226071,1,0,0:0:0:0:
256,192,226228,1,2,0:0:0:0:
256,192,226384,1,0,0:0:0:0:
256,192,226462,1,0,0:0:0:0:
256,192,226540,1,2,0:0:0:0:
256,192,226696,1,2,0:0:0:0:
256,192,226853,1,4,0:0:0:0:
256,192,227165,1,6,0:0:0:0:
256,192,227478,1,4,0:0:0:0:
256,192,228103,1,2,0:0:0:0:
256,192,228415,1,2,0:0:0:0:
256,192,228571,1,2,0:0:0:0:
256,192,228728,1,0,0:0:0:0:
256,192,229040,1,0,0:0:0:0:
256,192,229196,1,0,0:0:0:0:
256,192,229353,1,2,0:0:0:0:
256,192,229665,1,0,0:0:0:0:
256,192,229978,1,2,0:0:0:0:
256,192,230290,1,0,0:0:0:0:
256,192,230603,1,2,0:0:0:0:
256,192,230915,1,2,0:0:0:0:
256,192,231071,1,0,0:0:0:0:
256,192,231228,1,2,0:0:0:0:
256,192,231384,1,2,0:0:0:0:
256,192,231540,1,0,0:0:0:0:
256,192,231853,1,2,0:0:0:0:
256,192,232165,1,2,0:0:0:0:
256,192,232321,1,2,0:0:0:0:
256,192,232478,1,4,0:0:0:0:
256,192,233103,1,2,0:0:0:0:
256,192,233415,1,0,0:0:0:0:
256,192,233571,1,2,0:0:0:0:
256,192,233728,1,0,0:0:0:0:
256,192,234040,1,0,0:0:0:0:
256,192,234353,1,2,0:0:0:0:
256,192,234665,1,0,0:0:0:0:
256,192,234978,1,2,0:0:0:0:
256,192,235290,1,0,0:0:0:0:
256,192,235603,1,2,0:0:0:0:
256,192,235759,1,0,0:0:0:0:
256,192,235915,1,2,0:0:0:0:
256,192,236071,1,2,0:0:0:0:
256,192,236228,1,0,0:0:0:0:
256,192,236384,1,0,0:0:0:0:
256,192,236462,1,0,0:0:0:0:
256,192,236540,1,2,0:0:0:0:
256,192,236696,1,0,0:0:0:0:
256,192,236853,1,2,0:0:0:0:
256,192,237009,1,0,0:0:0:0:
256,192,237165,1,2,0:0:0:0:
256,192,237321,1,2,0:0:0:0:
256,192,237478,1,4,0:0:0:0:
256,192,238103,1,2,0:0:0:0:
256,192,238415,1,2,0:0:0:0:
256,192,238728,1,0,0:0:0:0:
256,192,239040,1,0,0:0:0:0:
256,192,239353,1,2,0:0:0:0:
256,192,239665,1,0,0:0:0:0:
256,192,239978,1,2,0:0:0:0:
256,192,240290,1,0,0:0:0:0:
256,192,240446,1,0,0:0:0:0:
256,192,240603,1,2,0:0:0:0:
256,192,240915,1,2,0:0:0:0:
256,192,241071,1,0,0:0:0:0:
256,192,241228,1,2,0:0:0:0:
256,192,241384,1,2,0:0:0:0:
256,192,241540,1,0,0:0:0:0:
256,192,241696,1,0,0:0:0:0:
256,192,241853,1,2,0:0:0:0:
256,192,242009,1,0,0:0:0:0:
256,192,242165,1,2,0:0:0:0:
256,192,242321,1,2,0:0:0:0:
256,192,242478,1,4,0:0:0:0:
256,192,243103,1,0,0:0:0:0:
256,192,243415,1,0,0:0:0:0:
256,192,243728,1,0,0:0:0:0:
256,192,244040,1,0,0:0:0:0:
256,192,244353,1,2,0:0:0:0:
256,192,244665,1,2,0:0:0:0:
256,192,244978,1,4,0:0:0:0:
256,192,245290,1,0,0:0:0:0:
256,192,245603,1,0,0:0:0:0:
256,192,245915,1,0,0:0:0:0:
256,192,246228,1,2,0:0:0:0:
256,192,247165,5,0,0:0:0:0:
256,192,247478,1,0,0:0:0:0:
256,192,248415,1,0,0:0:0:0:
256,192,249978,5,0,0:0:0:0:
256,192,250915,1,2,0:0:0:0:
256,192,252478,5,2,0:0:0:0:
256,192,253415,1,0,0:0:0:0:
256,192,254978,5,0,0:0:0:0:
256,192,255915,1,2,0:0:0:0:
256,192,257478,5,2,0:0:0:0:
256,192,258415,1,0,0:0:0:0:
256,192,259978,5,0,0:0:0:0:
256,192,260915,1,2,0:0:0:0:
256,192,262478,5,2,0:0:0:0:
