osu file format v14

[General]
AudioFilename: audio.mp3
AudioLeadIn: 0
PreviewTime: 44899
Countdown: 0
SampleSet: Normal
StackLeniency: 0.7
Mode: 1
LetterboxInBreaks: 0
WidescreenStoryboard: 0

[Editor]
DistanceSpacing: 1
BeatDivisor: 4
GridSize: 32
TimelineZoom: 1

[Metadata]
Title:Kyouka Suigetsu
TitleUnicode:鏡花水月
Artist:mafumafu
ArtistUnicode:まふまふ
Creator:newyams99
Version:Futsuu
Source:
Tags:utaite
BeatmapID:1402122
BeatmapSetID:662378

[Difficulty]
HPDrainRate:6
CircleSize:3.5
OverallDifficulty:4
ApproachRate:5
SliderMultiplier:1.4
SliderTickRate:1

[Events]
//Background and Video events
0,0,"Kyouka BG.jpg",0,0
//Break Periods
2,165178,180965
2,202990,208778
//Storyboard Layer 0 (Background)
//Storyboard Layer 1 (Fail)
//Storyboard Layer 2 (Pass)
//Storyboard Layer 3 (Foreground)
//Storyboard Sound Samples

[TimingPoints]
4978,625,4,1,0,30,1,0
24978,-80,4,1,0,50,0,0
34978,-80,4,1,0,70,0,0
44978,-80,4,1,0,90,0,1
63728,-80,4,1,0,70,0,0
64353,-80,4,1,0,30,0,0
64821,-80,4,1,0,70,0,0
84978,-80,4,1,0,50,0,0
114978,-80,4,1,0,70,0,0
124978,-80,4,1,0,90,0,1
163728,-80,4,1,0,70,0,0
164353,-80,4,1,0,30,0,0
182165,-80,4,1,0,90,0,0
212478,-80,4,1,0,90,0,1
246228,-80,4,1,0,70,0,0
246853,-80,4,1,0,30,0,0
256853,-80,4,1,0,50,0,0

[HitObjects]
256,192,4978,5,2,0:0:0:0:
256,192,6228,1,0,0:0:0:0:
256,192,7478,1,2,0:0:0:0:
256,192,8103,1,2,0:0:0:0:
256,192,8728,1,0,0:0:0:0:
256,192,9978,1,0,0:0:0:0:
256,192,11228,1,2,0:0:0:0:
256,192,12478,1,0,0:0:0:0:
256,192,13103,1,2,0:0:0:0:
256,192,13728,1,0,0:0:0:0:
256,192,14978,1,2,0:0:0:0:
256,192,16228,1,0,0:0:0:0:
256,192,17478,1,0,0:0:0:0:
256,192,18103,1,2,0:0:0:0:
256,192,18728,1,0,0:0:0:0:
256,192,19978,1,0,0:0:0:0:
256,192,21228,1,2,0:0:0:0:
256,192,21853,1,0,0:0:0:0:
256,192,22478,12,0,24040,0:0:0:0:
256,192,24978,5,0,0:0:0:0:
256,192,26228,1,2,0:0:0:0:
256,192,26853,1,2,0:0:0:0:
256,192,27478,1,0,0:0:0:0:
256,192,28728,1,0,0:0:0:0:
256,192,29353,1,0,0:0:0:0:
256,192,29978,1,2,0:0:0:0:
256,192,31228,1,2,0:0:0:0:
256,192,31853,1,0,0:0:0:0:
256,192,32478,1,2,0:0:0:0:
256,192,33728,1,0,0:0:0:0:
256,192,34353,1,2,0:0:0:0:
256,192,34665,1,2,0:0:0:0:
256,192,34978,5,4,0:0:0:0:
256,192,36228,1,0,0:0:0:0:
256,192,36853,1,2,0:0:0:0:
256,192,37478,1,0,0:0:0:0:
256,192,38103,1,0,0:0:0:0:
256,192,38728,1,2,0:0:0:0:
256,192,39353,1,2,0:0:0:0:
256,192,39978,1,4,0:0:0:0:
256,192,41228,1,0,0:0:0:0:
256,192,41853,1,2,0:0:0:0:
256,192,42478,1,4,0:0:0:0:
256,192,43103,1,4,0:0:0:0:
256,192,43415,1,4,0:0:0:0:
256,192,44978,5,4,0:0:0:0:
256,192,45603,1,2,0:0:0:0:
256,192,46228,1,0,0:0:0:0:
256,192,46853,1,0,0:0:0:0:
256,192,47478,1,2,0:0:0:0:
256,192,48728,1,0,0:0:0:0:
256,192,49353,1,2,0:0:0:0:
256,192,49978,1,4,0:0:0:0:
256,192,51228,1,0,0:0:0:0:
256,192,51853,1,2,0:0:0:0:
256,192,52478,1,0,0:0:0:0:
256,192,53103,1,2,0:0:0:0:
256,192,53415,1,2,0:0:0:0:
256,192,53728,1,4,0:0:0:0:
256,192,54978,1,4,0:0:0:0:
256,192,55603,1,2,0:0:0:0:
256,192,56228,1,0,0:0:0:0:
256,192,56853,1,0,0:0:0:0:
256,192,57478,1,2,0:0:0:0:
256,192,58103,1,2,0:0:0:0:
256,192,58415,1,2,0:0:0:0:
256,192,58728,1,0,0:0:0:0:
256,192,59978,1,4,0:0:0:0:
256,192,60603,1,0,0:0:0:0:
256,192,61228,1,0,0:0:0:0:
256,192,61853,1,2,0:0:0:0:
256,192,62478,1,4,0:0:0:0:
256,192,63103,1,0,0:0:0:0:
256,192,63415,1,0,0:0:0:0:
256,192,63728,5,2,0:0:0:0:
256,192,64665,5,0,0:0:0:0:
256,192,64978,5,4,0:0:0:0:
256,192,66228,1,0,0:0:0:0:
256,192,67478,1,0,0:0:0:0:
256,192,68728,1,0,0:0:0:0:
256,192,69353,1,2,0:0:0:0:
256,192,69978,1,0,0:0:0:0:
256,192,71228,1,0,0:0:0:0:
256,192,72478,1,0,0:0:0:0:
256,192,73728,1,0,0:0:0:0:
256,192,74353,1,2,0:0:0:0:
256,192,74978,1,0,0:0:0:0:
256,192,76228,1,0,0:0:0:0:
256,192,77478,1,0,0:0:0:0:
256,192,78728,1,0,0:0:0:0:
256,192,79353,1,2,0:0:0:0:
256,192,79978,1,0,0:0:0:0:
256,192,81228,1,0,0:0:0:0:
256,192,82478,1,0,0:0:0:0:
256,192,83728,1,0,0:0:0:0:
256,192,84353,1,2,0:0:0:0:
256,192,84978,5,4,0:0:0:0:
256,192,86228,1,2,0:0:0:0:
256,192,86853,1,0,0:0:0:0:
256,192,87478,1,2,0:0:0:0:
256,192,88728,1,0,0:0:0:0:
256,192,89353,1,2,0:0:0:0:
256,192,89978,1,0,0:0:0:0:
256,192,91228,1,0,0:0:0:0:
256,192,91853,1,0,0:0:0:0:
256,192,92478,1,2,0:0:0:0:
256,192,93728,1,0,0:0:0:0:
256,192,94353,1,2,0:0:0:0:
256,192,94665,1,2,0:0:0:0:
256,192,94978,1,0,0:0:0:0:
256,192,96228,1,0,0:0:0:0:
256,192,96853,1,2,0:0:0:0:
256,192,97478,1,0,0:0:0:0:
256,192,98728,1,2,0:0:0:0:
256,192,99353,1,2,0:0:0:0:
256,192,99978,1,0,0:0:0:0:
256,192,101228,1,2,0:0:0:0:
256,192,101853,1,2,0:0:0:0:
256,192,102165,1,4,0:0:0:0:
256,192,103415,1,4,0:0:0:0:
256,192,104353,1,2,0:0:0:0:
256,192,104978,1,0,0:0:0:0:
256,192,106228,1,2,0:0:0:0:
256,192,106853,1,2,0:0:0:0:
256,192,107478,1,0,0:0:0:0:
256,192,108728,1,0,0:0:0:0:
256,192,109353,1,0,0:0:0:0:
256,192,109978,1,2,0:0:0:0:
256,192,111228,1,2,0:0:0:0:
256,192,111853,1,0,0:0:0:0:
256,192,112478,1,2,0:0:0:0:
256,192,113728,1,0,0:0:0:0:
256,192,114353,1,2,0:0:0:0:
256,192,114665,1,2,0:0:0:0:
256,192,114978,5,4,0:0:0:0:
256,192,116228,1,0,0:0:0:0:
256,192,116853,1,2,0:0:0:0:
256,192,117478,1,0,0:0:0:0:
256,192,118103,1,2,0:0:0:0:
256,192,118728,1,0,0:0:0:0:
256,192,119353,1,2,0:0:0:0:
256,192,119978,1,4,0:0:0:0:
256,192,121228,1,0,0:0:0:0:
256,192,121853,1,2,0:0:0:0:
256,192,122478,1,4,0:0:0:0:
256,192,123103,1,4,0:0:0:0:
256,192,123415,1,4,0:0:0:0:
256,192,124978,5,4,0:0:0:0:
256,192,125603,1,2,0:0:0:0:
256,192,126228,1,0,0:0:0:0:
256,192,126853,1,0,0:0:0:0:
256,192,127165,1,0,0:0:0:0:
256,192,127478,1,2,0:0:0:0:
256,192,128728,1,0,0:0:0:0:
256,192,129353,1,2,0:0:0:0:
256,192,129665,1,2,0:0:0:0:
256,192,129978,1,4,0:0:0:0:
256,192,131228,1,0,0:0:0:0:
256,192,131853,1,2,0:0:0:0:
256,192,132478,1,0,0:0:0:0:
256,192,133103,1,2,0:0:0:0:
256,192,133415,1,2,0:0:0:0:
256,192,133728,1,4,0:0:0:0:
256,192,134978,1,4,0:0:0:0:
256,192,135603,1,2,0:0:0:0:
256,192,136228,1,0,0:0:0:0:
256,192,136853,1,0,0:0:0:0:
256,192,137165,1,0,0:0:0:0:
256,192,137478,1,2,0:0:0:0:
256,192,138103,1,2,0:0:0:0:
256,192,138728,1,0,0:0:0:0:
256,192,139978,1,4,0:0:0:0:
256,192,140603,1,2,0:0:0:0:
256,192,141228,1,0,0:0:0:0:
256,192,141853,1,2,0:0:0:0:
256,192,142165,1,0,0:0:0:0:
256,192,142790,1,0,0:0:0:0:
256,192,143103,1,2,0:0:0:0:
256,192,143728,1,6,0:0:0:0:
256,192,144353,1,6,0:0:0:0:
256,192,144665,1,6,0:0:0:0:
256,192,144978,1,4,0:0:0:0:
256,192,146228,1,0,0:0:0:0:
256,192,146853,1,0,0:0:0:0:
256,192,147165,1,0,0:0:0:0:
256,192,147478,1,2,0:0:0:0:
256,192,148728,1,0,0:0:0:0:
256,192,149353,1,2,0:0:0:0:
256,192,149665,1,2,0:0:0:0:
256,192,149978,1,4,0:0:0:0:
256,192,151228,1,0,0:0:0:0:
256,192,151853,1,2,0:0:0:0:
256,192,152478,1,0,0:0:0:0:
256,192,153103,1,2,0:0:0:0:
256,192,153415,1,2,0:0:0:0:
256,192,153728,1,4,0:0:0:0:
256,192,154978,1,4,0:0:0:0:
256,192,155603,1,2,0:0:0:0:
256,192,156228,1,0,0:0:0:0:
256,192,156853,1,0,0:0:0:0:
256,192,157165,1,0,0:0:0:0:
256,192,157478,1,2,0:0:0:0:
256,192,158103,1,2,0:0:0:0:
256,192,158728,1,0,0:0:0:0:
256,192,159978,1,4,0:0:0:0:
256,192,160603,1,0,0:0:0:0:
256,192,161228,1,0,0:0:0:0:
256,192,161853,1,2,0:0:0:0:
256,192,162478,1,4,0:0:0:0:
256,192,163103,1,0,0:0:0:0:
256,192,163415,1,0,0:0:0:0:
256,192,163728,5,2,0:0:0:0:
256,192,164665,5,0,0:0:0:0:
256,192,164978,1,0,0:0:0:0:
256,192,182165,5,4,0:0:0:0:
256,192,182790,1,0,0:0:0:0:
256,192,183415,1,0,0:0:0:0:
256,192,184040,1,0,0:0:0:0:
256,192,184665,1,2,0:0:0:0:
256,192,184978,1,4,0:0:0:0:
256,192,186228,1,0,0:0:0:0:
256,192,186853,1,2,0:0:0:0:
256,192,187478,1,0,0:0:0:0:
256,192,188103,1,2,0:0:0:0:
256,192,188415,1,2,0:0:0:0:
256,192,188728,1,0,0:0:0:0:
256,192,189353,1,0,0:0:0:0:
256,192,189665,1,0,0:0:0:0:
256,192,189978,1,6,0:0:0:0:
256,192,191228,1,2,0:0:0:0:
256,192,191853,1,2,0:0:0:0:
256,192,192478,1,0,0:0:0:0:
256,192,193103,1,0,0:0:0:0:
256,192,193415,1,0,0:0:0:0:
256,192,193728,1,6,0:0:0:0:
256,192,194353,1,4,0:0:0:0:
256,192,194978,1,6,0:0:0:0:
256,192,196228,1,0,0:0:0:0:
256,192,196853,1,2,0:0:0:0:
256,192,197478,1,0,0:0:0:0:
256,192,198103,1,2,0:0:0:0:
256,192,198415,1,0,0:0:0:0:
256,192,198728,1,2,0:0:0:0:
256,192,199353,1,0,0:0:0:0:
256,192,199978,1,6,0:0:0:0:
256,192,202478,1,4,0:0:0:0:
256,192,202790,1,4,0:0:0:0:
256,192,209978,5,4,0:0:0:0:
256,192,211228,1,6,0:0:0:0:
256,192,211853,1,6,0:0:0:0:
256,192,212478,5,4,0:0:0:0:
256,192,213728,1,0,0:0:0:0:
256,192,214353,1,2,0:0:0:0:
256,192,214978,1,0,0:0:0:0:
256,192,215290,1,0,0:0:0:0:
256,192,215603,1,2,0:0:0:0:
256,192,215915,1,2,0:0:0:0:
256,192,216228,1,4,0:0:0:0:
256,192,217478,1,4,0:0:0:0:
256,192,218103,1,2,0:0:0:0:
256,192,218728,1,0,0:0:0:0:
256,192,219353,1,0,0:0:0:0:
256,192,219665,1,0,0:0:0:0:
256,192,219978,1,2,0:0:0:0:
256,192,220603,1,2,0:0:0:0:
256,192,220915,1,2,0:0:0:0:
256,192,221228,1,0,0:0:0:0:
256,192,222478,1,4,0:0:0:0:
256,192,223103,1,0,0:0:0:0:
256,192,223728,1,2,0:0:0:0:
256,192,224353,1,2,0:0:0:0:
256,192,224665,1,2,0:0:0:0:
256,192,224978,1,0,0:0:0:0:
256,192,225603,1,0,0:0:0:0:
256,192,226228,1,6,0:0:0:0:
256,192,226853,1,6,0:0:0:0:
256,192,227165,1,6,0:0:0:0:
256,192,227478,1,4,0:0:0:0:
256,192,228728,1,0,0:0:0:0:
256,192,229353,1,0,0:0:0:0:
256,192,229665,1,0,0:0:0:0:
256,192,229978,1,2,0:0:0:0:
256,192,230603,1,2,0:0:0:0:
256,192,231228,1,0,0:0:0:0:
256,192,231853,1,2,0:0:0:0:
256,192,232165,1,2,0:0:0:0:
256,192,232478,1,4,0:0:0:0:
256,192,233728,1,0,0:0:0:0:
256,192,234353,1,2,0:0:0:0:
256,192,234978,1,0,0:0:0:0:
256,192,235290,1,0,0:0:0:0:
256,192,235603,1,2,0:0:0:0:
256,192,235915,1,2,0:0:0:0:
256,192,236228,1,4,0:0:0:0:
256,192,237478,1,4,0:0:0:0:
256,192,238103,1,2,0:0:0:0:
256,192,238728,1,0,0:0:0:0:
256,192,239353,1,0,0:0:0:0:
256,192,239665,1,0,0:0:0:0:
256,192,239978,1,2,0:0:0:0:
256,192,240603,1,2,0:0:0:0:
256,192,240915,1,2,0:0:0:0:
256,192,241228,1,0,0:0:0:0:
256,192,242478,1,4,0:0:0:0:
256,192,243103,1,0,0:0:0:0:
256,192,243728,1,0,0:0:0:0:
256,192,244353,1,2,0:0:0:0:
256,192,244978,1,4,0:0:0:0:
256,192,245603,1,0,0:0:0:0:
256,192,245915,1,0,0:0:0:0:
256,192,246228,5,2,0:0:0:0:
256,192,247165,5,0,0:0:0:0:
256,192,247478,1,0,0:0:0:0:
256,192,248415,1,0,0:0:0:0:
256,192,249978,5,0,0:0:0:0:
256,192,250915,1,2,0:0:0:0:
256,192,252478,5,2,0:0:0:0:
256,192,253415,1,0,0:0:0:0:
256,192,254978,5,0,0:0:0:0:
256,192,255915,1,2,0:0:0:0:
256,192,257478,5,2,0:0:0:0:
256,192,258415,1,0,0:0:0:0:
256,192,259978,5,0,0:0:0:0:
256,192,260915,1,2,0:0:0:0:
256,192,262478,5,2,0:0:0:0:
