osu file format v14

[General]
AudioFilename: audio.mp3
AudioLeadIn: 0
PreviewTime: 51066
Countdown: 0
SampleSet: Normal
StackLeniency: 0.7
Mode: 1
LetterboxInBreaks: 0
WidescreenStoryboard: 1

[Editor]
Bookmarks: 42066,70866,139266,153666,198066,224466
DistanceSpacing: 1.5
BeatDivisor: 4
GridSize: 4
TimelineZoom: 2.7

[Metadata]
Title:Kakushigoto
TitleUnicode:かくしごと
Artist:mafumafu
ArtistUnicode:まふまふ
Creator:kanpakyin
Version:Oni
Source:
Tags:Vocaloid IA Secret 明鏡止水 Meikyoushisui Vocaloid3 rock japanese
BeatmapID:2841198
BeatmapSetID:1320126

[Difficulty]
HPDrainRate:6
CircleSize:4
OverallDifficulty:5.5
ApproachRate:5
SliderMultiplier:1.4
SliderTickRate:1

[Events]
//Background and Video events
0,0,"BG.jpg",0,30
//Break Periods
//Storyboard Layer 0 (Background)
//Storyboard Layer 1 (Fail)
//Storyboard Layer 2 (Pass)
//Storyboard Layer 3 (Foreground)
//Storyboard Layer 4 (Overlay)
//Storyboard Sound Samples

[TimingPoints]
1266,300,4,1,0,90,1,0
13266,-125,4,1,0,65,0,0
21666,-121.951219512195,4,1,0,75,0,0
21816,-119.047619047619,4,1,0,75,0,0
21966,-116.279069767442,4,1,0,75,0,0
22116,-113.636363636364,4,1,0,75,0,0
22266,-111.111111111111,4,1,0,90,0,0
22416,-108.108108108108,4,1,0,90,0,0
22491,-105.263157894737,4,1,0,90,0,0
22566,-104.166666666667,4,1,0,90,0,0
22641,-103.092783505155,4,1,0,90,0,0
22716,-102.040816326531,4,1,0,90,0,0
22791,-101.010101010101,4,1,0,90,0,0
22866,-100,4,1,0,90,0,0
32016,-103.092783505155,4,1,0,90,0,0
32091,-105.263157894737,4,1,0,90,0,0
32166,-107.52688172043,4,1,0,90,0,0
32316,-112.359550561798,4,1,0,90,0,0
32391,-114.942528735632,4,1,0,90,0,0
32466,-117.647058823529,4,1,0,90,0,0
40566,-114.942528735632,4,1,0,90,0,0
40716,-112.359550561798,4,1,0,90,0,0
40866,-109.89010989011,4,1,0,90,0,0
41016,-107.52688172043,4,1,0,90,0,0
41166,-105.263157894737,4,1,0,90,0,0
41241,-102.040816326531,4,1,0,90,0,0
41316,-99.009900990099,4,1,0,90,0,0
41391,-96.1538461538461,4,1,0,90,0,0
41466,-93.4579439252336,4,1,0,90,0,0
41766,-96.1538461538461,4,1,0,90,0,0
42066,-100,4,1,0,90,0,0
51666,-90.9090909090909,4,1,0,100,0,1
58866,-85.4700854700855,4,1,0,100,0,1
58941,-84.0336134453781,4,1,0,100,0,1
59016,-82.6446280991736,4,1,0,100,0,1
59166,-74.0740740740741,4,1,0,100,0,1
59466,-85.4700854700855,4,1,0,100,0,1
59541,-84.0336134453781,4,1,0,100,0,1
59616,-82.6446280991736,4,1,0,100,0,1
59766,-74.0740740740741,4,1,0,100,0,1
59916,-90.9090909090909,4,1,0,100,0,1
70716,-94.3396226415094,4,1,0,100,0,1
70791,-97.0873786407767,4,1,0,100,0,1
70866,-100,4,1,0,100,0,0
71016,-100,4,1,0,90,0,0
81666,-125,4,1,0,65,0,0
89466,-120.481927710843,4,1,0,65,0,0
89616,-116.279069767442,4,1,0,65,0,0
89766,-112.359550561798,4,1,0,65,0,0
89916,-108.695652173913,4,1,0,65,0,0
90066,-105.263157894737,4,1,0,80,0,0
90216,-102.040816326531,4,1,0,80,0,0
90366,-99.009900990099,4,1,0,80,0,0
90516,-97.0873786407767,4,1,0,80,0,0
91266,-100,4,1,0,90,0,0
100416,-103.092783505155,4,1,0,90,0,0
100491,-105.263157894737,4,1,0,90,0,0
100566,-107.52688172043,4,1,0,90,0,0
100716,-112.359550561798,4,1,0,90,0,0
100791,-114.942528735632,4,1,0,90,0,0
100866,-117.647058823529,4,1,0,90,0,0
108966,-114.942528735632,4,1,0,90,0,0
109116,-112.359550561798,4,1,0,90,0,0
109266,-109.89010989011,4,1,0,90,0,0
109341,-108.695652173913,4,1,0,90,0,0
109416,-107.52688172043,4,1,0,90,0,0
109491,-106.382978723404,4,1,0,90,0,0
109566,-105.263157894737,4,1,0,90,0,0
109641,-104.166666666667,4,1,0,90,0,0
109716,-103.092783505155,4,1,0,90,0,0
109866,-93.4579439252336,4,1,0,90,0,0
110166,-96.1538461538461,4,1,0,90,0,0
110316,-98.0392156862745,4,1,0,90,0,0
110466,-100,4,1,0,90,0,0
120066,-90.9090909090909,4,1,0,100,0,1
127266,-85.4700854700855,4,1,0,100,0,1
127341,-84.0336134453781,4,1,0,100,0,1
127416,-82.6446280991736,4,1,0,100,0,1
127491,-81.3008130081301,4,1,0,100,0,1
127566,-74.0740740740741,4,1,0,100,0,1
127866,-85.4700854700855,4,1,0,100,0,1
127941,-84.0336134453781,4,1,0,100,0,1
128016,-82.6446280991736,4,1,0,100,0,1
128091,-81.3008130081301,4,1,0,100,0,1
128166,-74.0740740740741,4,1,0,100,0,1
128316,-90.9090909090909,4,1,0,100,0,1
139266,-90.9090909090909,4,1,0,100,0,0
139566,-100,4,1,0,90,0,0
158466,-101.010101010101,4,1,0,90,0,0
158766,-105.263157894737,4,1,0,90,0,0
159066,-111.111111111111,4,1,0,90,0,0
159366,-117.647058823529,4,1,0,90,0,0
166566,-114.942528735632,4,1,0,90,0,0
166716,-112.359550561798,4,1,0,90,0,0
166866,-109.89010989011,4,1,0,90,0,0
167016,-107.52688172043,4,1,0,90,0,0
167166,-105.263157894737,4,1,0,90,0,0
167241,-102.040816326531,4,1,0,90,0,0
167316,-99.009900990099,4,1,0,90,0,0
167391,-96.1538461538461,4,1,0,90,0,0
167466,-93.4579439252336,4,1,0,90,0,0
167766,-96.1538461538461,4,1,0,90,0,0
168066,-100,4,1,0,90,0,0
178791,-125,4,1,0,30,0,0
187266,-200,4,1,0,65,0,0
187866,-250,4,1,0,40,0,0
188766,-133.333333333333,4,1,0,40,0,0
189666,-90.9090909090909,4,1,0,100,0,1
195666,-85.4700854700855,4,1,0,100,0,1
195741,-84.0336134453781,4,1,0,100,0,1
195816,-82.6446280991736,4,1,0,100,0,1
195891,-81.3008130081301,4,1,0,100,0,1
195966,-74.0740740740741,4,1,0,100,0,1
196266,-85.4700854700855,4,1,0,100,0,1
196341,-84.0336134453781,4,1,0,100,0,1
196416,-82.6446280991736,4,1,0,100,0,1
196491,-81.3008130081301,4,1,0,100,0,1
196566,-74.0740740740741,4,1,0,100,0,1
196716,-86.9565217391304,4,1,0,100,0,1
205191,-86.9565217391304,4,1,0,100,0,0
205566,-76.9230769230769,4,1,0,100,0,1
205866,-90.9090909090909,4,1,0,100,0,1
212466,-85.4700854700855,4,1,0,100,0,1
212541,-84.0336134453781,4,1,0,100,0,1
212616,-82.6446280991736,4,1,0,100,0,1
212691,-81.3008130081301,4,1,0,100,0,1
212766,-74.0740740740741,4,1,0,100,0,1
213066,-85.4700854700855,4,1,0,100,0,1
213141,-84.0336134453781,4,1,0,100,0,1
213216,-82.6446280991736,4,1,0,100,0,1
213291,-81.3008130081301,4,1,0,100,0,1
213366,-74.0740740740741,4,1,0,100,0,1
213516,-90.9090909090909,4,1,0,100,0,1
224166,-90.9090909090909,4,1,0,100,0,0
224466,-100,4,1,0,100,0,0

[Colours]
Combo1 : 206,206,206
Combo2 : 255,77,90
Combo3 : 138,119,227
Combo4 : 255,132,166
Combo5 : 197,89,255
Combo6 : 255,9,70
Combo7 : 255,242,6
Combo8 : 138,138,138

[HitObjects]
356,136,1791,5,8,0:0:0:0:
356,136,1866,1,8,0:0:0:0:
356,136,1941,1,0,0:0:0:0:
356,136,2016,1,0,0:0:0:0:
356,136,2166,1,8,0:0:0:0:
356,136,2241,1,0,0:0:0:0:
356,136,2316,1,8,0:0:0:0:
356,136,2466,1,4,0:0:0:0:
356,136,2616,1,0,0:0:0:0:
360,128,2766,1,8,0:0:0:0:
360,128,2916,1,8,0:0:0:0:
360,128,3066,1,0,0:0:0:0:
360,128,3141,1,0,0:0:0:0:
360,128,3216,1,0,0:0:0:0:
360,128,3366,1,8,0:0:0:0:
360,128,3516,1,0,0:0:0:0:
360,128,3666,1,0,0:0:0:0:
360,128,3741,1,0,0:0:0:0:
360,128,3816,1,0,0:0:0:0:
360,128,3966,1,8,0:0:0:0:
352,128,4266,1,8,0:0:0:0:
352,128,4341,1,8,0:0:0:0:
352,128,4416,1,0,0:0:0:0:
352,128,4566,1,8,0:0:0:0:
348,124,4716,1,0,0:0:0:0:
348,124,4866,1,0,0:0:0:0:
344,128,5016,1,0,0:0:0:0:
344,128,5166,1,8,0:0:0:0:
340,136,5316,1,0,0:0:0:0:
344,132,5466,1,8,0:0:0:0:
352,124,5541,1,8,0:0:0:0:
352,124,5616,1,8,0:0:0:0:
352,124,5766,1,8,0:0:0:0:
352,128,5916,1,8,0:0:0:0:
352,128,6066,1,0,0:0:0:0:
348,128,6216,1,0,0:0:0:0:
344,128,6366,1,8,0:0:0:0:
344,136,6666,1,0,0:0:0:0:
340,136,6816,1,0,0:0:0:0:
336,140,6966,1,8,0:0:0:0:
336,140,7041,1,8,0:0:0:0:
344,140,7116,1,8,0:0:0:0:
336,140,7266,1,4,0:0:0:0:
344,144,7416,1,0,0:0:0:0:
344,144,7566,1,8,0:0:0:0:
348,128,7716,1,0,0:0:0:0:
344,128,7866,1,0,0:0:0:0:
344,136,8016,1,8,0:0:0:0:
344,136,8166,1,8,0:0:0:0:
348,132,8316,1,0,0:0:0:0:
348,132,8466,1,0,0:0:0:0:
344,140,8766,1,8,0:0:0:0:
344,144,8916,1,0,0:0:0:0:
344,144,9066,1,0,0:0:0:0:
344,144,9141,1,0,0:0:0:0:
344,140,9216,1,0,0:0:0:0:
344,140,9291,1,0,0:0:0:0:
344,140,9366,1,8,0:0:0:0:
344,136,9516,1,0,0:0:0:0:
336,144,9666,1,8,0:0:0:0:
336,144,9741,1,0,0:0:0:0:
336,144,9816,1,8,0:0:0:0:
336,144,9966,1,8,0:0:0:0:
344,136,10116,1,0,0:0:0:0:
344,140,10266,1,0,0:0:0:0:
336,140,10416,1,0,0:0:0:0:
336,140,10566,1,8,0:0:0:0:
336,140,10716,1,0,0:0:0:0:
336,140,10866,1,8,0:0:0:0:
336,140,10941,1,0,0:0:0:0:
336,140,11016,1,8,0:0:0:0:
336,144,11166,1,8,0:0:0:0:
336,144,11316,1,0,0:0:0:0:
336,144,11466,1,8,0:0:0:0:
332,140,11616,1,0,0:0:0:0:
332,140,11691,1,8,0:0:0:0:
336,140,11841,1,0,0:0:0:0:
336,140,11916,1,8,0:0:0:0:
336,140,11991,1,8,0:0:0:0:
332,140,13266,1,8,0:0:0:0:
336,140,13566,1,0,0:0:0:0:
332,140,13866,1,8,0:0:0:0:
332,140,14166,1,8,0:0:0:0:
332,140,14466,1,0,0:0:0:0:
320,148,15066,1,0,0:0:0:0:
296,120,15366,1,0,0:0:0:0:
332,140,15666,1,8,0:0:0:0:
332,140,15966,1,0,0:0:0:0:
332,140,16266,1,8,0:0:0:0:
332,140,16566,1,8,0:0:0:0:
332,140,16866,1,0,0:0:0:0:
320,144,17466,1,0,0:0:0:0:
320,144,17766,1,0,0:0:0:0:
320,144,18066,1,8,0:0:0:0:
308,148,18366,1,8,0:0:0:0:
304,152,18666,1,0,0:0:0:0:
304,152,18966,1,8,0:0:0:0:
304,152,19266,1,0,0:0:0:0:
304,152,19566,1,8,0:0:0:0:
308,148,19866,1,0,0:0:0:0:
312,144,20466,1,0,0:0:0:0:
312,144,20766,1,8,0:0:0:0:
312,144,21066,1,0,0:0:0:0:
308,148,21366,1,0,0:0:0:0:
312,144,21666,1,0,0:0:0:0:
312,144,21816,1,0,0:0:0:0:
312,144,21966,1,8,0:0:0:0:
312,144,22116,1,8,0:0:0:0:
312,144,22266,1,8,0:0:0:0:
312,144,22416,1,8,0:0:0:0:
300,152,22491,1,8,0:0:0:0:
300,152,22566,1,0,0:0:0:0:
286,143,22641,1,8,0:0:0:0:
304,148,22716,1,8,0:0:0:0:
296,156,22866,1,4,0:0:0:0:
288,152,23166,1,8,0:0:0:0:
288,152,23316,1,0,0:0:0:0:
288,152,23391,1,0,0:0:0:0:
288,152,23466,1,0,0:0:0:0:
288,152,23616,1,0,0:0:0:0:
288,152,23766,1,8,0:0:0:0:
288,152,23916,1,0,0:0:0:0:
288,152,24066,1,0,0:0:0:0:
288,152,24216,1,0,0:0:0:0:
288,152,24366,1,8,0:0:0:0:
288,152,24516,1,8,0:0:0:0:
288,152,24666,1,8,0:0:0:0:
288,152,24816,1,0,0:0:0:0:
288,152,24891,1,0,0:0:0:0:
288,152,24966,1,8,0:0:0:0:
288,152,25266,1,8,0:0:0:0:
280,148,25416,1,0,0:0:0:0:
280,148,25566,1,8,0:0:0:0:
292,136,25716,1,0,0:0:0:0:
292,136,25866,1,0,0:0:0:0:
292,136,26166,1,8,0:0:0:0:
292,136,26316,1,0,0:0:0:0:
292,136,26391,1,0,0:0:0:0:
292,136,26466,1,8,0:0:0:0:
292,136,26616,1,0,0:0:0:0:
292,136,26766,1,8,0:0:0:0:
292,136,26916,1,0,0:0:0:0:
292,136,27066,1,8,0:0:0:0:
292,136,27366,1,8,0:0:0:0:
296,120,27516,5,8,0:0:0:0:
296,120,27591,1,8,0:0:0:0:
296,120,27666,1,0,0:0:0:0:
296,120,27816,1,0,0:0:0:0:
296,120,27966,1,8,0:0:0:0:
296,120,28116,1,0,0:0:0:0:
296,120,28266,1,0,0:0:0:0:
296,120,28416,1,0,0:0:0:0:
296,120,28491,1,0,0:0:0:0:
292,120,28566,1,8,0:0:0:0:
292,120,28866,1,0,0:0:0:0:
296,120,29016,1,0,0:0:0:0:
296,120,29166,1,8,0:0:0:0:
296,120,29316,1,0,0:0:0:0:
288,120,29466,1,0,0:0:0:0:
288,120,29541,1,0,0:0:0:0:
288,120,29616,1,8,0:0:0:0:
288,120,29691,1,0,0:0:0:0:
288,120,29766,1,8,0:0:0:0:
280,112,29916,1,8,0:0:0:0:
280,112,30066,1,0,0:0:0:0:
280,112,30366,1,8,0:0:0:0:
272,116,30516,1,0,0:0:0:0:
272,116,30666,1,8,0:0:0:0:
261,113,30816,1,0,0:0:0:0:
272,112,30891,1,0,0:0:0:0:
272,112,30966,1,8,0:0:0:0:
268,112,31266,1,8,0:0:0:0:
244,124,31416,1,0,0:0:0:0:
244,124,31566,1,8,0:0:0:0:
244,124,31716,1,0,0:0:0:0:
244,124,31866,1,0,0:0:0:0:
244,124,32016,1,8,0:0:0:0:
244,124,32091,1,8,0:0:0:0:
244,124,32166,1,0,0:0:0:0:
244,124,32316,1,0,0:0:0:0:
244,124,32391,1,0,0:0:0:0:
244,124,32466,1,0,0:0:0:0:
238,128,32766,1,0,0:0:0:0:
238,128,33066,1,0,0:0:0:0:
238,128,33366,1,0,0:0:0:0:
238,128,33666,1,0,0:0:0:0:
252,120,33966,1,0,0:0:0:0:
252,120,34266,1,0,0:0:0:0:
252,120,34566,1,0,0:0:0:0:
252,120,34866,1,8,0:0:0:0:
260,117,35166,1,0,0:0:0:0:
260,117,35466,1,0,0:0:0:0:
252,120,35766,1,0,0:0:0:0:
252,120,36066,1,8,0:0:0:0:
248,114,36366,1,0,0:0:0:0:
248,114,36666,1,0,0:0:0:0:
248,114,36966,1,0,0:0:0:0:
248,114,37266,1,8,0:0:0:0:
248,114,37566,1,0,0:0:0:0:
248,114,37866,1,0,0:0:0:0:
248,114,38166,1,0,0:0:0:0:
253,117,38466,1,0,0:0:0:0:
255,116,38766,1,0,0:0:0:0:
255,116,39066,1,0,0:0:0:0:
255,116,39366,1,0,0:0:0:0:
255,116,39666,1,8,0:0:0:0:
246,109,39966,1,0,0:0:0:0:
246,109,40266,1,0,0:0:0:0:
246,109,40566,1,0,0:0:0:0:
246,109,40716,1,0,0:0:0:0:
246,109,40866,1,8,0:0:0:0:
252,93,41016,1,8,0:0:0:0:
252,93,41166,1,0,0:0:0:0:
252,93,41241,1,0,0:0:0:0:
252,93,41316,1,0,0:0:0:0:
252,93,41466,1,12,0:0:0:0:
252,93,41766,1,4,0:0:0:0:
249,83,42066,1,12,0:0:0:0:
244,77,42216,1,0,0:0:0:0:
244,77,42366,1,8,0:0:0:0:
232,84,42666,1,0,0:0:0:0:
233,83,42816,1,0,0:0:0:0:
234,83,42966,1,8,0:0:0:0:
221,83,43116,1,0,0:0:0:0:
222,78,43191,1,8,0:0:0:0:
221,83,43266,1,8,0:0:0:0:
223,82,43416,1,8,0:0:0:0:
224,82,43566,1,8,0:0:0:0:
213,80,43716,1,8,0:0:0:0:
218,71,43866,1,0,0:0:0:0:
218,71,44016,1,8,0:0:0:0:
205,74,44166,1,8,0:0:0:0:
216,62,44241,1,8,0:0:0:0:
208,78,44316,1,0,0:0:0:0:
218,71,44466,1,0,0:0:0:0:
231,78,44616,1,0,0:0:0:0:
231,78,44691,1,0,0:0:0:0:
231,78,44766,1,8,0:0:0:0:
214,79,45066,1,0,0:0:0:0:
216,60,45216,1,8,0:0:0:0:
216,60,45366,1,8,0:0:0:0:
212,73,45516,1,0,0:0:0:0:
212,73,45591,1,0,0:0:0:0:
212,73,45666,1,8,0:0:0:0:
216,62,45816,1,8,0:0:0:0:
219,63,45966,1,8,0:0:0:0:
218,60,46116,1,8,0:0:0:0:
218,60,46266,1,0,0:0:0:0:
199,67,46341,1,8,0:0:0:0:
218,60,46416,1,8,0:0:0:0:
221,65,46566,1,8,0:0:0:0:
204,59,46641,1,0,0:0:0:0:
208,53,46716,1,8,0:0:0:0:
208,63,46791,1,8,0:0:0:0:
204,59,46866,1,0,0:0:0:0:
206,62,47166,1,8,0:0:0:0:
206,62,47466,1,8,0:0:0:0:
198,63,47616,1,0,0:0:0:0:
193,62,47766,1,8,0:0:0:0:
196,62,47916,1,0,0:0:0:0:
193,70,47991,1,0,0:0:0:0:
197,62,48066,1,8,0:0:0:0:
199,63,48216,1,0,0:0:0:0:
199,63,48291,1,0,0:0:0:0:
199,63,48366,1,8,0:0:0:0:
199,63,48441,1,8,0:0:0:0:
199,63,48516,1,0,0:0:0:0:
199,63,48666,1,8,0:0:0:0:
199,63,48741,1,8,0:0:0:0:
199,63,48816,1,8,0:0:0:0:
200,63,48891,1,8,0:0:0:0:
200,63,48966,1,8,0:0:0:0:
199,63,49116,1,8,0:0:0:0:
198,63,49191,1,8,0:0:0:0:
200,64,49266,1,0,0:0:0:0:
197,62,49566,1,0,0:0:0:0:
197,62,49716,1,0,0:0:0:0:
199,63,49866,1,8,0:0:0:0:
199,63,49941,1,8,0:0:0:0:
199,63,50016,1,0,0:0:0:0:
199,63,50091,1,0,0:0:0:0:
199,63,50166,1,8,0:0:0:0:
199,63,50316,1,0,0:0:0:0:
199,63,50391,1,8,0:0:0:0:
200,63,50466,1,0,0:0:0:0:
199,63,50616,5,4,0:0:0:0:
197,62,50916,1,4,0:0:0:0:
197,62,51066,1,4,0:0:0:0:
199,63,51666,1,4,0:0:0:0:
199,63,51966,1,8,0:0:0:0:
197,62,52266,1,8,0:0:0:0:
197,62,52416,1,0,0:0:0:0:
197,62,52566,1,8,0:0:0:0:
199,63,52716,1,0,0:0:0:0:
199,63,52866,1,0,0:0:0:0:
207,75,53016,1,0,0:0:0:0:
199,63,53166,1,8,0:0:0:0:
199,63,53241,1,8,0:0:0:0:
199,63,53316,1,0,0:0:0:0:
199,63,53466,1,8,0:0:0:0:
211,78,53616,1,0,0:0:0:0:
211,78,53691,1,0,0:0:0:0:
199,63,53766,1,8,0:0:0:0:
197,62,53916,1,0,0:0:0:0:
197,62,53991,1,8,0:0:0:0:
197,62,54066,1,0,0:0:0:0:
205,62,54216,1,0,0:0:0:0:
205,62,54366,1,8,0:0:0:0:
205,62,54516,1,0,0:0:0:0:
205,62,54591,1,0,0:0:0:0:
205,62,54666,1,8,0:0:0:0:
205,62,54966,1,8,0:0:0:0:
205,62,55041,1,8,0:0:0:0:
206,61,55116,1,0,0:0:0:0:
206,61,55266,1,8,0:0:0:0:
197,62,55566,1,8,0:0:0:0:
205,62,55716,1,0,0:0:0:0:
205,62,55791,1,0,0:0:0:0:
205,62,55866,1,8,0:0:0:0:
205,62,56016,1,8,0:0:0:0:
205,62,56166,1,8,0:0:0:0:
193,60,56241,1,8,0:0:0:0:
199,60,56316,1,8,0:0:0:0:
193,60,56391,1,8,0:0:0:0:
199,60,56466,1,0,0:0:0:0:
202,80,56616,1,0,0:0:0:0:
202,80,56766,1,8,0:0:0:0:
197,62,56916,1,0,0:0:0:0:
197,62,56991,1,0,0:0:0:0:
197,62,57066,1,0,0:0:0:0:
198,66,57216,1,0,0:0:0:0:
198,66,57366,1,8,0:0:0:0:
198,66,57516,1,0,0:0:0:0:
198,66,57591,1,0,0:0:0:0:
198,66,57666,1,0,0:0:0:0:
198,66,57816,1,0,0:0:0:0:
198,66,57966,1,8,0:0:0:0:
185,77,58266,1,0,0:0:0:0:
185,77,58416,1,0,0:0:0:0:
185,77,58491,1,8,0:0:0:0:
185,77,58566,1,8,0:0:0:0:
185,77,58716,1,0,0:0:0:0:
197,74,58866,1,0,0:0:0:0:
197,74,58941,1,0,0:0:0:0:
197,74,59016,1,0,0:0:0:0:
197,74,59166,1,12,0:0:0:0:
203,73,59466,1,0,0:0:0:0:
203,73,59541,1,0,0:0:0:0:
203,73,59616,1,0,0:0:0:0:
203,73,59766,1,12,0:0:0:0:
198,79,60066,1,8,0:0:0:0:
198,79,60141,1,8,0:0:0:0:
198,79,60216,1,0,0:0:0:0:
198,79,60366,1,8,0:0:0:0:
199,79,60516,1,0,0:0:0:0:
199,79,60666,1,0,0:0:0:0:
199,79,60816,1,8,0:0:0:0:
199,79,60891,1,8,0:0:0:0:
199,79,60966,1,8,0:0:0:0:
199,79,61041,1,8,0:0:0:0:
199,79,61116,1,8,0:0:0:0:
199,79,61266,1,4,0:0:0:0:
208,80,61566,1,8,0:0:0:0:
216,84,61716,1,0,0:0:0:0:
216,84,61791,1,0,0:0:0:0:
216,84,61866,1,0,0:0:0:0:
216,88,62016,1,0,0:0:0:0:
220,88,62166,1,8,0:0:0:0:
228,84,62466,1,0,0:0:0:0:
196,68,62616,1,0,0:0:0:0:
196,68,62766,1,8,0:0:0:0:
208,72,62916,1,0,0:0:0:0:
216,96,62991,1,0,0:0:0:0:
208,72,63066,1,0,0:0:0:0:
220,96,63216,1,8,0:0:0:0:
216,96,63366,1,8,0:0:0:0:
220,96,63516,1,0,0:0:0:0:
220,96,63591,1,0,0:0:0:0:
220,96,63666,1,0,0:0:0:0:
220,96,63966,1,8,0:0:0:0:
216,104,64116,1,0,0:0:0:0:
216,104,64266,1,8,0:0:0:0:
216,104,64416,1,0,0:0:0:0:
216,104,64491,1,0,0:0:0:0:
216,104,64566,1,8,0:0:0:0:
216,104,64716,1,0,0:0:0:0:
216,104,64866,1,0,0:0:0:0:
208,92,65016,1,0,0:0:0:0:
208,92,65166,1,8,0:0:0:0:
216,104,65316,1,0,0:0:0:0:
216,104,65391,1,0,0:0:0:0:
216,104,65466,1,0,0:0:0:0:
216,104,65616,1,0,0:0:0:0:
216,104,65766,1,8,0:0:0:0:
216,104,65841,1,8,0:0:0:0:
216,104,65916,1,8,0:0:0:0:
216,104,66066,1,4,0:0:0:0:
216,104,66366,1,8,0:0:0:0:
224,112,66516,1,0,0:0:0:0:
224,112,66591,1,8,0:0:0:0:
224,112,66666,1,0,0:0:0:0:
224,112,66816,1,0,0:0:0:0:
224,112,66966,1,8,0:0:0:0:
212,112,67116,1,0,0:0:0:0:
212,112,67266,1,4,0:0:0:0:
224,112,67566,1,8,0:0:0:0:
216,112,67716,1,0,0:0:0:0:
216,112,67866,1,0,0:0:0:0:
216,112,68016,1,0,0:0:0:0:
216,112,68166,1,8,0:0:0:0:
216,112,68316,1,0,0:0:0:0:
216,112,68466,1,12,0:0:0:0:
216,112,68766,1,8,0:0:0:0:
216,112,68916,1,0,0:0:0:0:
216,112,68991,1,0,0:0:0:0:
216,116,69066,1,8,0:0:0:0:
216,112,69216,1,0,0:0:0:0:
216,112,69366,1,8,0:0:0:0:
196,116,69516,1,0,0:0:0:0:
196,116,69666,1,0,0:0:0:0:
196,116,69741,1,0,0:0:0:0:
196,116,69816,1,0,0:0:0:0:
196,116,69891,1,0,0:0:0:0:
196,116,69966,1,8,0:0:0:0:
200,116,70116,1,8,0:0:0:0:
200,116,70191,1,8,0:0:0:0:
196,116,70266,1,0,0:0:0:0:
196,116,70341,1,0,0:0:0:0:
200,116,70416,1,0,0:0:0:0:
200,116,70491,1,0,0:0:0:0:
200,120,70566,1,8,0:0:0:0:
200,120,70716,1,0,0:0:0:0:
200,116,70791,1,0,0:0:0:0:
356,136,70866,1,8,0:0:0:0:
360,128,71166,1,8,0:0:0:0:
360,128,71316,1,8,0:0:0:0:
360,128,71466,1,0,0:0:0:0:
360,128,71541,1,0,0:0:0:0:
360,128,71616,1,0,0:0:0:0:
360,128,71766,1,8,0:0:0:0:
360,128,71916,1,0,0:0:0:0:
360,128,72066,1,0,0:0:0:0:
360,128,72216,1,0,0:0:0:0:
360,128,72291,1,0,0:0:0:0:
360,128,72366,1,8,0:0:0:0:
352,128,72666,1,8,0:0:0:0:
352,128,72741,1,8,0:0:0:0:
352,128,72816,1,0,0:0:0:0:
352,128,72891,1,0,0:0:0:0:
352,128,72966,1,8,0:0:0:0:
348,124,73041,1,8,0:0:0:0:
348,124,73116,1,0,0:0:0:0:
348,124,73266,1,0,0:0:0:0:
344,128,73416,1,0,0:0:0:0:
344,128,73566,1,8,0:0:0:0:
340,136,73716,1,0,0:0:0:0:
344,132,73866,1,8,0:0:0:0:
352,124,73941,1,8,0:0:0:0:
352,124,74016,1,8,0:0:0:0:
352,124,74166,1,8,0:0:0:0:
352,128,74316,1,8,0:0:0:0:
352,128,74391,1,8,0:0:0:0:
352,128,74466,1,0,0:0:0:0:
344,128,74766,1,8,0:0:0:0:
344,136,74991,1,8,0:0:0:0:
344,136,75066,1,0,0:0:0:0:
340,136,75216,1,0,0:0:0:0:
336,140,75366,1,8,0:0:0:0:
336,140,75441,1,8,0:0:0:0:
344,140,75516,1,8,0:0:0:0:
344,140,75591,1,8,0:0:0:0:
336,140,75666,1,0,0:0:0:0:
344,144,75966,1,8,0:0:0:0:
348,128,76116,1,0,0:0:0:0:
348,128,76191,1,0,0:0:0:0:
344,128,76266,1,0,0:0:0:0:
344,136,76416,1,8,0:0:0:0:
344,136,76566,1,8,0:0:0:0:
342,128,76641,1,8,0:0:0:0:
348,132,76716,1,0,0:0:0:0:
348,132,76866,1,0,0:0:0:0:
344,140,77016,1,0,0:0:0:0:
344,140,77091,1,0,0:0:0:0:
344,140,77166,1,8,0:0:0:0:
344,144,77316,1,0,0:0:0:0:
344,144,77466,1,0,0:0:0:0:
344,144,77541,1,0,0:0:0:0:
344,140,77616,1,0,0:0:0:0:
344,140,77691,1,0,0:0:0:0:
344,140,77766,1,8,0:0:0:0:
336,144,78066,1,8,0:0:0:0:
336,144,78141,1,0,0:0:0:0:
336,144,78216,1,8,0:0:0:0:
336,136,78291,1,0,0:0:0:0:
336,144,78366,1,8,0:0:0:0:
344,136,78516,1,0,0:0:0:0:
344,140,78666,1,0,0:0:0:0:
336,140,78816,1,0,0:0:0:0:
336,140,78966,1,8,0:0:0:0:
336,140,79116,1,0,0:0:0:0:
336,140,79266,1,8,0:0:0:0:
336,140,79341,1,0,0:0:0:0:
336,140,79416,1,8,0:0:0:0:
333,146,79491,1,0,0:0:0:0:
336,144,79566,1,8,0:0:0:0:
336,144,79716,1,0,0:0:0:0:
336,144,79866,1,8,0:0:0:0:
332,140,80016,1,0,0:0:0:0:
332,140,80091,1,8,0:0:0:0:
336,140,80166,1,0,0:0:0:0:
336,140,80316,1,8,0:0:0:0:
336,140,80391,1,8,0:0:0:0:
346,116,81666,1,8,0:0:0:0:
346,116,81966,1,0,0:0:0:0:
346,116,82266,1,8,0:0:0:0:
346,116,82566,1,8,0:0:0:0:
346,116,82866,1,0,0:0:0:0:
339,113,83466,1,0,0:0:0:0:
339,113,83766,1,0,0:0:0:0:
339,113,84066,1,8,0:0:0:0:
339,113,84366,1,0,0:0:0:0:
339,113,84666,1,8,0:0:0:0:
339,113,84966,1,8,0:0:0:0:
339,113,85266,1,0,0:0:0:0:
339,113,85716,1,8,0:0:0:0:
339,113,85866,1,8,0:0:0:0:
339,113,86016,1,0,0:0:0:0:
339,113,86166,1,8,0:0:0:0:
357,124,86316,1,8,0:0:0:0:
339,113,86466,1,0,0:0:0:0:
339,113,86766,1,8,0:0:0:0:
339,113,87066,1,0,0:0:0:0:
339,113,87366,1,8,0:0:0:0:
339,113,87666,1,0,0:0:0:0:
339,113,87966,1,8,0:0:0:0:
339,113,88266,1,0,0:0:0:0:
339,113,88866,1,0,0:0:0:0:
339,113,89166,1,8,0:0:0:0:
339,113,89466,1,0,0:0:0:0:
339,113,89616,1,0,0:0:0:0:
339,113,89766,1,0,0:0:0:0:
339,113,89916,1,0,0:0:0:0:
339,113,90066,1,0,0:0:0:0:
339,113,90216,1,8,0:0:0:0:
339,113,90366,1,8,0:0:0:0:
339,113,90516,1,0,0:0:0:0:
339,113,91266,1,4,0:0:0:0:
339,113,91566,1,8,0:0:0:0:
339,113,91716,1,8,0:0:0:0:
339,113,91866,1,0,0:0:0:0:
339,113,92016,1,0,0:0:0:0:
339,113,92091,1,0,0:0:0:0:
339,113,92166,1,8,0:0:0:0:
339,113,92316,1,8,0:0:0:0:
339,113,92466,1,0,0:0:0:0:
339,113,92616,1,0,0:0:0:0:
339,113,92691,1,0,0:0:0:0:
339,113,92766,1,8,0:0:0:0:
339,113,92916,1,0,0:0:0:0:
339,113,93066,1,0,0:0:0:0:
342,106,93366,1,8,0:0:0:0:
342,106,93516,1,8,0:0:0:0:
342,106,93666,1,0,0:0:0:0:
342,106,93816,1,0,0:0:0:0:
342,106,93966,1,8,0:0:0:0:
342,106,94116,1,0,0:0:0:0:
342,106,94191,1,0,0:0:0:0:
342,106,94266,1,0,0:0:0:0:
342,106,94416,1,8,0:0:0:0:
342,106,94566,1,8,0:0:0:0:
333,112,94866,1,0,0:0:0:0:
336,107,95016,1,8,0:0:0:0:
336,107,95091,1,0,0:0:0:0:
333,112,95166,1,8,0:0:0:0:
333,112,95316,1,0,0:0:0:0:
333,112,95466,1,0,0:0:0:0:
333,112,95766,1,8,0:0:0:0:
333,112,95916,1,0,0:0:0:0:
344,115,95991,1,8,0:0:0:0:
333,112,96066,1,0,0:0:0:0:
336,107,96216,1,0,0:0:0:0:
336,107,96366,1,8,0:0:0:0:
336,107,96666,1,0,0:0:0:0:
336,107,96816,1,0,0:0:0:0:
317,113,96891,1,0,0:0:0:0:
336,107,96966,1,8,0:0:0:0:
336,107,97116,1,8,0:0:0:0:
336,107,97266,1,0,0:0:0:0:
336,107,97416,1,0,0:0:0:0:
336,107,97491,1,0,0:0:0:0:
336,107,97566,1,8,0:0:0:0:
336,107,97716,1,0,0:0:0:0:
336,107,97866,1,0,0:0:0:0:
336,107,98016,1,8,0:0:0:0:
336,107,98091,1,0,0:0:0:0:
336,107,98166,1,8,0:0:0:0:
336,107,98316,1,0,0:0:0:0:
336,107,98466,1,0,0:0:0:0:
325,103,98766,1,8,0:0:0:0:
325,103,99066,1,0,0:0:0:0:
329,108,99366,1,8,0:0:0:0:
328,108,99516,1,0,0:0:0:0:
328,108,99666,1,0,0:0:0:0:
328,108,99816,1,0,0:0:0:0:
328,108,99891,1,0,0:0:0:0:
328,108,99966,1,8,0:0:0:0:
328,108,100116,1,0,0:0:0:0:
329,108,100266,1,0,0:0:0:0:
329,108,100416,1,8,0:0:0:0:
328,108,100491,1,8,0:0:0:0:
328,108,100566,1,0,0:0:0:0:
328,108,100716,1,8,0:0:0:0:
328,108,100791,1,8,0:0:0:0:
244,124,100866,1,0,0:0:0:0:
238,128,101166,1,0,0:0:0:0:
238,128,101466,1,0,0:0:0:0:
238,128,101766,1,0,0:0:0:0:
238,128,102066,1,8,0:0:0:0:
252,120,102366,1,0,0:0:0:0:
252,120,102666,1,0,0:0:0:0:
252,120,102966,1,0,0:0:0:0:
252,120,103266,1,0,0:0:0:0:
260,117,103566,1,0,0:0:0:0:
260,117,103866,1,0,0:0:0:0:
252,120,104166,1,0,0:0:0:0:
252,120,104466,1,8,0:0:0:0:
248,114,104766,1,0,0:0:0:0:
248,114,105066,1,0,0:0:0:0:
248,114,105366,1,0,0:0:0:0:
248,114,105666,1,8,0:0:0:0:
248,114,105966,1,0,0:0:0:0:
248,114,106266,1,0,0:0:0:0:
248,114,106566,1,0,0:0:0:0:
253,117,106866,1,0,0:0:0:0:
255,116,107166,1,0,0:0:0:0:
255,116,107466,1,0,0:0:0:0:
255,116,107766,1,0,0:0:0:0:
255,116,108066,1,8,0:0:0:0:
246,109,108366,1,0,0:0:0:0:
246,109,108666,1,0,0:0:0:0:
246,109,108966,1,0,0:0:0:0:
246,109,109116,1,0,0:0:0:0:
246,109,109266,1,8,0:0:0:0:
250,115,109416,1,0,0:0:0:0:
246,109,109491,1,0,0:0:0:0:
250,115,109566,1,8,0:0:0:0:
246,109,109641,1,0,0:0:0:0:
246,109,109716,1,8,0:0:0:0:
246,109,109866,1,12,0:0:0:0:
246,109,110166,1,4,0:0:0:0:
246,108,110466,1,8,0:0:0:0:
261,97,110616,1,8,0:0:0:0:
272,110,110766,1,0,0:0:0:0:
270,108,110916,1,8,0:0:0:0:
270,108,111066,1,8,0:0:0:0:
275,99,111216,1,8,0:0:0:0:
275,99,111366,1,0,0:0:0:0:
275,99,111516,1,8,0:0:0:0:
274,85,111591,1,8,0:0:0:0:
275,99,111666,1,0,0:0:0:0:
285,79,111816,1,8,0:0:0:0:
286,79,112116,1,8,0:0:0:0:
286,79,112266,1,8,0:0:0:0:
286,79,112341,1,8,0:0:0:0:
286,78,112416,1,8,0:0:0:0:
286,78,112566,1,0,0:0:0:0:
286,78,112716,1,8,0:0:0:0:
285,79,112866,1,0,0:0:0:0:
286,79,113016,1,8,0:0:0:0:
286,79,113166,1,0,0:0:0:0:
292,75,113466,1,0,0:0:0:0:
294,74,113616,1,8,0:0:0:0:
293,73,113766,1,8,0:0:0:0:
293,73,113916,1,8,0:0:0:0:
283,87,113991,1,8,0:0:0:0:
293,73,114066,1,8,0:0:0:0:
292,75,114216,1,8,0:0:0:0:
284,71,114366,1,0,0:0:0:0:
292,75,114516,1,8,0:0:0:0:
218,60,114666,1,0,0:0:0:0:
223,57,114741,1,0,0:0:0:0:
218,60,114816,1,8,0:0:0:0:
218,68,114966,1,0,0:0:0:0:
208,53,115116,1,8,0:0:0:0:
204,59,115191,1,8,0:0:0:0:
204,59,115266,1,0,0:0:0:0:
206,62,115566,1,8,0:0:0:0:
206,62,115866,1,8,0:0:0:0:
193,62,116166,1,8,0:0:0:0:
288,92,116466,1,0,0:0:0:0:
293,84,116541,1,0,0:0:0:0:
262,76,116616,1,0,0:0:0:0:
278,74,116691,1,0,0:0:0:0:
290,86,116766,1,8,0:0:0:0:
290,89,116916,1,0,0:0:0:0:
289,83,117066,1,8,0:0:0:0:
289,83,117141,1,8,0:0:0:0:
283,85,117216,1,8,0:0:0:0:
283,85,117291,1,8,0:0:0:0:
283,85,117366,1,0,0:0:0:0:
283,85,117516,1,8,0:0:0:0:
282,84,117666,1,4,0:0:0:0:
283,89,117966,1,0,0:0:0:0:
283,89,118116,1,8,0:0:0:0:
289,90,118191,1,8,0:0:0:0:
283,85,118266,1,0,0:0:0:0:
283,85,118416,1,8,0:0:0:0:
283,88,118491,1,0,0:0:0:0:
283,85,118566,1,8,0:0:0:0:
282,85,118641,1,8,0:0:0:0:
282,84,118716,1,8,0:0:0:0:
283,89,118791,1,8,0:0:0:0:
283,89,118866,1,0,0:0:0:0:
292,86,119016,1,12,0:0:0:0:
293,84,119316,1,12,0:0:0:0:
305,84,119466,1,12,0:0:0:0:
298,98,119616,1,0,0:0:0:0:
298,98,119691,1,0,0:0:0:0:
298,98,119766,1,0,0:0:0:0:
298,98,119841,1,0,0:0:0:0:
298,98,119916,1,0,0:0:0:0:
282,70,120066,1,12,0:0:0:0:
293,84,120366,1,8,0:0:0:0:
291,86,120666,1,0,0:0:0:0:
301,77,120816,1,0,0:0:0:0:
290,90,120966,1,8,0:0:0:0:
301,77,121116,1,0,0:0:0:0:
301,77,121266,1,0,0:0:0:0:
301,94,121416,1,0,0:0:0:0:
301,94,121491,1,0,0:0:0:0:
301,94,121566,1,8,0:0:0:0:
301,94,121641,1,8,0:0:0:0:
301,94,121716,1,0,0:0:0:0:
303,90,121866,1,8,0:0:0:0:
303,91,122016,1,0,0:0:0:0:
303,91,122166,1,8,0:0:0:0:
303,85,122316,1,0,0:0:0:0:
303,85,122391,1,8,0:0:0:0:
301,94,122466,1,0,0:0:0:0:
301,94,122766,1,8,0:0:0:0:
301,94,122916,1,0,0:0:0:0:
303,91,123066,1,8,0:0:0:0:
312,86,123216,1,0,0:0:0:0:
312,86,123366,1,8,0:0:0:0:
323,100,123516,1,8,0:0:0:0:
328,95,123666,1,0,0:0:0:0:
333,89,123966,1,8,0:0:0:0:
338,92,124116,1,0,0:0:0:0:
338,91,124266,1,0,0:0:0:0:
338,87,124416,1,0,0:0:0:0:
336,84,124566,1,8,0:0:0:0:
336,93,124641,1,8,0:0:0:0:
333,89,124716,1,8,0:0:0:0:
333,89,124866,1,12,0:0:0:0:
323,97,125016,1,0,0:0:0:0:
323,97,125166,1,8,0:0:0:0:
321,98,125316,1,8,0:0:0:0:
321,98,125466,1,0,0:0:0:0:
332,99,125541,1,0,0:0:0:0:
332,103,125616,1,0,0:0:0:0:
332,103,125766,1,8,0:0:0:0:
342,80,125916,1,0,0:0:0:0:
332,97,126066,1,0,0:0:0:0:
322,104,126216,1,0,0:0:0:0:
322,104,126366,1,8,0:0:0:0:
308,97,126666,1,0,0:0:0:0:
349,101,126816,1,0,0:0:0:0:
349,100,126966,1,8,0:0:0:0:
371,105,127116,1,0,0:0:0:0:
368,82,127266,1,0,0:0:0:0:
368,82,127341,1,0,0:0:0:0:
368,82,127416,1,0,0:0:0:0:
368,82,127566,1,12,0:0:0:0:
380,98,127866,1,0,0:0:0:0:
376,97,127941,1,0,0:0:0:0:
376,97,128016,1,0,0:0:0:0:
376,97,128166,1,12,0:0:0:0:
365,95,128466,1,0,0:0:0:0:
367,105,128616,1,8,0:0:0:0:
367,105,128691,1,8,0:0:0:0:
367,105,128766,1,0,0:0:0:0:
369,104,128916,1,8,0:0:0:0:
368,104,129066,1,0,0:0:0:0:
362,112,129141,1,8,0:0:0:0:
362,112,129216,1,8,0:0:0:0:
377,91,129291,1,8,0:0:0:0:
362,112,129366,1,8,0:0:0:0:
362,112,129441,1,8,0:0:0:0:
362,112,129516,1,8,0:0:0:0:
362,112,129666,1,4,0:0:0:0:
346,105,129966,1,8,0:0:0:0:
346,112,130266,1,0,0:0:0:0:
346,112,130416,1,0,0:0:0:0:
346,112,130566,1,8,0:0:0:0:
346,112,130716,1,0,0:0:0:0:
346,112,130791,1,8,0:0:0:0:
346,112,130866,1,0,0:0:0:0:
348,122,131016,1,0,0:0:0:0:
348,122,131166,1,8,0:0:0:0:
343,122,131316,1,8,0:0:0:0:
348,122,131391,1,8,0:0:0:0:
343,122,131466,1,0,0:0:0:0:
358,136,131766,1,8,0:0:0:0:
350,129,131916,1,0,0:0:0:0:
350,129,132066,1,0,0:0:0:0:
350,129,132366,1,8,0:0:0:0:
362,145,132516,1,0,0:0:0:0:
350,129,132666,1,0,0:0:0:0:
362,145,132816,1,0,0:0:0:0:
362,145,132891,1,8,0:0:0:0:
350,129,132966,1,8,0:0:0:0:
362,145,133116,1,0,0:0:0:0:
350,129,133266,1,0,0:0:0:0:
362,145,133566,1,8,0:0:0:0:
362,145,133716,1,8,0:0:0:0:
362,145,133791,1,8,0:0:0:0:
362,145,133866,1,0,0:0:0:0:
362,145,134016,1,0,0:0:0:0:
383,108,134166,1,8,0:0:0:0:
383,108,134241,1,8,0:0:0:0:
383,108,134316,1,8,0:0:0:0:
383,108,134466,1,4,0:0:0:0:
216,104,134616,1,0,0:0:0:0:
216,104,134766,1,8,0:0:0:0:
224,112,134916,1,0,0:0:0:0:
224,112,134991,1,8,0:0:0:0:
224,112,135066,1,0,0:0:0:0:
224,112,135216,1,0,0:0:0:0:
224,112,135366,1,8,0:0:0:0:
212,112,135516,1,0,0:0:0:0:
212,112,135666,1,4,0:0:0:0:
224,112,135816,1,0,0:0:0:0:
224,112,135966,1,8,0:0:0:0:
216,112,136041,1,8,0:0:0:0:
216,112,136116,1,0,0:0:0:0:
216,112,136266,1,0,0:0:0:0:
216,112,136416,1,0,0:0:0:0:
216,112,136566,1,8,0:0:0:0:
216,112,136866,1,12,0:0:0:0:
216,112,137016,1,0,0:0:0:0:
222,111,137166,1,8,0:0:0:0:
216,112,137316,1,0,0:0:0:0:
216,116,137466,1,8,0:0:0:0:
216,112,137616,1,0,0:0:0:0:
216,112,137766,1,8,0:0:0:0:
196,116,137916,1,0,0:0:0:0:
208,120,137991,1,0,0:0:0:0:
196,116,138066,1,8,0:0:0:0:
196,116,138216,1,0,0:0:0:0:
196,116,138291,1,0,0:0:0:0:
196,116,138366,1,8,0:0:0:0:
196,116,138441,1,8,0:0:0:0:
200,116,138516,1,8,0:0:0:0:
200,116,138591,1,8,0:0:0:0:
196,116,138666,1,0,0:0:0:0:
200,116,138816,1,8,0:0:0:0:
200,116,138891,1,8,0:0:0:0:
200,120,138966,1,8,0:0:0:0:
200,116,139041,1,8,0:0:0:0:
200,120,139116,1,0,0:0:0:0:
356,136,139266,1,12,0:0:0:0:
360,142,139566,1,8,0:0:0:0:
360,142,139716,1,0,0:0:0:0:
375,137,139791,1,8,0:0:0:0:
360,142,139866,1,0,0:0:0:0:
356,136,140016,1,0,0:0:0:0:
356,136,140166,1,8,0:0:0:0:
356,136,140316,1,0,0:0:0:0:
360,142,140466,1,0,0:0:0:0:
360,142,140616,1,0,0:0:0:0:
360,142,140766,1,8,0:0:0:0:
393,151,141066,1,0,0:0:0:0:
371,142,141216,1,0,0:0:0:0:
390,112,141366,1,8,0:0:0:0:
376,123,141516,1,0,0:0:0:0:
372,112,141666,1,0,0:0:0:0:
358,121,141816,1,0,0:0:0:0:
323,112,141966,1,8,0:0:0:0:
358,121,142116,1,0,0:0:0:0:
371,142,142191,1,8,0:0:0:0:
365,117,142266,1,0,0:0:0:0:
358,121,142416,1,0,0:0:0:0:
374,124,142566,5,8,0:0:0:0:
374,124,142641,1,8,0:0:0:0:
374,124,142716,1,0,0:0:0:0:
365,117,143016,1,0,0:0:0:0:
365,117,143166,1,8,0:0:0:0:
365,117,143316,1,0,0:0:0:0:
368,117,143466,1,0,0:0:0:0:
373,131,143616,1,8,0:0:0:0:
373,129,143691,1,8,0:0:0:0:
373,131,143766,1,8,0:0:0:0:
374,138,143841,1,8,0:0:0:0:
388,144,143916,1,8,0:0:0:0:
388,144,144066,1,4,0:0:0:0:
416,138,144366,1,8,0:0:0:0:
406,151,144516,1,0,0:0:0:0:
406,151,144591,1,8,0:0:0:0:
406,151,144666,1,0,0:0:0:0:
406,151,144816,1,0,0:0:0:0:
416,138,144966,1,8,0:0:0:0:
406,153,145116,1,0,0:0:0:0:
400,152,145266,1,0,0:0:0:0:
403,145,145416,1,0,0:0:0:0:
416,138,145566,1,8,0:0:0:0:
417,129,145866,1,0,0:0:0:0:
417,129,146016,1,0,0:0:0:0:
417,129,146166,1,8,0:0:0:0:
432,143,146316,1,8,0:0:0:0:
432,143,146391,1,8,0:0:0:0:
432,143,146466,1,8,0:0:0:0:
445,135,146766,1,8,0:0:0:0:
445,135,147066,1,8,0:0:0:0:
445,135,147366,1,8,0:0:0:0:
444,129,147516,1,0,0:0:0:0:
445,135,147666,1,8,0:0:0:0:
429,141,147816,1,0,0:0:0:0:
446,129,147891,1,0,0:0:0:0:
463,119,147966,1,8,0:0:0:0:
444,129,148041,1,8,0:0:0:0:
446,129,148116,1,0,0:0:0:0:
461,119,148266,1,0,0:0:0:0:
461,119,148341,1,0,0:0:0:0:
461,119,148416,1,8,0:0:0:0:
461,119,148491,1,8,0:0:0:0:
461,119,148566,1,0,0:0:0:0:
465,114,148716,1,8,0:0:0:0:
465,113,148791,1,8,0:0:0:0:
450,98,148866,1,0,0:0:0:0:
453,104,149166,1,8,0:0:0:0:
445,111,149316,1,8,0:0:0:0:
450,114,149466,1,0,0:0:0:0:
445,110,149616,1,8,0:0:0:0:
453,105,149766,1,8,0:0:0:0:
445,110,149916,1,8,0:0:0:0:
450,114,150066,1,0,0:0:0:0:
450,114,150216,1,8,0:0:0:0:
450,114,150366,1,8,0:0:0:0:
450,114,150516,1,0,0:0:0:0:
450,114,150666,1,8,0:0:0:0:
443,119,150966,1,8,0:0:0:0:
442,133,151041,1,8,0:0:0:0:
446,128,151116,1,0,0:0:0:0:
456,130,151266,1,0,0:0:0:0:
456,130,151416,1,0,0:0:0:0:
456,130,151566,1,8,0:0:0:0:
439,146,151716,1,0,0:0:0:0:
439,146,151791,1,8,0:0:0:0:
439,146,151866,1,0,0:0:0:0:
479,146,152016,1,0,0:0:0:0:
477,144,152091,1,0,0:0:0:0:
477,144,152166,1,8,0:0:0:0:
445,147,152316,1,0,0:0:0:0:
445,147,152616,1,0,0:0:0:0:
445,147,152766,1,8,0:0:0:0:
466,152,152841,1,8,0:0:0:0:
466,152,152916,1,0,0:0:0:0:
454,143,153066,1,0,0:0:0:0:
454,143,153216,1,0,0:0:0:0:
454,143,153366,1,8,0:0:0:0:
454,143,153441,1,8,0:0:0:0:
454,143,153516,1,8,0:0:0:0:
460,150,153591,1,8,0:0:0:0:
454,143,153666,1,0,0:0:0:0:
456,150,153966,1,8,0:0:0:0:
456,150,154116,1,0,0:0:0:0:
456,150,154266,1,0,0:0:0:0:
454,143,154416,1,0,0:0:0:0:
454,143,154491,1,0,0:0:0:0:
454,143,154566,1,8,0:0:0:0:
438,152,154716,5,0,0:0:0:0:
438,152,154791,1,0,0:0:0:0:
438,152,154866,1,8,0:0:0:0:
438,152,155016,1,0,0:0:0:0:
438,152,155166,1,8,0:0:0:0:
438,152,155241,1,0,0:0:0:0:
438,152,155316,1,8,0:0:0:0:
438,152,155391,1,8,0:0:0:0:
438,152,155466,1,0,0:0:0:0:
385,102,155616,1,0,0:0:0:0:
385,102,155691,1,0,0:0:0:0:
384,91,155766,5,8,0:0:0:0:
384,91,155916,1,0,0:0:0:0:
384,91,156066,1,4,0:0:0:0:
380,100,156366,1,0,0:0:0:0:
389,95,156516,1,0,0:0:0:0:
389,95,156591,1,8,0:0:0:0:
380,100,156666,1,0,0:0:0:0:
389,95,156816,1,8,0:0:0:0:
389,95,156891,1,8,0:0:0:0:
389,95,156966,1,0,0:0:0:0:
389,95,157116,1,8,0:0:0:0:
389,95,157191,1,8,0:0:0:0:
389,95,157266,1,0,0:0:0:0:
389,95,157341,1,8,0:0:0:0:
389,95,157416,1,8,0:0:0:0:
389,95,157491,1,8,0:0:0:0:
389,95,157566,1,0,0:0:0:0:
389,95,157716,1,8,0:0:0:0:
389,95,157791,1,8,0:0:0:0:
389,95,157866,1,0,0:0:0:0:
389,95,158016,1,8,0:0:0:0:
389,95,158166,1,0,0:0:0:0:
389,95,158241,1,8,0:0:0:0:
389,95,158316,1,8,0:0:0:0:
373,103,158391,1,8,0:0:0:0:
244,124,158466,1,0,0:0:0:0:
238,128,158766,1,0,0:0:0:0:
238,128,159066,1,0,0:0:0:0:
238,128,159366,1,0,0:0:0:0:
238,128,159666,1,0,0:0:0:0:
252,120,159966,1,0,0:0:0:0:
252,120,160266,1,0,0:0:0:0:
252,120,160566,1,0,0:0:0:0:
252,120,160866,1,8,0:0:0:0:
260,117,161166,1,0,0:0:0:0:
260,117,161466,1,0,0:0:0:0:
252,120,161766,1,0,0:0:0:0:
252,120,162066,1,8,0:0:0:0:
248,114,162366,1,0,0:0:0:0:
248,114,162666,1,0,0:0:0:0:
248,114,162966,1,0,0:0:0:0:
248,114,163266,1,8,0:0:0:0:
248,114,163566,1,0,0:0:0:0:
248,114,163866,1,0,0:0:0:0:
248,114,164166,1,0,0:0:0:0:
253,117,164466,1,0,0:0:0:0:
255,116,164766,1,0,0:0:0:0:
255,116,165066,1,0,0:0:0:0:
255,116,165366,1,0,0:0:0:0:
255,116,165666,1,8,0:0:0:0:
246,109,165966,1,0,0:0:0:0:
246,109,166266,1,0,0:0:0:0:
246,109,166566,1,0,0:0:0:0:
246,109,166716,1,8,0:0:0:0:
246,109,166866,1,0,0:0:0:0:
246,109,167016,1,8,0:0:0:0:
246,109,167166,1,0,0:0:0:0:
241,104,167241,1,0,0:0:0:0:
241,104,167316,1,0,0:0:0:0:
241,104,167391,1,0,0:0:0:0:
241,104,167466,1,8,0:0:0:0:
237,102,167766,1,4,0:0:0:0:
237,102,168066,1,4,0:0:0:0:
234,102,168366,1,8,0:0:0:0:
237,102,168666,1,0,0:0:0:0:
230,103,168816,1,8,0:0:0:0:
230,103,168966,1,8,0:0:0:0:
246,98,169116,1,8,0:0:0:0:
246,98,169191,1,8,0:0:0:0:
246,98,169266,1,0,0:0:0:0:
234,102,169416,1,8,0:0:0:0:
237,102,169566,1,8,0:0:0:0:
251,99,169716,1,8,0:0:0:0:
251,99,169866,1,0,0:0:0:0:
251,99,169941,1,0,0:0:0:0:
251,99,170016,1,8,0:0:0:0:
254,96,170166,1,8,0:0:0:0:
248,98,170466,1,0,0:0:0:0:
248,98,170616,1,8,0:0:0:0:
251,99,170766,1,8,0:0:0:0:
251,99,171066,1,0,0:0:0:0:
248,95,171216,1,8,0:0:0:0:
248,95,171366,1,8,0:0:0:0:
248,90,171516,1,0,0:0:0:0:
248,90,171591,1,0,0:0:0:0:
248,90,171666,1,8,0:0:0:0:
248,90,171816,1,8,0:0:0:0:
248,91,171966,1,0,0:0:0:0:
251,99,172116,1,8,0:0:0:0:
251,100,172266,1,0,0:0:0:0:
248,95,172341,1,0,0:0:0:0:
246,100,172416,1,8,0:0:0:0:
246,100,172566,1,0,0:0:0:0:
252,104,172716,1,8,0:0:0:0:
252,104,172791,1,8,0:0:0:0:
252,104,172866,1,0,0:0:0:0:
242,106,173166,1,8,0:0:0:0:
247,106,173466,1,8,0:0:0:0:
252,104,173766,1,8,0:0:0:0:
247,106,174066,1,8,0:0:0:0:
258,113,174216,1,0,0:0:0:0:
258,113,174291,1,0,0:0:0:0:
258,113,174366,1,8,0:0:0:0:
262,124,174441,1,0,0:0:0:0:
258,113,174516,1,0,0:0:0:0:
258,113,174591,1,0,0:0:0:0:
259,112,174666,1,8,0:0:0:0:
259,112,174816,1,0,0:0:0:0:
259,112,174966,1,0,0:0:0:0:
259,112,175041,1,0,0:0:0:0:
259,112,175116,1,8,0:0:0:0:
258,113,175191,1,8,0:0:0:0:
258,113,175266,1,0,0:0:0:0:
255,104,175566,1,0,0:0:0:0:
255,104,175716,1,8,0:0:0:0:
246,116,175791,1,0,0:0:0:0:
246,116,175866,1,0,0:0:0:0:
261,118,175941,1,8,0:0:0:0:
261,118,176016,1,0,0:0:0:0:
261,118,176091,1,0,0:0:0:0:
261,118,176166,1,8,0:0:0:0:
276,120,176316,1,0,0:0:0:0:
276,120,176466,1,12,0:0:0:0:
277,118,176666,1,12,0:0:0:0:
285,120,176866,1,12,0:0:0:0:
283,117,177066,1,12,0:0:0:0:
283,116,177266,1,0,0:0:0:0:
297,116,177466,1,12,0:0:0:0:
302,125,178866,1,0,0:0:0:0:
302,125,179166,1,8,0:0:0:0:
302,125,179466,1,0,0:0:0:0:
302,125,179766,1,8,0:0:0:0:
302,125,180066,1,8,0:0:0:0:
302,125,180666,1,0,0:0:0:0:
302,125,180966,1,8,0:0:0:0:
302,125,181266,1,0,0:0:0:0:
302,125,181566,1,8,0:0:0:0:
302,125,181716,1,8,0:0:0:0:
302,125,181866,1,0,0:0:0:0:
302,125,182166,1,8,0:0:0:0:
302,125,182466,1,0,0:0:0:0:
302,125,182916,1,8,0:0:0:0:
302,125,183066,1,8,0:0:0:0:
302,125,183216,1,0,0:0:0:0:
313,121,183366,1,8,0:0:0:0:
313,121,183666,1,0,0:0:0:0:
313,121,183966,1,0,0:0:0:0:
316,120,184266,1,8,0:0:0:0:
313,121,184566,1,0,0:0:0:0:
397,199,184866,5,8,0:0:0:0:
397,199,185466,1,0,0:0:0:0:
386,196,185766,1,8,0:0:0:0:
387,197,186066,1,0,0:0:0:0:
256,192,187866,12,0,189066,0:0:0:0:
384,196,189666,5,4,0:0:0:0:
384,196,189966,1,8,0:0:0:0:
384,196,190116,1,0,0:0:0:0:
384,196,190266,1,0,0:0:0:0:
378,197,190566,1,8,0:0:0:0:
371,197,190716,1,0,0:0:0:0:
371,197,190866,1,0,0:0:0:0:
371,197,191016,1,0,0:0:0:0:
371,197,191166,1,8,0:0:0:0:
371,197,191316,1,0,0:0:0:0:
371,197,191466,1,8,0:0:0:0:
371,197,191541,1,8,0:0:0:0:
377,187,191616,1,0,0:0:0:0:
371,197,191766,1,8,0:0:0:0:
371,197,191916,1,0,0:0:0:0:
371,197,192066,1,8,0:0:0:0:
364,189,192366,1,8,0:0:0:0:
371,197,192516,1,0,0:0:0:0:
371,197,192666,1,0,0:0:0:0:
371,197,192816,1,0,0:0:0:0:
364,185,192891,1,0,0:0:0:0:
371,197,192966,1,8,0:0:0:0:
371,197,193041,1,8,0:0:0:0:
372,192,193116,1,8,0:0:0:0:
372,192,193191,1,8,0:0:0:0:
372,192,193266,1,0,0:0:0:0:
371,197,193416,1,0,0:0:0:0:
371,197,193566,1,8,0:0:0:0:
371,197,193716,1,0,0:0:0:0:
371,197,193791,1,0,0:0:0:0:
371,197,193866,1,0,0:0:0:0:
371,197,194016,1,0,0:0:0:0:
372,192,194166,1,8,0:0:0:0:
362,193,194466,1,0,0:0:0:0:
362,193,194616,1,8,0:0:0:0:
362,193,194766,1,8,0:0:0:0:
362,193,194916,1,0,0:0:0:0:
362,193,194991,1,0,0:0:0:0:
362,193,195066,1,8,0:0:0:0:
347,186,195216,1,0,0:0:0:0:
347,186,195366,1,8,0:0:0:0:
347,186,195666,1,0,0:0:0:0:
348,184,195741,1,0,0:0:0:0:
348,183,195816,1,0,0:0:0:0:
348,183,195966,1,12,0:0:0:0:
347,186,196266,1,0,0:0:0:0:
347,186,196341,1,0,0:0:0:0:
347,186,196416,1,0,0:0:0:0:
347,186,196566,1,12,0:0:0:0:
336,175,196866,1,12,0:0:0:0:
334,177,197016,1,0,0:0:0:0:
334,177,197091,1,0,0:0:0:0:
334,177,197166,1,0,0:0:0:0:
331,168,197316,1,8,0:0:0:0:
324,173,197466,1,0,0:0:0:0:
324,173,197541,1,0,0:0:0:0:
324,168,197616,1,8,0:0:0:0:
323,174,197691,1,0,0:0:0:0:
324,168,197766,1,8,0:0:0:0:
324,168,198066,1,4,0:0:0:0:
348,191,198366,1,8,0:0:0:0:
348,191,198666,1,0,0:0:0:0:
348,191,198816,1,0,0:0:0:0:
348,191,198966,1,8,0:0:0:0:
348,191,199116,1,0,0:0:0:0:
348,191,199266,1,8,0:0:0:0:
346,181,199341,1,8,0:0:0:0:
345,175,199416,1,0,0:0:0:0:
348,191,199566,1,8,0:0:0:0:
358,179,199716,1,8,0:0:0:0:
358,179,199866,1,0,0:0:0:0:
349,170,200016,1,0,0:0:0:0:
350,171,200166,1,8,0:0:0:0:
344,164,200466,1,0,0:0:0:0:
333,180,200766,1,8,0:0:0:0:
333,180,200916,1,0,0:0:0:0:
333,180,201066,1,0,0:0:0:0:
333,180,201216,1,0,0:0:0:0:
324,177,201291,1,0,0:0:0:0:
333,180,201366,1,8,0:0:0:0:
333,180,201516,1,0,0:0:0:0:
333,180,201666,1,8,0:0:0:0:
333,180,201816,1,0,0:0:0:0:
323,162,201966,1,8,0:0:0:0:
329,140,202266,1,0,0:0:0:0:
346,155,202416,1,0,0:0:0:0:
362,146,202566,1,8,0:0:0:0:
362,146,202641,1,8,0:0:0:0:
362,146,202716,1,0,0:0:0:0:
338,154,202791,1,0,0:0:0:0:
362,146,202866,1,8,0:0:0:0:
330,140,203166,1,8,0:0:0:0:
345,140,203466,1,0,0:0:0:0:
344,140,203616,1,0,0:0:0:0:
343,140,203766,1,8,0:0:0:0:
333,145,203916,1,0,0:0:0:0:
333,145,204066,1,12,0:0:0:0:
353,139,204216,1,8,0:0:0:0:
353,139,204291,1,8,0:0:0:0:
353,139,204366,1,0,0:0:0:0:
357,132,204516,1,8,0:0:0:0:
356,148,204666,1,0,0:0:0:0:
356,147,204741,1,8,0:0:0:0:
356,147,204891,1,0,0:0:0:0:
356,147,204966,1,8,0:0:0:0:
356,147,205041,1,8,0:0:0:0:
356,147,205116,1,0,0:0:0:0:
356,147,205191,1,8,0:0:0:0:
400,132,205566,1,12,0:0:0:0:
197,62,205866,1,0,0:0:0:0:
197,62,206166,1,8,0:0:0:0:
209,68,206316,1,0,0:0:0:0:
199,63,206466,1,8,0:0:0:0:
199,63,206616,1,0,0:0:0:0:
199,63,206766,1,8,0:0:0:0:
199,63,206841,1,8,0:0:0:0:
199,63,206916,1,0,0:0:0:0:
199,63,207066,1,0,0:0:0:0:
197,62,207366,1,8,0:0:0:0:
186,70,207441,1,8,0:0:0:0:
194,68,207516,1,0,0:0:0:0:
197,62,207666,1,0,0:0:0:0:
205,62,207816,1,0,0:0:0:0:
205,62,207966,1,8,0:0:0:0:
205,62,208116,1,0,0:0:0:0:
205,62,208191,1,0,0:0:0:0:
205,62,208266,1,8,0:0:0:0:
205,62,208416,1,0,0:0:0:0:
205,62,208566,1,8,0:0:0:0:
205,62,208641,1,8,0:0:0:0:
206,61,208716,1,0,0:0:0:0:
206,61,208866,1,8,0:0:0:0:
197,62,209166,1,8,0:0:0:0:
205,62,209316,1,0,0:0:0:0:
205,62,209466,1,8,0:0:0:0:
198,60,209541,1,0,0:0:0:0:
205,62,209616,1,8,0:0:0:0:
205,62,209766,1,8,0:0:0:0:
193,60,209841,1,8,0:0:0:0:
199,60,209916,1,8,0:0:0:0:
193,60,209991,1,8,0:0:0:0:
199,60,210066,1,0,0:0:0:0:
202,80,210216,1,0,0:0:0:0:
202,80,210366,1,8,0:0:0:0:
197,62,210666,1,0,0:0:0:0:
198,66,210816,1,0,0:0:0:0:
198,66,210966,1,8,0:0:0:0:
198,66,211116,1,0,0:0:0:0:
198,66,211191,1,0,0:0:0:0:
198,66,211266,1,0,0:0:0:0:
198,66,211416,1,0,0:0:0:0:
198,66,211566,1,8,0:0:0:0:
185,77,211716,1,0,0:0:0:0:
185,77,211866,1,0,0:0:0:0:
187,58,211941,1,0,0:0:0:0:
185,77,212016,1,0,0:0:0:0:
185,77,212166,1,8,0:0:0:0:
197,74,212466,1,0,0:0:0:0:
197,74,212541,1,0,0:0:0:0:
197,74,212616,1,0,0:0:0:0:
197,74,212766,1,12,0:0:0:0:
203,73,213066,1,0,0:0:0:0:
203,73,213141,1,0,0:0:0:0:
203,73,213216,1,0,0:0:0:0:
203,73,213366,1,12,0:0:0:0:
197,79,213516,1,0,0:0:0:0:
210,70,213591,1,8,0:0:0:0:
198,79,213666,1,0,0:0:0:0:
198,79,213816,1,8,0:0:0:0:
198,79,213891,1,8,0:0:0:0:
198,79,213966,1,0,0:0:0:0:
199,79,214116,1,8,0:0:0:0:
199,79,214266,1,0,0:0:0:0:
199,79,214416,1,8,0:0:0:0:
199,79,214491,1,8,0:0:0:0:
199,79,214566,1,8,0:0:0:0:
180,65,214641,1,8,0:0:0:0:
199,79,214716,1,8,0:0:0:0:
199,79,214866,1,4,0:0:0:0:
208,80,215166,1,8,0:0:0:0:
216,84,215466,1,0,0:0:0:0:
216,88,215616,1,0,0:0:0:0:
220,88,215766,1,8,0:0:0:0:
220,88,215916,1,0,0:0:0:0:
220,88,215991,1,0,0:0:0:0:
228,84,216066,1,8,0:0:0:0:
223,82,216216,1,0,0:0:0:0:
196,68,216366,1,8,0:0:0:0:
208,72,216516,1,0,0:0:0:0:
216,96,216591,1,0,0:0:0:0:
208,72,216666,1,0,0:0:0:0:
216,96,216966,1,8,0:0:0:0:
220,96,217116,1,0,0:0:0:0:
220,96,217191,1,0,0:0:0:0:
220,96,217266,1,0,0:0:0:0:
216,96,217416,1,0,0:0:0:0:
220,96,217566,1,8,0:0:0:0:
216,104,217866,1,8,0:0:0:0:
216,104,218016,1,0,0:0:0:0:
216,104,218091,1,0,0:0:0:0:
216,104,218166,1,8,0:0:0:0:
216,104,218316,1,0,0:0:0:0:
216,104,218466,1,0,0:0:0:0:
208,92,218616,1,0,0:0:0:0:
208,92,218766,1,8,0:0:0:0:
216,104,218916,1,0,0:0:0:0:
216,104,218991,1,0,0:0:0:0:
216,104,219066,1,0,0:0:0:0:
216,104,219216,1,0,0:0:0:0:
238,101,219291,1,0,0:0:0:0:
216,104,219366,1,8,0:0:0:0:
216,104,219441,1,8,0:0:0:0:
216,104,219516,1,8,0:0:0:0:
216,104,219666,1,4,0:0:0:0:
216,104,219966,1,8,0:0:0:0:
224,112,220116,1,0,0:0:0:0:
224,112,220266,1,0,0:0:0:0:
224,112,220341,1,0,0:0:0:0:
224,112,220416,1,0,0:0:0:0:
224,112,220566,1,8,0:0:0:0:
212,112,220866,1,4,0:0:0:0:
224,112,221016,1,0,0:0:0:0:
224,112,221091,1,0,0:0:0:0:
224,112,221166,1,8,0:0:0:0:
216,112,221316,1,0,0:0:0:0:
216,112,221466,1,0,0:0:0:0:
224,112,221541,1,0,0:0:0:0:
216,112,221616,1,0,0:0:0:0:
216,112,221766,1,8,0:0:0:0:
216,112,221916,1,0,0:0:0:0:
216,112,222066,1,12,0:0:0:0:
216,112,222366,1,8,0:0:0:0:
216,112,222516,1,0,0:0:0:0:
216,112,222591,1,0,0:0:0:0:
216,116,222666,1,8,0:0:0:0:
216,112,222816,1,0,0:0:0:0:
213,120,222891,1,0,0:0:0:0:
216,112,222966,1,8,0:0:0:0:
196,116,223116,1,0,0:0:0:0:
217,103,223191,1,0,0:0:0:0:
196,116,223266,1,8,0:0:0:0:
196,116,223341,1,8,0:0:0:0:
196,116,223416,1,8,0:0:0:0:
196,116,223491,1,8,0:0:0:0:
196,116,223566,1,0,0:0:0:0:
363,128,223716,1,8,0:0:0:0:
358,133,223866,1,8,0:0:0:0:
358,133,223941,1,8,0:0:0:0:
358,133,224016,1,8,0:0:0:0:
358,133,224091,1,8,0:0:0:0:
356,136,224466,1,4,0:0:0:0:
356,136,224616,1,0,0:0:0:0:
360,128,224766,1,8,0:0:0:0:
360,128,224916,1,8,0:0:0:0:
360,128,225066,1,0,0:0:0:0:
360,128,225141,1,0,0:0:0:0:
360,128,225216,1,0,0:0:0:0:
360,128,225366,1,8,0:0:0:0:
360,128,225516,1,0,0:0:0:0:
360,128,225666,1,0,0:0:0:0:
360,128,225741,1,0,0:0:0:0:
360,128,225816,1,0,0:0:0:0:
360,128,225966,1,8,0:0:0:0:
352,128,226266,1,8,0:0:0:0:
352,128,226341,1,8,0:0:0:0:
352,128,226416,1,0,0:0:0:0:
352,128,226566,1,8,0:0:0:0:
348,124,226716,1,0,0:0:0:0:
348,124,226866,1,0,0:0:0:0:
344,128,227016,1,0,0:0:0:0:
344,128,227166,1,8,0:0:0:0:
340,136,227316,1,0,0:0:0:0:
344,132,227466,1,8,0:0:0:0:
352,124,227541,1,8,0:0:0:0:
352,124,227616,1,8,0:0:0:0:
352,124,227766,1,8,0:0:0:0:
352,128,227916,1,8,0:0:0:0:
352,128,228066,1,0,0:0:0:0:
348,128,228216,1,0,0:0:0:0:
344,128,228366,1,8,0:0:0:0:
344,136,228666,1,0,0:0:0:0:
340,136,228816,1,0,0:0:0:0:
336,140,228966,1,8,0:0:0:0:
336,140,229041,1,8,0:0:0:0:
344,140,229116,1,8,0:0:0:0:
336,140,229266,1,4,0:0:0:0:
344,144,229566,1,8,0:0:0:0:
348,128,229716,1,0,0:0:0:0:
344,128,229866,1,0,0:0:0:0:
344,136,230016,1,8,0:0:0:0:
344,136,230166,1,8,0:0:0:0:
348,132,230316,1,0,0:0:0:0:
348,132,230466,1,0,0:0:0:0:
344,140,230766,1,8,0:0:0:0:
344,144,230916,1,0,0:0:0:0:
344,144,231066,1,0,0:0:0:0:
344,144,231141,1,0,0:0:0:0:
344,140,231216,1,0,0:0:0:0:
344,140,231291,1,0,0:0:0:0:
344,140,231366,1,8,0:0:0:0:
344,136,231516,1,0,0:0:0:0:
336,144,231666,1,8,0:0:0:0:
336,144,231741,1,0,0:0:0:0:
336,144,231816,1,8,0:0:0:0:
337,152,231891,1,0,0:0:0:0:
336,144,231966,1,8,0:0:0:0:
344,136,232116,1,0,0:0:0:0:
344,140,232266,1,0,0:0:0:0:
336,140,232566,1,8,0:0:0:0:
336,140,232716,1,0,0:0:0:0:
336,140,232866,1,8,0:0:0:0:
336,140,232941,1,0,0:0:0:0:
336,140,233016,1,8,0:0:0:0:
337,151,233091,1,0,0:0:0:0:
336,144,233166,1,8,0:0:0:0:
336,144,233316,1,0,0:0:0:0:
336,144,233466,1,8,0:0:0:0:
332,140,233616,1,0,0:0:0:0:
332,140,233691,1,8,0:0:0:0:
336,140,233841,1,0,0:0:0:0:
336,140,233916,1,8,0:0:0:0:
336,140,233991,1,8,0:0:0:0:
