osu file format v14

[General]
AudioFilename: audio.mp3
AudioLeadIn: 0
PreviewTime: 51066
Countdown: 0
SampleSet: Normal
StackLeniency: 0.7
Mode: 1
LetterboxInBreaks: 0
WidescreenStoryboard: 1

[Editor]
Bookmarks: 91266,120066
DistanceSpacing: 1.5
BeatDivisor: 4
GridSize: 4
TimelineZoom: 3

[Metadata]
Title:Kakushigoto
TitleUnicode:かくしごと
Artist:mafumafu
ArtistUnicode:まふまふ
Creator:kanpakyin
Version:Muzukashii
Source:
Tags:Vocaloid IA Secret 明鏡止水 Meikyoushisui Vocaloid3 rock japanese
BeatmapID:2966705
BeatmapSetID:1320126

[Difficulty]
HPDrainRate:6.5
CircleSize:4
OverallDifficulty:4.5
ApproachRate:5
SliderMultiplier:1.4
SliderTickRate:1

[Events]
//Background and Video events
0,0,"BG.jpg",0,30
//Break Periods
//Storyboard Layer 0 (Background)
//Storyboard Layer 1 (Fail)
//Storyboard Layer 2 (Pass)
//Storyboard Layer 3 (Foreground)
//Storyboard Layer 4 (Overlay)
//Storyboard Sound Samples

[TimingPoints]
1266,300,4,1,0,90,1,0
13266,-125,4,1,0,65,0,0
21666,-121.951219512195,4,1,0,75,0,0
21816,-119.047619047619,4,1,0,75,0,0
21966,-116.279069767442,4,1,0,75,0,0
22116,-113.636363636364,4,1,0,75,0,0
22266,-111.111111111111,4,1,0,90,0,0
22416,-106.382978723404,4,1,0,90,0,0
22491,-105.263157894737,4,1,0,90,0,0
22566,-104.166666666667,4,1,0,90,0,0
22641,-103.092783505155,4,1,0,90,0,0
22716,-102.040816326531,4,1,0,90,0,0
22791,-101.010101010101,4,1,0,90,0,0
22866,-100,4,1,0,90,0,0
32766,-117.647058823529,4,1,0,90,0,0
40566,-114.942528735632,4,1,0,90,0,0
40716,-112.359550561798,4,1,0,90,0,0
40866,-109.89010989011,4,1,0,90,0,0
41016,-107.52688172043,4,1,0,90,0,0
41166,-105.263157894737,4,1,0,90,0,0
41466,-100,4,1,0,90,0,0
51666,-95.2380952380952,4,1,0,100,0,1
58866,-90.9090909090909,4,1,0,100,0,1
58941,-89.2857142857143,4,1,0,100,0,1
59016,-87.719298245614,4,1,0,100,0,1
59166,-83.3333333333333,4,1,0,100,0,1
59466,-90.9090909090909,4,1,0,100,0,1
59541,-89.2857142857143,4,1,0,100,0,1
59616,-87.719298245614,4,1,0,100,0,1
59766,-83.3333333333333,4,1,0,100,0,1
59916,-95.2380952380952,4,1,0,100,0,1
70566,-97.0873786407767,4,1,0,100,0,1
70716,-99.009900990099,4,1,0,100,0,1
70866,-100,4,1,0,100,0,0
71016,-100,4,1,0,90,0,0
81666,-125,4,1,0,65,0,0
89466,-120.481927710843,4,1,0,65,0,0
89616,-116.279069767442,4,1,0,65,0,0
89766,-112.359550561798,4,1,0,65,0,0
89916,-108.695652173913,4,1,0,65,0,0
90066,-105.263157894737,4,1,0,80,0,0
90216,-102.040816326531,4,1,0,80,0,0
90366,-99.009900990099,4,1,0,80,0,0
90516,-97.0873786407767,4,1,0,80,0,0
91266,-100,4,1,0,90,0,0
101016,-117.647058823529,4,1,0,90,0,0
108966,-114.942528735632,4,1,0,90,0,0
109116,-112.359550561798,4,1,0,90,0,0
109266,-109.89010989011,4,1,0,90,0,0
109341,-108.695652173913,4,1,0,90,0,0
109716,-106.382978723404,4,1,0,90,0,0
109866,-104.166666666667,4,1,0,90,0,0
110166,-102.040816326531,4,1,0,90,0,0
110466,-100,4,1,0,90,0,0
120066,-95.2380952380952,4,1,0,100,0,1
127266,-90.9090909090909,4,1,0,100,0,1
127341,-89.2857142857143,4,1,0,100,0,1
127416,-87.719298245614,4,1,0,100,0,1
127566,-83.3333333333333,4,1,0,100,0,1
127866,-90.9090909090909,4,1,0,100,0,1
127941,-89.2857142857143,4,1,0,100,0,1
128016,-87.719298245614,4,1,0,100,0,1
128166,-83.3333333333333,4,1,0,100,0,1
128316,-95.2380952380952,4,1,0,100,0,1
139266,-95.2380952380952,4,1,0,100,0,0
139566,-100,4,1,0,90,0,0
158466,-101.010101010101,4,1,0,90,0,0
158766,-105.263157894737,4,1,0,90,0,0
159066,-111.111111111111,4,1,0,90,0,0
159366,-117.647058823529,4,1,0,90,0,0
166566,-114.942528735632,4,1,0,90,0,0
166716,-112.359550561798,4,1,0,90,0,0
166866,-109.89010989011,4,1,0,90,0,0
167016,-107.52688172043,4,1,0,90,0,0
167166,-105.263157894737,4,1,0,90,0,0
167466,-100,4,1,0,90,0,0
178791,-125,4,1,0,30,0,0
187266,-200,4,1,0,65,0,0
187866,-250,4,1,0,40,0,0
188766,-133.333333333333,4,1,0,40,0,0
189666,-95.2380952380952,4,1,0,100,0,1
195666,-90.9090909090909,4,1,0,100,0,1
195741,-89.2857142857143,4,1,0,100,0,1
195816,-87.719298245614,4,1,0,100,0,1
195966,-83.3333333333333,4,1,0,100,0,1
196266,-90.9090909090909,4,1,0,100,0,1
196341,-89.2857142857143,4,1,0,100,0,1
196416,-87.719298245614,4,1,0,100,0,1
196566,-83.3333333333333,4,1,0,100,0,1
196716,-95.2380952380952,4,1,0,100,0,1
205191,-95.2380952380952,4,1,0,100,0,0
205566,-90.9090909090909,4,1,0,100,0,1
205866,-95.2380952380952,4,1,0,100,0,1
212466,-90.9090909090909,4,1,0,100,0,1
212541,-89.2857142857143,4,1,0,100,0,1
212616,-87.719298245614,4,1,0,100,0,1
212766,-83.3333333333333,4,1,0,100,0,1
213066,-90.9090909090909,4,1,0,100,0,1
213141,-89.2857142857143,4,1,0,100,0,1
213216,-87.719298245614,4,1,0,100,0,1
213366,-83.3333333333333,4,1,0,100,0,1
213516,-95.2380952380952,4,1,0,100,0,1
224166,-95.2380952380952,4,1,0,100,0,0
224466,-100,4,1,0,100,0,0

[Colours]
Combo1 : 206,206,206
Combo2 : 255,77,90
Combo3 : 138,119,227
Combo4 : 255,132,166
Combo5 : 197,89,255
Combo6 : 255,9,70
Combo7 : 255,242,6
Combo8 : 138,138,138

[HitObjects]
356,136,1791,5,8,0:0:0:0:
356,136,1866,1,8,0:0:0:0:
356,136,2016,1,0,0:0:0:0:
356,136,2091,1,0,0:0:0:0:
356,136,2166,1,0,0:0:0:0:
356,136,2316,1,8,0:0:0:0:
356,136,2466,1,4,0:0:0:0:
360,128,2766,1,8,0:0:0:0:
360,128,2916,1,8,0:0:0:0:
360,128,3066,1,0,0:0:0:0:
360,128,3141,1,0,0:0:0:0:
360,128,3216,1,0,0:0:0:0:
360,128,3366,1,8,0:0:0:0:
360,128,3516,1,8,0:0:0:0:
360,128,3816,1,8,0:0:0:0:
352,128,3966,1,8,0:0:0:0:
360,128,4116,1,0,0:0:0:0:
354,121,4266,1,0,0:0:0:0:
353,114,4341,1,0,0:0:0:0:
352,128,4416,1,0,0:0:0:0:
352,128,4566,1,8,0:0:0:0:
348,124,4716,1,8,0:0:0:0:
344,128,5166,1,8,0:0:0:0:
340,136,5316,1,0,0:0:0:0:
344,132,5466,1,8,0:0:0:0:
352,124,5541,1,8,0:0:0:0:
352,124,5616,1,8,0:0:0:0:
352,124,5766,1,8,0:0:0:0:
352,128,5916,1,8,0:0:0:0:
352,128,6066,1,0,0:0:0:0:
348,128,6216,1,0,0:0:0:0:
344,128,6366,1,8,0:0:0:0:
340,136,6816,1,0,0:0:0:0:
336,140,6966,1,8,0:0:0:0:
336,140,7041,1,8,0:0:0:0:
344,140,7116,1,8,0:0:0:0:
336,140,7266,1,4,0:0:0:0:
344,144,7566,1,8,0:0:0:0:
348,128,7716,1,0,0:0:0:0:
344,128,7866,1,8,0:0:0:0:
328,129,7941,1,8,0:0:0:0:
344,136,8016,1,8,0:0:0:0:
344,136,8166,1,8,0:0:0:0:
348,132,8316,1,0,0:0:0:0:
344,140,8616,1,0,0:0:0:0:
311,91,8766,1,8,0:0:0:0:
253,92,8916,1,0,0:0:0:0:
211,109,9066,1,0,0:0:0:0:
344,140,9216,1,0,0:0:0:0:
344,140,9366,1,8,0:0:0:0:
344,136,9516,1,0,0:0:0:0:
336,144,9666,1,8,0:0:0:0:
336,144,9741,1,8,0:0:0:0:
336,144,9816,1,8,0:0:0:0:
336,144,9966,1,8,0:0:0:0:
336,140,10416,1,0,0:0:0:0:
336,140,10566,1,8,0:0:0:0:
336,140,10716,1,0,0:0:0:0:
336,140,10866,1,8,0:0:0:0:
336,140,10941,1,8,0:0:0:0:
336,140,11016,1,8,0:0:0:0:
336,144,11166,1,8,0:0:0:0:
336,144,11466,1,8,0:0:0:0:
332,140,11616,1,0,0:0:0:0:
332,140,11691,1,0,0:0:0:0:
336,140,11841,1,8,0:0:0:0:
336,140,11916,1,8,0:0:0:0:
336,140,11991,1,8,0:0:0:0:
332,140,13266,1,8,0:0:0:0:
336,140,13566,1,0,0:0:0:0:
332,140,13866,1,8,0:0:0:0:
332,140,14166,1,8,0:0:0:0:
332,140,14466,1,0,0:0:0:0:
320,148,15066,1,0,0:0:0:0:
332,140,15666,1,8,0:0:0:0:
332,140,15966,1,0,0:0:0:0:
332,140,16266,1,8,0:0:0:0:
332,140,16566,1,8,0:0:0:0:
332,140,16866,1,0,0:0:0:0:
320,144,17466,1,0,0:0:0:0:
320,144,18066,1,8,0:0:0:0:
308,148,18366,1,8,0:0:0:0:
304,152,18666,1,0,0:0:0:0:
304,152,18966,1,8,0:0:0:0:
304,152,19266,1,0,0:0:0:0:
304,152,19566,1,8,0:0:0:0:
308,148,19866,1,0,0:0:0:0:
312,144,20466,1,0,0:0:0:0:
312,144,20766,1,8,0:0:0:0:
312,144,21066,1,0,0:0:0:0:
308,148,21366,1,0,0:0:0:0:
312,144,21666,1,0,0:0:0:0:
312,144,21966,1,8,0:0:0:0:
312,144,22116,1,8,0:0:0:0:
312,144,22266,1,8,0:0:0:0:
312,144,22416,1,8,0:0:0:0:
300,152,22491,1,8,0:0:0:0:
300,152,22566,1,8,0:0:0:0:
286,143,22641,1,8,0:0:0:0:
304,148,22716,1,8,0:0:0:0:
296,156,22866,1,4,0:0:0:0:
288,152,23166,1,8,0:0:0:0:
288,152,23466,1,0,0:0:0:0:
288,152,23616,1,0,0:0:0:0:
288,152,23766,1,8,0:0:0:0:
288,152,23916,1,0,0:0:0:0:
288,152,24066,1,0,0:0:0:0:
288,152,24366,1,8,0:0:0:0:
288,152,24516,1,8,0:0:0:0:
288,152,24666,1,8,0:0:0:0:
304,147,24816,1,0,0:0:0:0:
307,158,24966,1,8,0:0:0:0:
288,152,25266,1,0,0:0:0:0:
280,149,25416,1,0,0:0:0:0:
280,148,25566,1,8,0:0:0:0:
287,126,26016,1,0,0:0:0:0:
292,136,26166,1,8,0:0:0:0:
292,136,26466,1,0,0:0:0:0:
292,136,26616,1,8,0:0:0:0:
292,136,26766,1,8,0:0:0:0:
292,136,26916,1,0,0:0:0:0:
292,136,27066,1,8,0:0:0:0:
301,126,27366,1,8,0:0:0:0:
296,120,27666,1,0,0:0:0:0:
296,120,27966,1,8,0:0:0:0:
296,120,28266,1,8,0:0:0:0:
296,120,28416,1,0,0:0:0:0:
292,120,28566,1,8,0:0:0:0:
292,120,28866,1,0,0:0:0:0:
282,106,29016,1,0,0:0:0:0:
296,120,29166,1,8,0:0:0:0:
296,120,29316,1,0,0:0:0:0:
288,120,29466,1,0,0:0:0:0:
271,115,29616,1,0,0:0:0:0:
288,120,29766,1,8,0:0:0:0:
280,112,30066,1,0,0:0:0:0:
280,112,30366,1,8,0:0:0:0:
264,117,30666,1,0,0:0:0:0:
265,115,30816,1,0,0:0:0:0:
272,112,30966,1,8,0:0:0:0:
268,112,31266,1,8,0:0:0:0:
244,124,31866,1,0,0:0:0:0:
244,124,32016,1,8,0:0:0:0:
244,124,32091,1,8,0:0:0:0:
244,124,32166,1,8,0:0:0:0:
244,124,32316,1,0,0:0:0:0:
244,124,32391,1,0,0:0:0:0:
244,124,32466,1,0,0:0:0:0:
238,128,33066,1,0,0:0:0:0:
238,128,33666,1,0,0:0:0:0:
252,120,33966,1,0,0:0:0:0:
252,120,34266,1,0,0:0:0:0:
252,120,34566,1,0,0:0:0:0:
252,120,34866,1,0,0:0:0:0:
260,117,35466,1,0,0:0:0:0:
252,120,35766,1,0,0:0:0:0:
252,120,36066,1,0,0:0:0:0:
248,114,36666,1,0,0:0:0:0:
248,114,36966,1,0,0:0:0:0:
248,114,37266,1,8,0:0:0:0:
248,114,37866,1,0,0:0:0:0:
253,117,38466,1,0,0:0:0:0:
255,116,39066,1,0,0:0:0:0:
255,116,39366,1,0,0:0:0:0:
255,116,39666,1,8,0:0:0:0:
246,109,39966,1,0,0:0:0:0:
246,109,40266,1,0,0:0:0:0:
246,109,40566,1,0,0:0:0:0:
242,113,40716,1,8,0:0:0:0:
246,109,40866,1,8,0:0:0:0:
252,93,41016,1,8,0:0:0:0:
252,93,41166,1,0,0:0:0:0:
252,93,41241,1,0,0:0:0:0:
252,93,41316,1,0,0:0:0:0:
252,93,41466,1,12,0:0:0:0:
252,93,41766,1,4,0:0:0:0:
249,83,42066,1,12,0:0:0:0:
244,77,42366,1,8,0:0:0:0:
232,84,42666,1,0,0:0:0:0:
233,83,42816,1,0,0:0:0:0:
234,83,42966,1,8,0:0:0:0:
221,83,43116,1,8,0:0:0:0:
228,81,43191,1,8,0:0:0:0:
221,83,43266,1,8,0:0:0:0:
223,82,43416,1,0,0:0:0:0:
190,84,43566,1,8,0:0:0:0:
218,71,44016,1,0,0:0:0:0:
205,74,44166,1,8,0:0:0:0:
216,62,44241,1,8,0:0:0:0:
208,78,44316,1,8,0:0:0:0:
218,71,44466,1,0,0:0:0:0:
231,78,44766,1,8,0:0:0:0:
224,83,44916,1,0,0:0:0:0:
214,79,45066,1,0,0:0:0:0:
216,60,45216,1,8,0:0:0:0:
216,60,45366,1,8,0:0:0:0:
212,73,45666,1,8,0:0:0:0:
216,62,45816,1,8,0:0:0:0:
219,63,45966,1,8,0:0:0:0:
218,60,46116,1,0,0:0:0:0:
218,60,46266,1,0,0:0:0:0:
215,78,46341,1,0,0:0:0:0:
218,60,46416,1,0,0:0:0:0:
221,65,46566,1,8,0:0:0:0:
204,59,46641,1,8,0:0:0:0:
208,53,46716,1,8,0:0:0:0:
204,59,46866,1,4,0:0:0:0:
188,83,47166,1,8,0:0:0:0:
206,62,47466,1,8,0:0:0:0:
193,62,47766,1,8,0:0:0:0:
197,62,48066,1,8,0:0:0:0:
199,63,48366,1,0,0:0:0:0:
206,62,48441,1,0,0:0:0:0:
199,63,48516,1,0,0:0:0:0:
199,63,48666,1,8,0:0:0:0:
199,63,48741,1,8,0:0:0:0:
199,63,48816,1,8,0:0:0:0:
200,63,48891,1,8,0:0:0:0:
200,63,48966,1,8,0:0:0:0:
199,63,49116,1,8,0:0:0:0:
200,64,49266,1,4,0:0:0:0:
197,62,49716,1,8,0:0:0:0:
199,63,49866,1,0,0:0:0:0:
199,63,50016,1,0,0:0:0:0:
199,63,50091,1,0,0:0:0:0:
199,63,50166,1,0,0:0:0:0:
199,63,50316,1,8,0:0:0:0:
190,68,50391,1,8,0:0:0:0:
200,63,50466,1,8,0:0:0:0:
199,63,50616,5,12,0:0:0:0:
197,62,50916,1,12,0:0:0:0:
197,62,51066,1,12,0:0:0:0:
199,63,51666,1,4,0:0:0:0:
199,63,51966,1,8,0:0:0:0:
197,62,52266,1,8,0:0:0:0:
197,62,52416,1,0,0:0:0:0:
197,62,52566,1,8,0:0:0:0:
199,63,52866,1,0,0:0:0:0:
199,63,53166,1,8,0:0:0:0:
199,63,53241,1,8,0:0:0:0:
199,63,53316,1,8,0:0:0:0:
199,63,53466,1,0,0:0:0:0:
215,60,53616,1,0,0:0:0:0:
199,63,53766,1,8,0:0:0:0:
205,62,53916,1,8,0:0:0:0:
197,62,54066,1,0,0:0:0:0:
205,62,54366,1,8,0:0:0:0:
205,62,54666,1,8,0:0:0:0:
217,74,54816,1,0,0:0:0:0:
205,62,54966,1,8,0:0:0:0:
205,62,55041,1,8,0:0:0:0:
206,61,55116,1,8,0:0:0:0:
206,61,55266,1,0,0:0:0:0:
205,62,55866,1,8,0:0:0:0:
205,62,56016,1,0,0:0:0:0:
205,62,56166,1,8,0:0:0:0:
193,60,56241,1,8,0:0:0:0:
199,60,56316,1,8,0:0:0:0:
193,60,56391,1,8,0:0:0:0:
199,60,56466,1,8,0:0:0:0:
202,80,56616,1,0,0:0:0:0:
202,80,56766,1,8,0:0:0:0:
197,62,57066,1,0,0:0:0:0:
198,66,57216,1,0,0:0:0:0:
198,66,57366,1,8,0:0:0:0:
198,66,57516,1,0,0:0:0:0:
198,66,57591,1,0,0:0:0:0:
198,66,57666,1,0,0:0:0:0:
202,50,57816,1,0,0:0:0:0:
198,66,57966,1,8,0:0:0:0:
185,77,58266,1,0,0:0:0:0:
185,77,58416,1,0,0:0:0:0:
185,77,58566,1,8,0:0:0:0:
197,74,58866,1,0,0:0:0:0:
197,74,58941,1,0,0:0:0:0:
197,74,59016,1,0,0:0:0:0:
197,74,59166,1,12,0:0:0:0:
203,73,59466,1,0,0:0:0:0:
203,73,59541,1,0,0:0:0:0:
203,73,59616,1,0,0:0:0:0:
203,73,59766,1,12,0:0:0:0:
198,79,60066,1,8,0:0:0:0:
198,79,60216,1,0,0:0:0:0:
198,79,60291,1,0,0:0:0:0:
198,79,60366,1,0,0:0:0:0:
199,83,60516,1,0,0:0:0:0:
199,79,60666,1,0,0:0:0:0:
199,79,60816,1,8,0:0:0:0:
198,79,60891,1,8,0:0:0:0:
199,79,60966,1,8,0:0:0:0:
201,72,61041,1,8,0:0:0:0:
199,79,61116,1,8,0:0:0:0:
199,79,61266,1,4,0:0:0:0:
216,88,61866,1,0,0:0:0:0:
220,88,62166,1,8,0:0:0:0:
228,84,62466,1,0,0:0:0:0:
216,71,62541,1,0,0:0:0:0:
196,68,62616,1,0,0:0:0:0:
196,68,62766,1,8,0:0:0:0:
208,72,62916,1,0,0:0:0:0:
208,72,63066,1,0,0:0:0:0:
216,96,63366,1,8,0:0:0:0:
220,96,63516,1,0,0:0:0:0:
220,96,63666,1,0,0:0:0:0:
220,96,63966,1,8,0:0:0:0:
216,104,64116,1,0,0:0:0:0:
216,104,64266,1,8,0:0:0:0:
216,104,64416,1,0,0:0:0:0:
216,104,64566,1,8,0:0:0:0:
216,104,64716,1,0,0:0:0:0:
216,104,64866,1,0,0:0:0:0:
216,88,65466,1,0,0:0:0:0:
216,104,65616,1,0,0:0:0:0:
216,104,65766,1,8,0:0:0:0:
216,104,65841,1,8,0:0:0:0:
216,104,65916,1,8,0:0:0:0:
216,104,66066,1,4,0:0:0:0:
220,136,66366,1,8,0:0:0:0:
224,112,66516,1,8,0:0:0:0:
224,112,66591,1,8,0:0:0:0:
224,112,66666,1,8,0:0:0:0:
224,112,66816,1,0,0:0:0:0:
224,112,66966,1,8,0:0:0:0:
212,112,67116,1,0,0:0:0:0:
212,112,67266,1,4,0:0:0:0:
214,102,67566,1,8,0:0:0:0:
191,122,67716,1,0,0:0:0:0:
218,101,67791,1,0,0:0:0:0:
216,112,67866,1,0,0:0:0:0:
216,112,68016,1,0,0:0:0:0:
216,112,68166,1,8,0:0:0:0:
216,112,68316,1,0,0:0:0:0:
216,112,68466,1,12,0:0:0:0:
216,112,68766,1,8,0:0:0:0:
216,116,69066,1,8,0:0:0:0:
216,112,69366,1,8,0:0:0:0:
196,116,69516,1,0,0:0:0:0:
196,116,69666,1,0,0:0:0:0:
196,116,69741,1,0,0:0:0:0:
196,116,69816,1,0,0:0:0:0:
196,116,69966,1,0,0:0:0:0:
200,116,70116,1,8,0:0:0:0:
200,116,70191,1,8,0:0:0:0:
196,116,70266,1,8,0:0:0:0:
196,116,70341,1,8,0:0:0:0:
200,116,70416,1,8,0:0:0:0:
200,120,70566,1,8,0:0:0:0:
200,120,70716,1,0,0:0:0:0:
356,136,70866,1,12,0:0:0:0:
345,118,71166,1,8,0:0:0:0:
360,128,71466,1,0,0:0:0:0:
360,128,71541,1,0,0:0:0:0:
360,128,71616,1,0,0:0:0:0:
360,128,71766,1,8,0:0:0:0:
360,128,71916,1,0,0:0:0:0:
360,128,72366,1,8,0:0:0:0:
340,112,72516,1,0,0:0:0:0:
352,128,72666,1,8,0:0:0:0:
360,128,72816,1,0,0:0:0:0:
352,128,72966,1,8,0:0:0:0:
352,128,73041,1,8,0:0:0:0:
348,124,73116,1,8,0:0:0:0:
348,124,73266,1,0,0:0:0:0:
344,128,73566,1,8,0:0:0:0:
333,118,73716,1,0,0:0:0:0:
344,132,73866,1,8,0:0:0:0:
352,124,73941,1,8,0:0:0:0:
352,124,74016,1,8,0:0:0:0:
352,124,74166,1,8,0:0:0:0:
352,128,74316,1,8,0:0:0:0:
344,128,74766,1,8,0:0:0:0:
344,136,74916,1,8,0:0:0:0:
344,136,75066,1,0,0:0:0:0:
340,136,75216,1,0,0:0:0:0:
336,140,75366,1,8,0:0:0:0:
336,140,75441,1,8,0:0:0:0:
344,140,75516,1,8,0:0:0:0:
336,140,75666,1,4,0:0:0:0:
344,144,75966,1,8,0:0:0:0:
348,128,76116,1,0,0:0:0:0:
348,128,76191,1,0,0:0:0:0:
344,128,76266,1,0,0:0:0:0:
344,136,76416,1,8,0:0:0:0:
344,136,76566,1,8,0:0:0:0:
342,128,76641,1,8,0:0:0:0:
348,132,76716,1,8,0:0:0:0:
344,140,77166,1,8,0:0:0:0:
344,144,77316,1,0,0:0:0:0:
344,144,77466,1,0,0:0:0:0:
344,144,77541,1,0,0:0:0:0:
344,140,77616,1,0,0:0:0:0:
344,140,77766,1,8,0:0:0:0:
336,144,78066,1,8,0:0:0:0:
336,144,78216,1,8,0:0:0:0:
336,144,78366,1,8,0:0:0:0:
344,140,78666,1,0,0:0:0:0:
336,140,78816,1,0,0:0:0:0:
336,140,78966,1,8,0:0:0:0:
336,140,79116,1,0,0:0:0:0:
336,140,79266,1,8,0:0:0:0:
336,140,79416,1,8,0:0:0:0:
336,144,79566,1,8,0:0:0:0:
336,144,79866,1,8,0:0:0:0:
332,140,80016,1,8,0:0:0:0:
332,140,80091,1,8,0:0:0:0:
317,132,80241,1,8,0:0:0:0:
317,132,80316,1,8,0:0:0:0:
336,140,80391,1,8,0:0:0:0:
346,116,81666,1,8,0:0:0:0:
346,116,81966,1,0,0:0:0:0:
346,116,82266,1,8,0:0:0:0:
346,116,82566,1,8,0:0:0:0:
346,116,82866,1,0,0:0:0:0:
339,113,83466,1,0,0:0:0:0:
339,113,84066,1,8,0:0:0:0:
339,113,84366,1,0,0:0:0:0:
339,113,84666,1,8,0:0:0:0:
339,113,84966,1,8,0:0:0:0:
339,113,85266,1,0,0:0:0:0:
339,113,85716,1,8,0:0:0:0:
339,113,85866,1,8,0:0:0:0:
339,113,86016,1,0,0:0:0:0:
339,113,86166,1,0,0:0:0:0:
357,124,86316,1,8,0:0:0:0:
339,113,86466,1,0,0:0:0:0:
339,113,86766,1,8,0:0:0:0:
339,113,87066,1,0,0:0:0:0:
339,113,87366,1,8,0:0:0:0:
339,113,87666,1,0,0:0:0:0:
339,113,87966,1,8,0:0:0:0:
339,113,88266,1,0,0:0:0:0:
339,113,88866,1,0,0:0:0:0:
339,113,89166,1,8,0:0:0:0:
339,113,89466,1,0,0:0:0:0:
339,113,89766,1,0,0:0:0:0:
339,113,90066,1,0,0:0:0:0:
339,113,90216,1,8,0:0:0:0:
339,113,90366,1,8,0:0:0:0:
339,113,90516,1,0,0:0:0:0:
339,113,91266,1,4,0:0:0:0:
339,113,91566,1,8,0:0:0:0:
339,113,91866,1,0,0:0:0:0:
339,113,92016,1,0,0:0:0:0:
339,113,92166,1,8,0:0:0:0:
339,113,92466,1,0,0:0:0:0:
339,113,92616,1,0,0:0:0:0:
339,113,92766,1,8,0:0:0:0:
339,113,92916,1,0,0:0:0:0:
339,113,93066,1,0,0:0:0:0:
342,106,93366,1,8,0:0:0:0:
342,106,93666,1,0,0:0:0:0:
342,106,93966,1,8,0:0:0:0:
342,106,94416,1,0,0:0:0:0:
342,106,94566,1,8,0:0:0:0:
333,112,94866,1,0,0:0:0:0:
336,107,95016,1,8,0:0:0:0:
333,112,95091,1,8,0:0:0:0:
333,112,95166,1,8,0:0:0:0:
349,119,95316,1,0,0:0:0:0:
333,112,95466,1,0,0:0:0:0:
333,112,95766,1,8,0:0:0:0:
333,112,95916,1,0,0:0:0:0:
333,112,96066,1,0,0:0:0:0:
336,107,96366,1,8,0:0:0:0:
325,85,96516,1,0,0:0:0:0:
336,107,96666,1,0,0:0:0:0:
336,107,97116,1,8,0:0:0:0:
336,107,97266,1,0,0:0:0:0:
336,107,97416,1,0,0:0:0:0:
336,107,97566,1,8,0:0:0:0:
336,107,97716,1,0,0:0:0:0:
336,107,97866,1,0,0:0:0:0:
336,107,98166,1,8,0:0:0:0:
336,107,98316,1,0,0:0:0:0:
336,107,98466,1,0,0:0:0:0:
316,80,98616,1,0,0:0:0:0:
325,103,98766,1,8,0:0:0:0:
325,103,99066,1,0,0:0:0:0:
329,108,99366,1,8,0:0:0:0:
328,108,99516,1,0,0:0:0:0:
328,108,99666,1,0,0:0:0:0:
328,108,99816,1,0,0:0:0:0:
328,108,99966,1,8,0:0:0:0:
329,108,100266,1,0,0:0:0:0:
329,108,100416,1,8,0:0:0:0:
328,108,100491,1,8,0:0:0:0:
328,108,100566,1,8,0:0:0:0:
328,108,100716,1,0,0:0:0:0:
328,108,100791,1,0,0:0:0:0:
244,124,100866,1,0,0:0:0:0:
238,128,101466,1,0,0:0:0:0:
238,128,102066,1,8,0:0:0:0:
252,120,102366,1,0,0:0:0:0:
252,120,102666,1,0,0:0:0:0:
252,120,102966,1,0,0:0:0:0:
252,120,103266,1,8,0:0:0:0:
260,117,103866,1,0,0:0:0:0:
240,128,104166,1,0,0:0:0:0:
252,120,104466,1,8,0:0:0:0:
248,114,105066,1,0,0:0:0:0:
248,114,105366,1,0,0:0:0:0:
248,114,105666,1,8,0:0:0:0:
248,114,106266,1,0,0:0:0:0:
253,117,106866,1,8,0:0:0:0:
255,116,107166,1,0,0:0:0:0:
255,116,107466,1,0,0:0:0:0:
255,116,107766,1,0,0:0:0:0:
255,116,108066,1,8,0:0:0:0:
246,109,108666,1,0,0:0:0:0:
246,109,108966,1,0,0:0:0:0:
246,109,109266,1,8,0:0:0:0:
250,115,109416,1,0,0:0:0:0:
246,109,109491,1,0,0:0:0:0:
250,115,109566,1,0,0:0:0:0:
246,109,109716,1,8,0:0:0:0:
246,109,109866,1,12,0:0:0:0:
246,109,110166,1,4,0:0:0:0:
246,108,110466,1,8,0:0:0:0:
261,97,110616,1,8,0:0:0:0:
272,110,110766,1,0,0:0:0:0:
270,108,111066,1,8,0:0:0:0:
275,99,111216,1,8,0:0:0:0:
275,99,111366,1,0,0:0:0:0:
275,99,111666,1,0,0:0:0:0:
285,79,111816,1,8,0:0:0:0:
292,86,112116,1,8,0:0:0:0:
286,79,112266,1,8,0:0:0:0:
286,79,112341,1,8,0:0:0:0:
286,78,112416,1,8,0:0:0:0:
286,78,112566,1,0,0:0:0:0:
285,79,112866,1,0,0:0:0:0:
286,87,113016,1,8,0:0:0:0:
286,79,113166,1,0,0:0:0:0:
294,74,113616,1,8,0:0:0:0:
296,78,113766,1,0,0:0:0:0:
283,87,113916,1,8,0:0:0:0:
293,73,114066,1,8,0:0:0:0:
292,75,114216,1,8,0:0:0:0:
284,71,114366,1,0,0:0:0:0:
292,75,114516,1,8,0:0:0:0:
218,60,114816,1,8,0:0:0:0:
218,68,114966,1,0,0:0:0:0:
208,53,115116,1,8,0:0:0:0:
204,59,115191,1,8,0:0:0:0:
204,59,115266,1,8,0:0:0:0:
206,62,115566,1,8,0:0:0:0:
206,62,115866,1,8,0:0:0:0:
193,62,116166,1,8,0:0:0:0:
288,92,116466,1,0,0:0:0:0:
293,84,116541,1,0,0:0:0:0:
262,76,116616,1,0,0:0:0:0:
290,86,116766,1,8,0:0:0:0:
290,89,116916,1,0,0:0:0:0:
289,83,117066,1,8,0:0:0:0:
289,83,117141,1,8,0:0:0:0:
283,85,117216,1,8,0:0:0:0:
283,85,117366,1,0,0:0:0:0:
282,84,117666,1,4,0:0:0:0:
283,89,118116,1,8,0:0:0:0:
289,90,118191,1,8,0:0:0:0:
283,85,118266,1,8,0:0:0:0:
283,85,118416,1,8,0:0:0:0:
283,85,118566,1,8,0:0:0:0:
282,85,118641,1,8,0:0:0:0:
282,84,118716,1,8,0:0:0:0:
283,89,118866,1,0,0:0:0:0:
292,86,119016,1,12,0:0:0:0:
293,84,119316,1,12,0:0:0:0:
305,84,119466,1,12,0:0:0:0:
298,98,119616,1,0,0:0:0:0:
298,98,119691,1,0,0:0:0:0:
298,98,119766,1,0,0:0:0:0:
298,98,119841,1,0,0:0:0:0:
298,98,119916,1,0,0:0:0:0:
282,70,120066,1,12,0:0:0:0:
291,86,120666,1,0,0:0:0:0:
290,90,120966,1,8,0:0:0:0:
301,77,121116,1,0,0:0:0:0:
301,77,121266,1,0,0:0:0:0:
301,94,121566,1,8,0:0:0:0:
301,94,121716,1,0,0:0:0:0:
303,90,121866,1,8,0:0:0:0:
303,91,122166,1,8,0:0:0:0:
303,85,122316,1,8,0:0:0:0:
301,94,122466,1,0,0:0:0:0:
311,86,122616,1,0,0:0:0:0:
301,94,122766,1,8,0:0:0:0:
303,91,123066,1,0,0:0:0:0:
312,86,123366,1,8,0:0:0:0:
323,100,123516,1,8,0:0:0:0:
328,95,123666,1,0,0:0:0:0:
333,89,123966,1,8,0:0:0:0:
338,91,124266,1,0,0:0:0:0:
337,99,124416,1,0,0:0:0:0:
336,84,124566,1,8,0:0:0:0:
336,93,124641,1,8,0:0:0:0:
333,89,124716,1,8,0:0:0:0:
333,89,124866,1,12,0:0:0:0:
321,98,125466,1,0,0:0:0:0:
332,99,125541,1,0,0:0:0:0:
332,103,125616,1,0,0:0:0:0:
332,103,125766,1,8,0:0:0:0:
332,97,126066,1,0,0:0:0:0:
322,104,126216,1,0,0:0:0:0:
322,104,126366,1,8,0:0:0:0:
308,97,126666,1,0,0:0:0:0:
359,93,126816,1,0,0:0:0:0:
349,100,126966,1,8,0:0:0:0:
368,82,127266,1,0,0:0:0:0:
368,82,127341,1,0,0:0:0:0:
368,82,127416,1,0,0:0:0:0:
368,82,127566,1,12,0:0:0:0:
380,98,127866,1,0,0:0:0:0:
376,97,127941,1,0,0:0:0:0:
376,97,128016,1,0,0:0:0:0:
376,97,128166,1,12,0:0:0:0:
365,95,128466,1,0,0:0:0:0:
367,105,128616,1,8,0:0:0:0:
367,105,128691,1,8,0:0:0:0:
367,105,128766,1,8,0:0:0:0:
369,104,128916,1,8,0:0:0:0:
368,104,129066,1,8,0:0:0:0:
362,112,129141,1,8,0:0:0:0:
362,112,129216,1,8,0:0:0:0:
362,112,129366,1,8,0:0:0:0:
362,112,129441,1,8,0:0:0:0:
362,112,129516,1,8,0:0:0:0:
362,112,129666,1,4,0:0:0:0:
346,112,130266,1,0,0:0:0:0:
346,112,130566,1,8,0:0:0:0:
346,112,130716,1,0,0:0:0:0:
346,112,130866,1,0,0:0:0:0:
348,122,131016,1,0,0:0:0:0:
348,122,131166,1,8,0:0:0:0:
343,122,131316,1,8,0:0:0:0:
343,122,131466,1,0,0:0:0:0:
358,136,131766,1,8,0:0:0:0:
350,129,132066,1,0,0:0:0:0:
350,129,132366,1,8,0:0:0:0:
350,129,132666,1,0,0:0:0:0:
362,145,132816,1,8,0:0:0:0:
350,129,132966,1,8,0:0:0:0:
362,145,133116,1,0,0:0:0:0:
350,129,133266,1,0,0:0:0:0:
362,145,133866,1,0,0:0:0:0:
365,132,134016,1,0,0:0:0:0:
383,108,134166,1,8,0:0:0:0:
383,108,134241,1,8,0:0:0:0:
383,108,134316,1,8,0:0:0:0:
383,108,134466,1,4,0:0:0:0:
216,104,134766,1,8,0:0:0:0:
372,110,134991,1,8,0:0:0:0:
224,112,135066,1,0,0:0:0:0:
224,112,135216,1,0,0:0:0:0:
224,112,135366,1,8,0:0:0:0:
212,112,135516,1,0,0:0:0:0:
212,112,135666,1,4,0:0:0:0:
224,112,135966,1,8,0:0:0:0:
216,112,136191,1,8,0:0:0:0:
216,112,136266,1,0,0:0:0:0:
216,112,136416,1,0,0:0:0:0:
216,112,136566,1,8,0:0:0:0:
216,112,136866,1,12,0:0:0:0:
222,111,137166,1,8,0:0:0:0:
216,116,137466,1,8,0:0:0:0:
216,112,137766,1,8,0:0:0:0:
196,116,137916,1,0,0:0:0:0:
196,116,138066,1,8,0:0:0:0:
196,116,138366,1,8,0:0:0:0:
196,116,138441,1,8,0:0:0:0:
286,151,138516,1,8,0:0:0:0:
196,116,138666,1,8,0:0:0:0:
206,125,138741,1,8,0:0:0:0:
200,116,138816,1,8,0:0:0:0:
200,116,138891,1,8,0:0:0:0:
200,120,138966,1,8,0:0:0:0:
356,136,139266,1,12,0:0:0:0:
360,142,139566,1,8,0:0:0:0:
356,136,139716,1,0,0:0:0:0:
360,142,139866,1,0,0:0:0:0:
356,136,140166,1,8,0:0:0:0:
356,136,140316,1,0,0:0:0:0:
360,142,140766,1,8,0:0:0:0:
393,151,141066,1,0,0:0:0:0:
371,142,141216,1,0,0:0:0:0:
390,112,141366,1,8,0:0:0:0:
372,112,141666,1,0,0:0:0:0:
358,121,141816,1,0,0:0:0:0:
323,112,141966,1,8,0:0:0:0:
354,121,142116,1,8,0:0:0:0:
354,121,142191,1,8,0:0:0:0:
365,117,142266,1,8,0:0:0:0:
358,121,142416,1,0,0:0:0:0:
374,124,142566,5,8,0:0:0:0:
374,124,142716,1,4,0:0:0:0:
365,117,143166,1,8,0:0:0:0:
365,117,143316,1,0,0:0:0:0:
368,117,143466,1,0,0:0:0:0:
373,131,143616,1,8,0:0:0:0:
373,129,143691,1,8,0:0:0:0:
373,131,143766,1,8,0:0:0:0:
399,133,143841,1,8,0:0:0:0:
388,144,143916,1,8,0:0:0:0:
388,144,144066,1,4,0:0:0:0:
416,138,144366,1,8,0:0:0:0:
406,151,144666,1,0,0:0:0:0:
406,151,144816,1,0,0:0:0:0:
416,138,144966,1,8,0:0:0:0:
406,153,145116,1,0,0:0:0:0:
416,138,145566,1,8,0:0:0:0:
396,130,145716,1,8,0:0:0:0:
417,129,145866,1,0,0:0:0:0:
417,129,146166,1,8,0:0:0:0:
432,143,146316,1,8,0:0:0:0:
432,143,146391,1,8,0:0:0:0:
432,143,146466,1,8,0:0:0:0:
445,135,146766,1,8,0:0:0:0:
445,135,147066,1,8,0:0:0:0:
445,135,147366,1,8,0:0:0:0:
445,135,147666,1,8,0:0:0:0:
446,129,147816,1,0,0:0:0:0:
463,119,147966,1,8,0:0:0:0:
444,129,148041,1,8,0:0:0:0:
461,119,148116,1,8,0:0:0:0:
461,119,148266,1,0,0:0:0:0:
461,119,148416,1,8,0:0:0:0:
461,119,148491,1,8,0:0:0:0:
449,108,148566,1,8,0:0:0:0:
459,114,148641,1,8,0:0:0:0:
465,113,148716,1,8,0:0:0:0:
450,98,148866,1,4,0:0:0:0:
445,111,149316,1,8,0:0:0:0:
450,114,149466,1,0,0:0:0:0:
445,110,149616,1,8,0:0:0:0:
445,110,149916,1,8,0:0:0:0:
450,114,150066,1,0,0:0:0:0:
450,114,150216,1,8,0:0:0:0:
450,114,150366,1,8,0:0:0:0:
447,123,150516,1,0,0:0:0:0:
450,114,150666,1,8,0:0:0:0:
443,119,150966,1,8,0:0:0:0:
442,133,151041,1,8,0:0:0:0:
446,128,151116,1,8,0:0:0:0:
456,130,151266,1,0,0:0:0:0:
456,130,151566,1,8,0:0:0:0:
439,146,151716,1,0,0:0:0:0:
439,146,151791,1,0,0:0:0:0:
439,146,151866,1,0,0:0:0:0:
479,146,152016,1,0,0:0:0:0:
477,144,152166,1,8,0:0:0:0:
445,147,152316,1,0,0:0:0:0:
445,147,152616,1,0,0:0:0:0:
445,147,152766,1,8,0:0:0:0:
466,152,152841,1,8,0:0:0:0:
466,152,152916,1,8,0:0:0:0:
454,143,153066,1,0,0:0:0:0:
454,143,153366,1,8,0:0:0:0:
454,143,153441,1,8,0:0:0:0:
454,143,153516,1,8,0:0:0:0:
454,143,153666,1,4,0:0:0:0:
456,150,153966,1,8,0:0:0:0:
456,150,154266,1,0,0:0:0:0:
438,152,154716,5,0,0:0:0:0:
438,152,154866,1,12,0:0:0:0:
438,152,155166,1,8,0:0:0:0:
438,152,155466,1,0,0:0:0:0:
385,102,155616,1,0,0:0:0:0:
384,91,155766,5,8,0:0:0:0:
384,91,155916,1,0,0:0:0:0:
384,91,156066,1,4,0:0:0:0:
389,95,156516,1,8,0:0:0:0:
389,95,156666,1,0,0:0:0:0:
389,95,156816,1,8,0:0:0:0:
389,95,156966,1,0,0:0:0:0:
389,95,157266,1,0,0:0:0:0:
389,95,157416,1,8,0:0:0:0:
389,95,157491,1,8,0:0:0:0:
389,95,157566,1,8,0:0:0:0:
389,95,157641,1,8,0:0:0:0:
389,95,157716,1,8,0:0:0:0:
389,95,157866,1,8,0:0:0:0:
389,95,157941,1,8,0:0:0:0:
389,95,158016,1,8,0:0:0:0:
389,95,158166,1,8,0:0:0:0:
389,95,158316,1,0,0:0:0:0:
244,124,158466,1,0,0:0:0:0:
238,128,159066,1,0,0:0:0:0:
238,128,159666,1,8,0:0:0:0:
252,120,159966,1,0,0:0:0:0:
252,120,160266,1,0,0:0:0:0:
252,120,160566,1,0,0:0:0:0:
252,120,160866,1,8,0:0:0:0:
260,117,161466,1,0,0:0:0:0:
252,120,161766,1,0,0:0:0:0:
252,120,162066,1,8,0:0:0:0:
248,114,162666,1,0,0:0:0:0:
248,114,162966,1,0,0:0:0:0:
248,114,163266,1,8,0:0:0:0:
248,114,163866,1,0,0:0:0:0:
253,117,164466,1,8,0:0:0:0:
255,116,165066,1,0,0:0:0:0:
255,116,165366,1,0,0:0:0:0:
255,116,165666,5,8,0:0:0:0:
246,109,166266,1,0,0:0:0:0:
246,109,166566,1,0,0:0:0:0:
246,109,166716,1,8,0:0:0:0:
246,109,166866,1,0,0:0:0:0:
246,109,167016,1,8,0:0:0:0:
246,109,167166,1,0,0:0:0:0:
238,113,167241,1,0,0:0:0:0:
241,104,167316,1,0,0:0:0:0:
241,104,167466,1,12,0:0:0:0:
237,102,167766,1,4,0:0:0:0:
237,102,168066,1,4,0:0:0:0:
234,102,168366,1,8,0:0:0:0:
230,103,168816,1,8,0:0:0:0:
230,103,168966,1,8,0:0:0:0:
246,98,169266,1,0,0:0:0:0:
234,102,169416,1,8,0:0:0:0:
237,102,169566,1,8,0:0:0:0:
248,102,169716,1,8,0:0:0:0:
251,99,169866,1,0,0:0:0:0:
254,96,170166,1,8,0:0:0:0:
248,98,170466,1,0,0:0:0:0:
248,98,170616,1,8,0:0:0:0:
251,99,170766,1,8,0:0:0:0:
251,99,171066,1,0,0:0:0:0:
248,95,171366,1,8,0:0:0:0:
248,90,171666,1,8,0:0:0:0:
248,90,171816,1,8,0:0:0:0:
248,91,171966,1,0,0:0:0:0:
251,99,172116,1,8,0:0:0:0:
248,95,172416,1,8,0:0:0:0:
246,100,172566,1,0,0:0:0:0:
252,104,172716,1,8,0:0:0:0:
252,104,172791,1,8,0:0:0:0:
252,104,172866,1,8,0:0:0:0:
242,106,173166,1,8,0:0:0:0:
247,106,173466,1,8,0:0:0:0:
252,104,173766,1,8,0:0:0:0:
247,106,174066,1,8,0:0:0:0:
262,124,174366,1,8,0:0:0:0:
258,113,174516,1,0,0:0:0:0:
259,112,174666,1,8,0:0:0:0:
259,112,174966,1,0,0:0:0:0:
259,112,175116,1,8,0:0:0:0:
258,113,175191,1,8,0:0:0:0:
258,113,175266,1,8,0:0:0:0:
255,104,175716,1,8,0:0:0:0:
246,116,175791,1,8,0:0:0:0:
246,116,175866,1,8,0:0:0:0:
261,118,175941,1,8,0:0:0:0:
261,118,176016,1,8,0:0:0:0:
261,118,176166,1,8,0:0:0:0:
276,120,176316,1,0,0:0:0:0:
276,120,176466,1,12,0:0:0:0:
277,118,176666,1,12,0:0:0:0:
283,117,177066,1,12,0:0:0:0:
297,116,177466,1,12,0:0:0:0:
302,125,178866,1,0,0:0:0:0:
302,125,179466,1,0,0:0:0:0:
302,125,179766,1,8,0:0:0:0:
302,125,180066,1,8,0:0:0:0:
302,125,180666,1,0,0:0:0:0:
302,125,180966,1,8,0:0:0:0:
302,125,181266,1,0,0:0:0:0:
302,125,181866,1,0,0:0:0:0:
302,125,182166,1,8,0:0:0:0:
302,125,182466,1,0,0:0:0:0:
313,121,183666,1,0,0:0:0:0:
316,120,184266,1,8,0:0:0:0:
313,121,184566,1,0,0:0:0:0:
397,199,184866,5,8,0:0:0:0:
397,199,185466,1,0,0:0:0:0:
386,196,185766,1,8,0:0:0:0:
387,197,186066,1,0,0:0:0:0:
256,192,187866,12,0,189066,0:0:0:0:
384,196,189666,5,4,0:0:0:0:
384,196,189966,1,8,0:0:0:0:
384,196,190116,1,0,0:0:0:0:
384,196,190266,1,0,0:0:0:0:
378,197,190566,1,8,0:0:0:0:
371,197,190866,1,0,0:0:0:0:
371,197,191016,1,0,0:0:0:0:
371,197,191166,1,8,0:0:0:0:
371,197,191316,1,0,0:0:0:0:
371,197,191466,1,8,0:0:0:0:
377,187,191616,1,0,0:0:0:0:
371,197,191766,1,8,0:0:0:0:
371,197,192066,1,8,0:0:0:0:
371,197,192666,1,0,0:0:0:0:
371,197,192816,1,0,0:0:0:0:
364,185,192966,1,8,0:0:0:0:
376,188,193041,1,8,0:0:0:0:
384,203,193116,1,8,0:0:0:0:
372,192,193266,1,12,0:0:0:0:
371,197,193566,1,8,0:0:0:0:
371,197,193716,1,0,0:0:0:0:
371,197,193791,1,0,0:0:0:0:
371,197,193866,1,0,0:0:0:0:
371,197,194016,1,0,0:0:0:0:
372,192,194166,1,8,0:0:0:0:
362,193,194466,1,0,0:0:0:0:
362,193,194766,1,8,0:0:0:0:
362,193,194916,1,0,0:0:0:0:
362,193,195066,1,8,0:0:0:0:
347,186,195216,1,0,0:0:0:0:
347,186,195366,1,8,0:0:0:0:
347,186,195666,1,0,0:0:0:0:
348,184,195741,1,0,0:0:0:0:
348,183,195816,1,0,0:0:0:0:
348,183,195966,1,12,0:0:0:0:
347,186,196266,1,0,0:0:0:0:
347,186,196341,1,0,0:0:0:0:
347,186,196416,1,0,0:0:0:0:
347,186,196566,1,12,0:0:0:0:
336,175,196866,1,12,0:0:0:0:
334,177,197016,1,0,0:0:0:0:
334,177,197091,1,0,0:0:0:0:
334,177,197166,1,0,0:0:0:0:
331,168,197316,1,8,0:0:0:0:
324,173,197466,1,0,0:0:0:0:
324,173,197541,1,0,0:0:0:0:
324,168,197616,1,0,0:0:0:0:
324,168,197766,1,8,0:0:0:0:
324,168,198066,1,4,0:0:0:0:
348,191,198666,1,0,0:0:0:0:
348,191,198816,1,0,0:0:0:0:
348,191,198966,1,8,0:0:0:0:
348,191,199116,1,0,0:0:0:0:
348,191,199266,1,8,0:0:0:0:
348,191,199566,1,8,0:0:0:0:
358,179,199716,1,8,0:0:0:0:
358,179,199866,1,0,0:0:0:0:
349,170,200016,1,0,0:0:0:0:
350,171,200166,1,8,0:0:0:0:
344,164,200466,1,0,0:0:0:0:
333,180,200766,1,8,0:0:0:0:
333,180,200916,1,0,0:0:0:0:
333,180,201066,1,8,0:0:0:0:
333,180,201366,1,8,0:0:0:0:
333,180,201516,1,0,0:0:0:0:
333,180,201666,1,8,0:0:0:0:
323,162,201966,1,8,0:0:0:0:
329,140,202266,1,0,0:0:0:0:
346,155,202416,1,0,0:0:0:0:
362,146,202566,1,8,0:0:0:0:
362,146,202641,1,8,0:0:0:0:
362,146,202716,1,8,0:0:0:0:
362,146,202866,1,12,0:0:0:0:
345,140,203466,1,0,0:0:0:0:
343,140,203766,1,8,0:0:0:0:
333,145,203916,1,0,0:0:0:0:
333,145,204066,1,12,0:0:0:0:
353,139,204216,1,8,0:0:0:0:
353,139,204291,1,8,0:0:0:0:
357,132,204516,1,8,0:0:0:0:
356,148,204666,1,0,0:0:0:0:
356,147,204741,1,8,0:0:0:0:
356,147,204891,1,8,0:0:0:0:
356,147,204966,1,8,0:0:0:0:
356,147,205116,1,0,0:0:0:0:
356,147,205191,1,8,0:0:0:0:
400,132,205566,1,12,0:0:0:0:
197,62,206166,1,8,0:0:0:0:
199,63,206466,1,8,0:0:0:0:
199,63,206616,1,0,0:0:0:0:
199,63,206766,1,8,0:0:0:0:
199,63,206841,1,8,0:0:0:0:
199,63,206916,1,8,0:0:0:0:
199,63,207066,1,0,0:0:0:0:
194,68,207216,1,0,0:0:0:0:
197,62,207366,1,8,0:0:0:0:
197,62,207666,1,0,0:0:0:0:
205,62,207966,1,8,0:0:0:0:
205,62,208266,1,0,0:0:0:0:
205,62,208416,1,0,0:0:0:0:
205,62,208566,1,8,0:0:0:0:
206,61,208716,1,0,0:0:0:0:
206,61,208866,1,8,0:0:0:0:
197,62,209166,1,8,0:0:0:0:
205,62,209316,1,0,0:0:0:0:
205,62,209466,1,8,0:0:0:0:
200,65,209616,1,0,0:0:0:0:
205,62,209766,1,8,0:0:0:0:
193,60,209841,1,8,0:0:0:0:
199,60,209916,1,8,0:0:0:0:
199,60,210066,1,4,0:0:0:0:
197,62,210666,1,0,0:0:0:0:
198,66,210816,1,0,0:0:0:0:
198,66,210966,1,8,0:0:0:0:
198,66,211116,1,0,0:0:0:0:
198,66,211191,1,0,0:0:0:0:
198,66,211266,1,0,0:0:0:0:
198,66,211416,1,0,0:0:0:0:
198,66,211566,1,8,0:0:0:0:
185,77,211866,1,0,0:0:0:0:
185,77,212166,1,8,0:0:0:0:
197,74,212466,1,0,0:0:0:0:
197,74,212541,1,0,0:0:0:0:
197,74,212616,1,0,0:0:0:0:
197,74,212766,1,12,0:0:0:0:
203,73,213066,1,0,0:0:0:0:
203,73,213141,1,0,0:0:0:0:
203,73,213216,1,0,0:0:0:0:
203,73,213366,1,12,0:0:0:0:
198,79,213666,1,0,0:0:0:0:
198,79,213816,1,8,0:0:0:0:
197,73,213891,1,8,0:0:0:0:
198,79,213966,1,8,0:0:0:0:
199,79,214116,1,8,0:0:0:0:
199,79,214266,1,0,0:0:0:0:
199,79,214416,1,8,0:0:0:0:
199,79,214491,1,8,0:0:0:0:
199,79,214566,1,8,0:0:0:0:
199,79,214716,1,0,0:0:0:0:
199,79,214866,1,4,0:0:0:0:
216,84,215466,1,0,0:0:0:0:
220,88,215766,1,8,0:0:0:0:
228,84,216066,1,0,0:0:0:0:
223,82,216216,1,0,0:0:0:0:
196,68,216366,1,8,0:0:0:0:
208,72,216516,1,0,0:0:0:0:
216,96,216591,1,0,0:0:0:0:
208,72,216666,1,0,0:0:0:0:
221,115,216816,1,0,0:0:0:0:
216,96,216966,1,8,0:0:0:0:
220,96,217266,1,0,0:0:0:0:
220,96,217566,1,8,0:0:0:0:
216,104,217866,1,8,0:0:0:0:
216,104,218016,1,0,0:0:0:0:
216,104,218166,1,8,0:0:0:0:
216,104,218316,1,0,0:0:0:0:
216,104,218466,1,0,0:0:0:0:
208,92,218766,1,8,0:0:0:0:
216,104,218916,1,0,0:0:0:0:
216,104,219066,1,0,0:0:0:0:
216,104,219216,1,0,0:0:0:0:
216,104,219366,1,8,0:0:0:0:
222,116,219441,1,8,0:0:0:0:
214,122,219516,1,8,0:0:0:0:
216,104,219666,1,4,0:0:0:0:
224,112,220266,1,0,0:0:0:0:
224,112,220341,1,0,0:0:0:0:
224,112,220416,1,0,0:0:0:0:
224,112,220566,1,8,0:0:0:0:
208,111,220716,1,0,0:0:0:0:
212,112,220866,1,4,0:0:0:0:
216,112,221466,1,0,0:0:0:0:
224,112,221541,1,0,0:0:0:0:
216,112,221616,1,0,0:0:0:0:
216,112,221766,1,8,0:0:0:0:
230,103,221916,1,0,0:0:0:0:
216,112,222066,1,12,0:0:0:0:
216,112,222366,1,8,0:0:0:0:
216,116,222666,1,8,0:0:0:0:
216,112,222966,1,8,0:0:0:0:
196,116,223116,1,0,0:0:0:0:
196,116,223266,1,8,0:0:0:0:
196,116,223341,1,8,0:0:0:0:
196,116,223416,1,8,0:0:0:0:
316,113,223566,1,8,0:0:0:0:
363,128,223716,1,8,0:0:0:0:
358,133,223866,1,8,0:0:0:0:
358,133,223941,1,8,0:0:0:0:
358,133,224016,1,8,0:0:0:0:
358,133,224091,1,8,0:0:0:0:
356,136,224466,1,4,0:0:0:0:
360,128,224766,1,8,0:0:0:0:
360,128,224916,1,8,0:0:0:0:
360,128,225066,1,0,0:0:0:0:
354,126,225216,1,0,0:0:0:0:
360,128,225366,1,8,0:0:0:0:
360,128,225516,1,8,0:0:0:0:
360,128,225666,1,0,0:0:0:0:
360,128,225741,1,0,0:0:0:0:
360,128,225816,1,0,0:0:0:0:
352,128,225966,1,8,0:0:0:0:
352,128,226416,1,0,0:0:0:0:
352,128,226566,1,8,0:0:0:0:
348,124,226866,1,0,0:0:0:0:
344,128,227166,1,8,0:0:0:0:
340,136,227316,1,0,0:0:0:0:
344,132,227466,1,8,0:0:0:0:
352,124,227541,1,8,0:0:0:0:
352,124,227616,1,8,0:0:0:0:
352,124,227766,1,8,0:0:0:0:
352,128,227916,1,8,0:0:0:0:
352,128,228066,1,0,0:0:0:0:
344,128,228366,1,8,0:0:0:0:
340,136,228816,1,0,0:0:0:0:
336,140,228966,1,8,0:0:0:0:
336,140,229041,1,8,0:0:0:0:
344,140,229116,1,8,0:0:0:0:
336,140,229266,1,4,0:0:0:0:
344,144,229566,1,8,0:0:0:0:
348,128,229716,1,0,0:0:0:0:
344,128,229866,1,0,0:0:0:0:
344,136,230016,1,8,0:0:0:0:
344,136,230166,1,8,0:0:0:0:
348,132,230316,1,0,0:0:0:0:
348,132,230466,1,0,0:0:0:0:
344,140,230766,1,8,0:0:0:0:
344,140,231216,1,0,0:0:0:0:
344,140,231366,1,8,0:0:0:0:
344,136,231516,1,0,0:0:0:0:
336,144,231666,1,8,0:0:0:0:
336,144,231741,1,8,0:0:0:0:
336,144,231816,1,8,0:0:0:0:
336,144,231966,1,8,0:0:0:0:
344,140,232266,1,0,0:0:0:0:
336,140,232416,1,0,0:0:0:0:
336,140,232566,1,8,0:0:0:0:
336,140,232716,1,0,0:0:0:0:
336,140,232866,1,8,0:0:0:0:
336,140,232941,1,8,0:0:0:0:
336,140,233016,1,8,0:0:0:0:
336,144,233166,1,8,0:0:0:0:
336,144,233466,1,8,0:0:0:0:
332,140,233616,1,0,0:0:0:0:
332,140,233691,1,0,0:0:0:0:
336,140,233841,1,8,0:0:0:0:
336,140,233916,1,8,0:0:0:0:
336,140,233991,1,8,0:0:0:0:
