osu file format v14

[General]
AudioFilename: audio.mp3
AudioLeadIn: 0
PreviewTime: 58227
Countdown: 0
SampleSet: Soft
StackLeniency: 0.3
Mode: 0
LetterboxInBreaks: 0
WidescreenStoryboard: 0

[Editor]
Bookmarks: 1227,10827,20427,39627,49227,58827,78027,87327
DistanceSpacing: 1.4
BeatDivisor: 4
GridSize: 4
TimelineZoom: 0.8999996

[Metadata]
Title:Inochi ni Kirawarete Iru.
TitleUnicode:命に嫌われている。
Artist:mafumafu
ArtistUnicode:まふまふ
Creator:KazuhikoRei
Version:Haruki's Easy
Source:
Tags:Hated by life itself. Japanese Vocaloid Hatsune Miku 初音ミク Kanzaki Iori カンザキイオリ utaite cover AirinCat Serizawa Haruki Jack J_a_c_k
BeatmapID:1844829
BeatmapSetID:829296

[Difficulty]
HPDrainRate:2
CircleSize:2.5
OverallDifficulty:2
ApproachRate:3
SliderMultiplier:0.8
SliderTickRate:1

[Events]
//Background and Video events
0,0,"back.jpg",0,0
//Break Periods
//Storyboard Layer 0 (Background)
//Storyboard Layer 1 (Fail)
//Storyboard Layer 2 (Pass)
//Storyboard Layer 3 (Foreground)
//Storyboard Sound Samples

[TimingPoints]
27,300,4,2,1,40,1,0
10227,-100,4,2,1,40,0,0
20427,-100,4,2,1,50,0,0
26352,-100,4,2,1,5,0,0
26427,-100,4,2,1,50,0,0
35952,-100,4,2,1,5,0,0
36027,-100,4,2,1,50,0,0
39627,-100,4,2,3,40,0,0
40377,-100,4,2,6,50,0,0
40527,-100,4,2,3,40,0,0
41727,-100,4,2,1,55,0,0
41877,-100,4,2,3,40,0,0
42777,-100,4,2,6,50,0,0
42927,-100,4,2,3,40,0,0
43527,-100,4,2,1,55,0,0
43977,-100,4,2,3,40,0,0
46527,-100,4,2,1,70,0,0
46677,-100,4,2,3,40,0,0
48327,-100,4,2,1,70,0,0
48477,-100,4,2,3,40,0,0
48627,-100,4,2,1,70,0,0
48777,-100,4,2,3,40,0,0
49227,-100,4,2,3,40,0,0
51327,-100,4,2,1,70,0,0
51627,-100,4,2,3,40,0,0
53577,-100,4,2,1,70,0,0
53727,-100,4,2,3,50,0,0
53877,-100,4,2,1,70,0,0
54027,-100,4,2,3,45,0,0
55977,-100,4,2,1,70,0,0
56127,-100,4,2,3,45,0,0
56277,-100,4,2,1,70,0,0
56427,-100,4,2,3,55,0,0
56727,-100,4,2,3,57,0,0
57027,-100,4,2,3,63,0,0
57327,-100,4,2,3,67,0,0
57627,-100,4,2,4,28,0,0
57702,-100,4,2,4,31,0,0
57777,-100,4,2,4,34,0,0
57852,-100,4,2,4,37,0,0
57927,-100,4,2,4,40,0,0
58002,-100,4,2,4,43,0,0
58077,-100,4,2,4,46,0,0
58152,-100,4,2,4,48,0,0
58227,-100,4,2,4,50,0,0
58377,-100,4,3,1,50,0,0
58827,-100,4,2,5,73,0,1
65952,-100,4,2,5,5,0,1
66027,-100,4,2,5,73,0,1
67827,-100,4,2,5,40,0,1
67902,-100,4,2,5,43,0,1
67977,-100,4,2,5,45,0,1
68052,-100,4,2,5,47,0,1
68127,-100,4,2,5,53,0,1
68202,-100,4,2,5,57,0,1
68277,-100,4,2,5,60,0,1
68352,-100,4,2,5,65,0,1
68427,-100,4,2,5,73,0,1
73527,-100,4,2,6,73,0,1
73677,-100,4,2,5,73,0,1
78027,-100,4,2,1,45,0,0

[Colours]
Combo1 : 151,129,216
Combo2 : 123,186,238
Combo3 : 124,220,218
Combo4 : 249,189,226

[HitObjects]
100,180,10227,6,0,L|106:100,1,80,2|0,0:0|1:0,0:0:0:0:
114,12,10827,6,0,P|56:27|22:76,2,120,6|10|10,0:0|0:0|0:0,0:0:0:0:
233,70,12177,2,0,B|249:105|249:105|242:185,1,120,2|0,0:0|0:0,0:0:0:0:
234,273,12927,1,10,0:0:0:0:
170,333,13227,6,0,P|146:279|162:223,2,120,2|10|10,0:0|0:0|0:0,0:0:0:0:
300,355,14577,2,0,B|321:323|321:323|328:243,1,120,2|10,0:0|0:0,0:0:0:0:
336,154,15327,1,8,0:0:0:0:
267,100,15627,6,0,P|211:80|155:100,2,120,2|10|10,0:0|0:0|0:0,0:0:0:0:
211,168,16827,2,0,P|155:188|99:168,2,120,2|10|10,0:0|0:0|0:0,0:0:0:0:
267,100,18027,6,0,B|284:62|284:23|284:23|369:58|363:149,1,240,2|8,0:0|0:0,0:0:0:0:
357,237,19227,2,0,L|350:316,1,80,0|10,0:0|0:0,0:0:0:0:
262,324,19827,2,0,L|268:244,1,80,10|10,0:0|0:0,0:0:0:0:
198,190,20427,6,0,P|159:181|120:190,2,80,6|0|0,0:0|0:0|0:0,0:0:0:0:
159,269,21327,1,10,0:0:0:0:
71,263,21627,2,0,P|44:233|33:194,1,80,2|0,0:0|0:0,0:0:0:0:
250,45,22827,6,0,L|170:51,2,80,2|0|0,0:0|0:0|0:0,0:0:0:0:
338,37,23727,1,8,0:0:0:0:
388,109,24027,2,0,P|397:148|388:187,1,80,0|8,0:0|0:0,0:0:0:0:
339,259,24627,1,10,0:0:0:0:
251,251,24927,1,10,0:0:0:0:
214,171,25227,6,0,L|134:164,2,80,2|0|0,0:0|0:0|0:0,0:0:0:0:
302,179,26127,1,10,0:0:0:0:
352,106,26427,2,0,P|361:67|352:28,1,80,2|0,0:0|0:0,0:0:0:0:
180,67,27327,1,10,0:0:0:0:
157,152,27627,6,0,B|142:210|142:210|157:268,2,120,2|8|8,0:0|0:0|0:0,0:0:0:0:
390,25,29427,2,0,L|396:104,1,80,10|10,0:0|0:0,0:0:0:0:
412,191,30027,6,0,B|370:198|337:170|337:170|295:164|262:190,1,160,6|0,0:0|0:0,0:0:0:0:
197,250,30927,1,10,0:0:0:0:
234,330,31227,2,0,L|313:336,1,80,0|0,0:0|0:0,0:0:0:0:
401,344,31827,1,0,0:0:0:0:
451,271,32127,1,10,0:0:0:0:
412,191,32427,6,0,P|403:152|412:113,2,80,2|0|0,0:0|0:0|0:0,0:0:0:0:
491,152,33327,1,10,0:0:0:0:
485,64,33627,2,0,P|455:36|417:24,1,80,0|8,0:0|0:0,0:0:0:0:
334,0,34227,1,10,0:0:0:0:
262,51,34527,1,8,0:0:0:0:
270,138,34827,6,0,B|274:190|274:190|304:235|304:235|309:288,1,160,2|0,0:0|0:0,0:0:0:0:
317,376,35727,1,10,0:0:0:0:
237,339,36027,1,2,0:0:0:0:
213,76,36927,1,10,0:0:0:0:
128,53,37227,6,0,B|70:38|70:38|12:53,2,120,2|8|8,0:0|0:0|0:0,0:0:0:0:
213,76,38427,2,0,L|292:69,1,80,0|10,0:0|0:0,0:0:0:0:
317,154,39027,2,0,L|237:160,1,80,10|10,0:0|0:0,0:0:0:0:
175,223,39627,6,0,P|155:279|175:335,2,120,6|2|8,0:0|0:0|0:0,0:0:0:0:
243,279,40827,2,0,P|260:314|260:355,2,80,2|0|0,0:0|0:0|0:0,0:0:0:0:
175,223,41727,1,8,0:0:0:0:
107,167,42027,6,0,P|87:111|107:55,2,120,6|2|8,0:0|0:0|0:0,0:0:0:0:
175,111,43227,2,0,P|192:76|192:35,2,80,2|8|8,0:0|0:0|0:0,0:0:0:0:
107,167,44127,1,8,0:0:0:0:
175,223,44427,6,0,B|182:304|182:304|166:339,2,120,6|2|8,0:0|0:0|0:0,0:0:0:0:
260,200,45627,2,0,L|266:279,2,80,2|0|0,0:0|0:0|0:0,0:0:0:0:
252,112,46527,1,8,0:0:0:0:
324,62,46827,6,0,B|403:35|403:89|482:62,1,160,6|0,0:0|0:0,0:0:0:0:
365,195,48027,2,0,B|348:234|365:273|365:273|355:312|355:312|365:350,1,160,2|8,0:0|0:0,0:0:0:0:
189,350,49227,6,0,L|109:343,1,80,6|2,0:0|0:0,0:0:0:0:
102,255,49827,2,0,L|181:261,1,80,2|2,0:0|0:0,0:0:0:0:
260,222,50427,2,0,P|269:261|260:300,2,80,2|2|2,0:0|0:0|0:0,0:0:0:0:
220,143,51327,1,8,0:0:0:0:
181,64,51627,6,0,P|220:55|259:64,1,80,6|2,0:0|0:0,0:0:0:0:
339,100,52227,2,0,L|418:93,1,80,2|2,0:0|0:0,0:0:0:0:
506,85,52827,2,0,P|493:46|465:18,2,80,2|2|2,0:0|0:0|0:0,0:0:0:0:
512,173,53727,1,2,0:0:0:0:
441,225,54027,6,0,L|361:231,1,80,6|2,0:0|0:0,0:0:0:0:
290,180,54627,2,0,L|210:173,1,80,2|2,0:0|0:0,0:0:0:0:
122,165,55227,2,0,P|135:127|163:98,2,80,2|2|2,0:0|0:0|0:0,0:0:0:0:
115,253,56127,1,2,0:0:0:0:
188,304,56427,6,0,L|272:311,1,80,6|2,0:0|0:0,0:0:0:0:
347,350,57027,2,0,P|356:311|347:272,1,80,2|2,0:0|0:0,0:0:0:0:
310,193,57627,2,0,P|301:154|310:115,1,80,8|8,0:0|0:0,0:0:0:0:
347,36,58227,1,8,0:0:0:0:
435,28,58527,1,2,3:0:0:0:
485,100,58827,6,0,L|491:179,1,80,6|8,0:0|0:0,0:0:0:0:
432,245,59427,2,0,P|393:254|354:245,1,80,2|8,0:0|0:0,0:0:0:0:
279,200,60027,1,2,0:0:0:0:
199,237,60327,1,8,0:0:0:0:
214,60,60927,1,8,0:0:0:0:
126,52,61227,6,0,L|46:45,2,80,2|8|2,0:0|0:0|0:0,0:0:0:0:
50,210,62427,2,0,P|41:249|50:288,1,80,2|12,0:0|0:0,0:0:0:0:
100,360,63027,1,12,1:2:0:0:
189,353,63327,1,12,1:2:0:0:
278,346,63627,6,0,B|273:302|237:278|237:278|231:200,1,160,6|2,0:0|0:0,0:0:0:0:
223,113,64527,1,8,0:0:0:0:
301,72,64827,2,0,P|310:110|302:149,1,80,2|8,0:0|0:0,0:0:0:0:
210,298,65727,1,8,0:0:0:0:
122,290,66027,6,0,L|42:283,2,80,6|8|2,0:0|0:0|0:0,0:0:0:0:
210,298,66927,1,8,0:0:0:0:
287,340,67227,2,0,P|326:349|365:340,1,80,2|12,0:0|0:0,0:0:0:0:
442,298,67827,1,10,0:0:0:0:
450,211,68127,1,10,0:0:0:0:
378,160,68427,6,0,L|298:153,1,80,6|8,0:0|0:0,0:0:0:0:
227,205,69027,2,0,L|147:212,1,80,2|8,0:0|0:0,0:0:0:0:
59,219,69627,1,2,0:0:0:0:
8,147,69927,1,8,0:0:0:0:
152,46,70527,1,8,0:0:0:0:
230,5,70827,6,0,B|269:-13|308:5|308:5|328:39|328:39|363:60,1,160,6|2,0:0|0:0,0:0:0:0:
438,103,71727,1,8,0:0:0:0:
405,185,72027,2,0,P|396:224|405:263,1,80,2|8,0:0|0:0,0:0:0:0:
233,224,72927,1,8,0:0:0:0:
165,168,73227,6,0,P|145:224|165:280,2,120,6|0|8,0:0|0:0|0:0,0:0:0:0:
247,137,74427,2,0,P|284:151|310:181,1,80,2|8,0:0|0:0,0:0:0:0:
355,257,75027,1,8,3:0:0:0:
319,338,75327,1,8,0:0:0:0:
230,345,75627,6,0,L|150:351,1,80,2|8,0:0|0:0,0:0:0:0:
62,358,76227,2,0,P|67:318|89:285,1,80,2|8,0:0|0:0,0:0:0:0:
158,230,76827,1,12,0:0:0:0:
150,143,77127,2,0,L|143:63,2,80,12|12|12,0:0|0:0|0:0,0:0:0:0:
230,179,78027,6,0,P|286:199|342:179,2,120,6|10|10,0:0|0:0|0:0,0:0:0:0:
240,47,79377,2,0,B|275:31|275:31|356:38,1,120,2|0,0:0|0:0,0:0:0:0:
444,45,80127,1,10,0:0:0:0:
510,103,80427,6,0,P|530:159|510:215,2,120,2|10|10,0:0|0:0|0:0,0:0:0:0:
380,130,81777,2,0,B|364:165|364:165|371:246,1,120,2|10,0:0|0:0,0:0:0:0:
378,333,82527,1,8,0:0:0:0:
298,370,82827,6,0,P|238:374|189:341,2,120,2|10|10,0:0|0:0|0:0,0:0:0:0:
261,289,84027,2,0,P|211:256|152:261,2,120,2|10|10,0:0|0:0|0:0,0:0:0:0:
298,370,85227,6,0,B|337:353|348:311|348:311|389:302|425:321|425:321|464:303|476:261,1,240,2|8,0:0|0:0,0:0:0:0:
490,175,86427,2,0,L|483:95,1,80,0|10,0:0|0:0,0:0:0:0:
395,88,87027,2,0,L|401:167,1,80,10|10,0:0|0:0,0:0:0:0:
