osu file format v14

[General]
AudioFilename: audio.mp3
AudioLeadIn: 0
PreviewTime: 58227
Countdown: 0
SampleSet: Soft
StackLeniency: 0.3
Mode: 0
LetterboxInBreaks: 0
WidescreenStoryboard: 0

[Editor]
DistanceSpacing: 1.2
BeatDivisor: 4
GridSize: 4
TimelineZoom: 1.6

[Metadata]
Title:Inochi ni Kirawarete Iru.
TitleUnicode:命に嫌われている。
Artist:mafumafu
ArtistUnicode:まふまふ
Creator:KazuhikoRei
Version:Hard
Source:
Tags:Hated by life itself. Japanese Vocaloid Hatsune Miku 初音ミク Kanzaki Iori カンザキイオリ utaite cover AirinCat Serizawa Haruki Jack J_a_c_k
BeatmapID:1746445
BeatmapSetID:829296

[Difficulty]
HPDrainRate:4
CircleSize:3.5
OverallDifficulty:6
ApproachRate:8
SliderMultiplier:1.3
SliderTickRate:1

[Events]
//Background and Video events
0,0,"back.jpg",0,0
//Break Periods
//Storyboard Layer 0 (Background)
//Storyboard Layer 1 (Fail)
//Storyboard Layer 2 (Pass)
//Storyboard Layer 3 (Foreground)
//Storyboard Sound Samples

[TimingPoints]
27,300,4,2,1,40,1,0
10227,-125,4,2,1,40,0,0
20427,-111.111111111111,4,2,1,50,0,0
26352,-111.111111111111,4,2,1,5,0,0
26427,-111.111111111111,4,2,1,50,0,0
35952,-111.111111111111,4,2,1,5,0,0
36027,-111.111111111111,4,2,1,50,0,0
39627,-133.333333333333,4,2,3,40,0,0
40377,-133.333333333333,4,2,6,50,0,0
40527,-133.333333333333,4,2,3,40,0,0
41727,-133.333333333333,4,2,1,55,0,0
41877,-133.333333333333,4,2,3,40,0,0
42777,-133.333333333333,4,2,6,50,0,0
42927,-133.333333333333,4,2,3,40,0,0
43527,-133.333333333333,4,2,1,55,0,0
43977,-133.333333333333,4,2,3,40,0,0
46527,-133.333333333333,4,2,1,70,0,0
46677,-133.333333333333,4,2,3,40,0,0
48327,-133.333333333333,4,2,1,70,0,0
48477,-133.333333333333,4,2,3,40,0,0
48627,-133.333333333333,4,2,1,70,0,0
48777,-133.333333333333,4,2,3,40,0,0
49227,-111.111111111111,4,2,3,40,0,0
51327,-111.111111111111,4,2,1,70,0,0
51627,-111.111111111111,4,2,3,40,0,0
53577,-111.111111111111,4,2,1,70,0,0
53727,-111.111111111111,4,2,3,50,0,0
53877,-111.111111111111,4,2,1,70,0,0
54027,-111.111111111111,4,2,3,45,0,0
55977,-111.111111111111,4,2,1,70,0,0
56127,-111.111111111111,4,2,3,45,0,0
56277,-111.111111111111,4,2,1,70,0,0
56427,-111.111111111111,4,2,3,55,0,0
56727,-111.111111111111,4,2,3,57,0,0
57027,-111.111111111111,4,2,3,63,0,0
57327,-111.111111111111,4,2,3,67,0,0
57627,-111.111111111111,4,2,4,28,0,0
57702,-111.111111111111,4,2,4,31,0,0
57777,-111.111111111111,4,2,4,34,0,0
57852,-111.111111111111,4,2,4,37,0,0
57927,-111.111111111111,4,2,4,40,0,0
58002,-111.111111111111,4,2,4,43,0,0
58077,-111.111111111111,4,2,4,46,0,0
58152,-111.111111111111,4,2,4,48,0,0
58227,-111.111111111111,4,2,4,50,0,0
58377,-111.111111111111,4,3,1,50,0,0
58827,-90.9090909090909,4,2,5,73,0,1
65952,-90.9090909090909,4,2,5,5,0,1
66027,-90.9090909090909,4,2,5,73,0,1
67827,-90.9090909090909,4,2,5,40,0,1
67902,-90.9090909090909,4,2,5,43,0,1
67977,-90.9090909090909,4,2,5,45,0,1
68052,-90.9090909090909,4,2,5,47,0,1
68127,-90.9090909090909,4,2,5,53,0,1
68202,-90.9090909090909,4,2,5,57,0,1
68277,-90.9090909090909,4,2,5,60,0,1
68352,-90.9090909090909,4,2,5,65,0,1
68427,-90.9090909090909,4,2,5,73,0,1
73527,-90.9090909090909,4,2,6,73,0,1
73677,-90.9090909090909,4,2,5,73,0,1
78027,-133.333333333333,4,2,1,45,0,0

[Colours]
Combo1 : 151,129,216
Combo2 : 123,186,238
Combo3 : 124,220,218
Combo4 : 249,189,226

[HitObjects]
60,53,10227,5,2,0:0:0:0:
99,138,10377,1,0,0:0:0:0:
153,61,10527,1,0,1:0:0:0:
153,61,10827,6,0,P|223:81|269:79,1,104,6|0,0:0|0:0,0:0:0:0:
358,56,11277,2,0,P|337:102|364:169,1,104,10|0,0:0|0:0,0:0:0:0:
423,111,11727,1,10,0:0:0:0:
458,237,12027,1,0,0:0:0:0:
458,237,12177,2,0,P|405:236|337:245,1,104,2|8,0:0|0:0,0:0:0:0:
272,283,12627,2,0,P|227:262|217:244,1,52
238,175,12927,2,0,P|283:196|293:214,1,52,10|0,0:0|0:0,0:0:0:0:
226,261,13227,6,0,P|141:249|95:257,1,104,2|0,0:0|0:0,0:0:0:0:
46,295,13677,2,0,P|34:221|40:163,1,104,10|0,0:0|0:0,0:0:0:0:
79,120,14127,1,10,0:0:0:0:
22,12,14427,1,0,0:0:0:0:
22,12,14577,2,0,P|79:35|145:30,1,104,2|0,0:0|0:0,0:0:0:0:
196,3,15027,2,0,P|204:37|199:62,1,52,10|0,0:0|0:0,0:0:0:0:
161,127,15327,2,0,L|177:184,1,52,8|0,0:0|0:0,0:0:0:0:
159,274,15627,6,0,L|352:246,2,156,2|10|10,0:0|0:0|0:0,0:0:0:0:
280,330,16827,2,0,P|235:266|268:182,2,156,2|10|10,0:0|0:0|0:0,0:0:0:0:
150,294,18027,6,0,P|114:235|56:222,1,104,2|0,0:0|0:0,0:0:0:0:
63,309,18477,2,0,P|114:258|120:197,1,104,8|0,0:0|0:0,0:0:0:0:
95,149,18927,1,8,0:0:0:0:
189,51,19227,5,0,0:0:0:0:
189,51,19527,2,0,L|173:181,2,104,10|10|10,0:0|0:0|0:0,0:0:0:0:
38,57,20427,6,0,P|35:97|41:137,1,58.4999982147217,6|0,0:0|0:0,0:0:0:0:
80,192,20727,2,0,P|84:232|76:272,1,58.4999982147217,0|10,0:0|0:0,0:0:0:0:
28,328,21027,2,0,P|87:343|155:309,1,116.999996429443,0|10,0:0|0:0,0:0:0:0:
192,252,21477,1,0,0:0:0:0:
192,252,21627,2,0,L|257:260,1,58.4999982147217,0|0,0:0|0:0,0:0:0:0:
388,270,21927,2,0,P|355:268|327:280,1,58.4999982147217,0|10,0:0|0:0,0:0:0:0:
250,259,22227,2,0,P|256:318|306:358,1,116.999996429443,0|10,0:0|0:0,0:0:0:0:
448,183,22827,6,0,L|370:178,1,58.4999982147217,2|0,0:0|0:0,0:0:0:0:
322,118,23127,2,0,P|290:112|242:126,1,58.4999982147217,0|8,0:0|0:0,0:0:0:0:
181,82,23427,2,0,P|179:146|217:192,1,116.999996429443,0|8,0:0|0:0,0:0:0:0:
297,202,23877,1,0,0:0:0:0:
297,202,24027,2,0,L|297:281,1,58.4999982147217
226,317,24327,2,0,L|83:328,1,116.999996429443,8|10,0:0|0:0,0:0:0:0:
24,173,24927,1,10,0:0:0:0:
24,173,25227,6,0,P|76:213|132:205,1,116.999996429443,2|0,0:0|0:0,0:0:0:0:
196,154,25677,1,8,0:0:0:0:
196,154,25827,2,0,L|199:73,2,58.4999982147217,0|0|10,0:0|0:0|0:0,0:0:0:0:
338,51,26427,2,0,L|339:187,1,116.999996429443,2|0,0:0|0:0,0:0:0:0:
399,229,26877,1,10,0:0:0:0:
475,273,27027,2,0,P|431:313|357:304,1,116.999996429443,0|10,0:0|0:0,0:0:0:0:
312,258,27477,1,0,0:0:0:0:
229,319,27627,6,0,L|102:318,1,116.999996429443,2|0,0:0|0:0,0:0:0:0:
26,234,28077,2,0,B|170:235,1,116.999996429443,8|0,0:0|0:0,0:0:0:0:
230,234,28527,1,8,0:0:0:0:
172,80,28827,1,0,0:0:0:0:
23,148,29127,1,8,0:0:0:0:
172,80,29427,2,0,P|208:64|245:68,1,58.4999982147217,10|0,0:0|0:0,0:0:0:0:
297,116,29727,2,0,P|341:124|364:114,1,58.4999982147217,10|0,0:0|0:0,0:0:0:0:
435,72,30027,6,0,L|440:147,1,58.4999982147217,6|0,0:0|0:0,0:0:0:0:
413,214,30327,1,0,0:0:0:0:
413,214,30477,1,10,0:0:0:0:
449,294,30627,2,0,P|401:330|323:319,1,116.999996429443,0|10,0:0|0:0,0:0:0:0:
274,278,31077,1,0,0:0:0:0:
208,338,31227,2,0,L|149:332,1,58.4999982147217,0|2,0:0|0:0,0:0:0:0:
71,296,31527,2,0,P|69:265|77:231,1,58.4999982147217,0|8,0:0|0:0,0:0:0:0:
45,157,31827,2,0,P|90:153|157:213,1,116.999996429443,0|10,0:0|0:0,0:0:0:0:
212,254,32277,1,0,0:0:0:0:
273,177,32427,6,0,L|281:104,1,58.4999982147217,2|0,0:0|0:0,0:0:0:0:
227,38,32727,2,0,P|227:90|301:112,1,116.999996429443
352,72,33177,1,0,0:0:0:0:
416,190,33327,2,0,L|420:125,1,58.4999982147217,10|0,0:0|0:0,0:0:0:0:
502,88,33627,2,0,L|506:167,1,58.4999982147217,0|2,0:0|0:0,0:0:0:0:
492,230,33927,1,8,0:0:0:0:
365,347,34227,1,10,0:0:0:0:
242,221,34527,2,0,P|198:219|164:236,1,58.4999982147217,8|0,0:0|0:0,0:0:0:0:
223,303,34827,6,0,P|263:304|324:235,1,116.999996429443,2|0,0:0|0:0,0:0:0:0:
343,176,35277,1,10,0:0:0:0:
380,99,35427,2,0,P|408:84|440:80,1,58.4999982147217,0|0,0:0|0:0,0:0:0:0:
432,166,35727,1,10,0:0:0:0:
310,49,36027,2,0,L|170:57,1,116.999996429443,2|0,0:0|0:0,0:0:0:0:
133,140,36477,2,0,L|217:136,1,58.4999982147217,10|0,0:0|0:0,0:0:0:0:
260,312,36927,1,10,0:0:0:0:
260,312,37227,6,0,P|231:256|257:188,1,116.999996429443,2|0,0:0|0:0,0:0:0:0:
321,249,37677,2,0,L|180:258,1,116.999996429443,8|0,0:0|0:0,0:0:0:0:
104,263,38127,1,8,0:0:0:0:
104,263,38427,5,0,0:0:0:0:
68,179,38727,1,10,0:0:0:0:
112,87,39027,1,10,0:0:0:0:
212,39,39327,1,10,0:0:0:0:
323,104,39627,6,0,P|276:106|211:36,1,146.250005578995,6|2,0:0|0:0,0:0:0:0:
211,38,40377,1,8,0:0:0:0:
143,103,40527,2,0,L|150:170,1,48.750001859665,8|0,0:0|0:0,0:0:0:0:
180,230,40827,2,0,P|148:266|92:274,1,97.50000371933,2|0,0:0|0:0,0:0:0:0:
34,221,41277,1,2,0:0:0:0:
16,304,41427,2,0,L|8:364,2,48.750001859665,0|2|8,0:0|0:0|0:0,0:0:0:0:
180,376,42027,6,0,L|180:223,1,146.250005578995,6|2,0:0|0:0,0:0:0:0:
180,229,42777,1,8,0:0:0:0:
253,168,42927,2,0,P|278:166|310:179,1,48.750001859665,8|0,0:0|0:0,0:0:0:0:
380,216,43227,2,0,L|496:192,2,97.50000371933,2|8|8,0:0|0:0|0:0,0:0:0:0:
301,173,43977,2,0,P|297:149|301:121,1,48.750001859665,2|8,0:0|0:0,0:0:0:0:
356,45,44277,1,8,3:0:0:0:
356,45,44352,1,8,3:0:0:0:
356,45,44427,6,0,P|248:77|220:61,1,146.250005578995,6|2,0:0|0:0,0:0:0:0:
144,204,45327,2,0,L|202:216,1,48.750001859665,8|0,0:0|0:0,0:0:0:0:
109,127,45627,2,0,P|120:106|128:73,2,48.750001859665,2|0|0,0:0|0:0|0:0,0:0:0:0:
37,172,46077,1,2,0:0:0:0:
37,172,46227,2,0,L|33:280,1,97.50000371933,0|8,0:0|0:0,0:0:0:0:
91,336,46677,1,2,0:0:0:0:
180,283,46827,6,0,P|220:267|324:315,1,146.250005578995,6|2,0:0|0:0,0:0:0:0:
392,359,47427,2,0,L|400:243,1,97.50000371933,0|8,0:0|0:0,0:0:0:0:
406,174,47877,1,0,0:0:0:0:
365,95,48027,2,0,L|361:39,2,48.750001859665,2|2|8,0:0|0:0|0:0,0:0:0:0:
309,163,48477,1,2,0:0:0:0:
309,163,48627,2,0,L|245:163,1,48.750001859665,8|2,0:0|0:0,0:0:0:0:
194,222,48927,2,0,P|159:221|136:213,1,48.750001859665,8|2,0:0|0:0,0:0:0:0:
60,203,49227,6,0,L|65:273,1,58.4999982147217,6|0,0:0|0:0,0:0:0:0:
123,133,49527,2,0,L|128:71,1,58.4999982147217,2|0,0:0|0:0,0:0:0:0:
208,31,49827,2,0,P|240:47|268:46,1,58.4999982147217,2|0,0:0|0:0,0:0:0:0:
348,25,50127,1,2,0:0:0:0:
348,25,50277,1,0,0:0:0:0:
405,90,50427,6,0,L|466:83,2,58.4999982147217,2|0|2,0:0|0:0|0:0,0:0:0:0:
336,140,50877,1,0,0:0:0:0:
273,197,51027,2,0,L|141:204,1,116.999996429443,2|8,0:0|0:0,0:0:0:0:
71,289,51477,1,8,0:0:0:0:
71,289,51552,1,8,0:0:0:0:
71,289,51627,6,0,P|111:289|137:307,1,58.4999982147217,6|0,0:0|0:0,0:0:0:0:
197,356,51927,2,0,P|237:356|269:342,1,58.4999982147217,2|0,0:0|0:0,0:0:0:0:
324,283,52227,2,0,P|366:336|428:333,1,116.999996429443,2|2,0:0|0:0,0:0:0:0:
478,284,52677,1,0,0:0:0:0:
430,210,52827,6,0,P|426:170|431:132,2,58.4999982147217,2|0|2,0:0|0:0|0:0,0:0:0:0:
338,204,53277,1,0,0:0:0:0:
338,204,53427,2,0,L|256:219,1,58.4999982147217,2|8,0:0|0:0,0:0:0:0:
206,157,53727,2,0,L|139:150,1,58.4999982147217,2|8,0:0|0:0,0:0:0:0:
61,235,54027,6,0,P|101:235|136:250,1,58.4999982147217,6|0,0:0|0:0,0:0:0:0:
179,309,54327,1,2,0:0:0:0:
264,291,54477,2,0,L|259:223,2,58.4999982147217,0|2|0,0:0|0:0|0:0,0:0:0:0:
333,352,54927,2,0,P|365:356|402:341,1,58.4999982147217,2|0,0:0|0:0,0:0:0:0:
446,278,55227,6,0,P|426:238|429:208,1,58.4999982147217,2|0,0:0|0:0,0:0:0:0:
475,130,55527,2,0,L|335:153,2,116.999996429443,2|2|2,0:0|0:0|0:0,0:0:0:0:
406,53,56277,1,8,0:0:0:0:
406,53,56427,6,0,L|268:77,1,116.999996429443,6|2,0:0|0:0,0:0:0:0:
204,91,56877,1,0,0:0:0:0:
116,58,57027,2,0,P|108:98|121:133,1,58.4999982147217,2|0,0:0|0:0,0:0:0:0:
179,175,57327,2,0,P|187:215|174:250,1,58.4999982147217,2|0,0:0|0:0,0:0:0:0:
97,322,57627,6,0,L|143:322,3,29.2499991073609,8|8|8|8,0:0|0:0|0:0|0:0,0:0:0:0:
156,339,57927,2,0,L|207:336,3,29.2499991073609,8|8|8|8,0:0|0:0|0:0|0:0,0:0:0:0:
217,352,58227,2,0,L|289:346,1,58.4999982147217,8|8,0:0|3:0,0:0:0:0:
402,277,58527,2,0,L|318:284,1,58.4999982147217,2|4,3:0|3:0,0:0:0:0:
271,218,58827,5,6,0:0:0:0:
271,218,58977,1,0,0:0:0:0:
319,138,59127,2,0,P|319:94|304:67,1,71.5000021820069,8|0,0:0|0:0,0:0:0:0:
232,123,59427,2,0,P|200:127|161:110,1,71.5000021820069,2|2,0:0|0:0,0:0:0:0:
103,41,59727,1,0,0:0:0:0:
103,41,59877,1,8,0:0:0:0:
40,110,60027,6,0,L|44:182,1,71.5000021820069,0|2,0:0|0:0,0:0:0:0:
27,297,60327,2,0,P|78:261|158:284,1,143.000004364014,8|2,0:0|0:0,0:0:0:0:
223,342,60777,1,2,0:0:0:0:
252,256,60927,2,0,L|246:178,1,71.5000021820069,8|0,0:0|0:0,0:0:0:0:
345,254,61227,6,0,L|333:108,1,143.000004364014,2|8,0:0|0:0,0:0:0:0:
388,49,61677,1,0,0:0:0:0:
485,154,61827,2,0,P|449:152|420:133,1,71.5000021820069,2|2,0:0|0:0,0:0:0:0:
323,28,62127,2,0,P|366:32|392:54,1,71.5000021820069,8|2,0:0|0:0,0:0:0:0:
333,111,62427,6,0,L|255:121,1,71.5000021820069,2|0,0:0|0:0,0:0:0:0:
153,133,62727,1,12,0:0:0:0:
153,133,63027,6,0,L|146:61,1,71.5000021820069,12|2,1:2|0:0,0:0:0:0:
69,186,63327,2,0,L|60:263,1,71.5000021820069,12|2,1:2|0:0,0:0:0:0:
110,337,63627,5,6,0:0:0:0:
188,279,63777,2,0,P|232:274|266:281,1,71.5000021820069,0|8,0:0|0:0,0:0:0:0:
325,344,64077,1,0,0:0:0:0:
376,267,64227,2,0,L|368:189,1,71.5000021820069,2|2,0:0|0:0,0:0:0:0:
450,120,64527,2,0,L|462:203,1,71.5000021820069,0|8,0:0|0:0,0:0:0:0:
359,102,64827,6,0,P|326:96|284:108,1,71.5000021820069,0|2,0:0|0:0,0:0:0:0:
239,186,65127,2,0,P|186:209|109:155,1,143.000004364014,8|2,0:0|0:0,0:0:0:0:
75,89,65577,1,2,0:0:0:0:
38,195,65727,1,8,0:0:0:0:
38,195,66027,6,0,L|52:341,1,143.000004364014,6|8,0:0|0:0,0:0:0:0:
138,379,66477,1,0,0:0:0:0:
138,379,66627,2,0,P|153:338|151:284,1,71.5000021820069,2|2,0:0|0:0,0:0:0:0:
204,224,66927,2,0,L|281:228,1,71.5000021820069,8|2,0:0|0:0,0:0:0:0:
380,283,67227,6,0,P|365:236|372:200,1,71.5000021820069,0|2,0:0|0:0,0:0:0:0:
450,152,67527,2,0,P|465:199|458:235,1,71.5000021820069,12|2,0:0|0:0,0:0:0:0:
368,108,67827,2,0,L|326:115,3,35.7500010910034,10|8|8|8,0:0|0:0|0:0|0:0,0:0:0:0:
297,88,68127,2,0,L|248:89,3,35.7500010910034,10|8|8|8,0:0|0:0|0:0|0:0,0:0:0:0:
220,72,68427,6,0,L|139:84,1,71.5000021820069,6|0,0:0|0:0,0:0:0:0:
66,131,68727,2,0,P|56:169|62:203,1,71.5000021820069,8|0,0:0|0:0,0:0:0:0:
214,211,69027,2,0,P|178:176|151:170,1,71.5000021820069,2|0,0:0|0:0,0:0:0:0:
132,263,69327,1,8,0:0:0:0:
132,263,69477,1,0,0:0:0:0:
197,330,69627,6,0,P|233:315|273:316,1,71.5000021820069,2|0,0:0|0:0,0:0:0:0:
398,347,69927,2,0,P|357:310|366:203,1,143.000004364014,8|2,0:0|0:0,0:0:0:0:
439,262,70377,1,0,0:0:0:0:
479,173,70527,2,0,L|462:83,1,71.5000021820069,8|0,0:0|0:0,0:0:0:0:
372,58,70827,6,0,L|376:154,1,71.5000021820069,6|0,0:0|0:0,0:0:0:0:
318,203,71127,1,8,0:0:0:0:
318,203,71277,1,0,0:0:0:0:
236,149,71427,2,0,P|204:156|168:181,1,71.5000021820069,2|0,0:0|0:0,0:0:0:0:
91,223,71727,2,0,P|46:195|27:160,1,71.5000021820069,8|0,0:0|0:0,0:0:0:0:
33,91,72027,1,2,0:0:0:0:
33,91,72177,1,0,0:0:0:0:
112,31,72327,6,0,L|266:21,1,143.000004364014,8|2,0:0|0:0,0:0:0:0:
348,33,72777,1,0,0:0:0:0:
414,97,72927,2,0,P|428:130|422:181,1,71.5000021820069,8|0,0:0|0:0,0:0:0:0:
281,199,73227,6,0,P|300:169|335:147,1,71.5000021820069,6|2,0:0|0:0,0:0:0:0:
373,238,73527,1,8,0:0:0:0:
373,238,73677,1,0,0:0:0:0:
325,323,73827,2,0,P|292:332|252:328,1,71.5000021820069,2|2,0:0|0:0,0:0:0:0:
206,241,74127,2,0,P|180:235|133:243,1,71.5000021820069,8|2,0:0|0:0,0:0:0:0:
43,223,74427,5,2,0:0:0:0:
43,223,74577,1,2,0:0:0:0:
74,307,74727,2,0,L|82:381,1,71.5000021820069,8|8,0:0|3:0,0:0:0:0:
135,243,75027,2,0,L|135:108,1,107.25000327301,8|0,3:0|0:0,0:0:0:0:
143,93,75327,2,0,P|192:101|231:89,1,71.5000021820069,8|0,0:0|0:0,0:0:0:0:
273,30,75627,5,2,0:0:0:0:
327,104,75777,1,2,0:0:0:0:
376,29,75927,2,0,P|407:21|455:28,1,71.5000021820069,8|8,0:0|3:0,0:0:0:0:
481,136,76227,2,0,P|445:116|412:115,1,71.5000021820069,2|2,0:0|0:0,0:0:0:0:
348,196,76527,2,0,P|390:210|421:205,1,71.5000021820069,8|0,0:0|0:0,0:0:0:0:
481,136,76827,5,12,0:0:0:0:
506,238,76977,1,0,0:0:0:0:
451,328,77127,2,0,L|356:327,1,71.5000021820069,12|0,0:0|0:0,0:0:0:0:
252,257,77427,2,0,L|323:251,1,71.5000021820069,12|0,0:0|0:0,0:0:0:0:
193,340,77727,1,12,0:0:0:0:
193,340,77877,1,0,0:0:0:0:
109,267,78027,6,0,L|105:163,1,97.50000371933,6|0,0:0|0:0,0:0:0:0:
121,83,78477,2,0,P|161:67|225:75,1,97.50000371933,10|0,0:0|0:0,0:0:0:0:
288,114,78927,1,10,0:0:0:0:
403,37,79227,1,0,0:0:0:0:
403,37,79377,2,0,L|415:137,1,97.50000371933,2|8,0:0|0:0,0:0:0:0:
442,216,79827,2,0,L|442:288,1,48.750001859665,0|0,0:0|0:0,0:0:0:0:
354,296,80127,2,0,L|354:236,1,48.750001859665,10|0,0:0|0:0,0:0:0:0:
286,191,80427,6,0,P|225:199|174:195,1,97.50000371933,2|0,0:0|0:0,0:0:0:0:
114,152,80877,2,0,B|114:96|114:96|142:56,1,97.50000371933,10|0,0:0|0:0,0:0:0:0:
222,40,81327,1,10,0:0:0:0:
284,166,81627,1,0,0:0:0:0:
284,166,81777,2,0,P|335:156|390:130,1,97.50000371933,2|0,0:0|0:0,0:0:0:0:
455,99,82227,2,0,P|456:70|442:34,1,48.750001859665,10|0,0:0|0:0,0:0:0:0:
373,90,82527,2,0,P|371:114|376:137,1,48.750001859665,8|0,0:0|0:0,0:0:0:0:
448,193,82827,6,0,P|487:234|484:325,2,146.250005578995,2|10|10,0:0|0:0|0:0,0:0:0:0:
377,283,84027,2,0,L|218:262,2,146.250005578995,2|10|10,0:0|0:0|0:0,0:0:0:0:
338,173,85227,6,0,L|222:158,1,97.50000371933,2|0,0:0|0:0,0:0:0:0:
157,194,85677,2,0,B|143:243|143:243|151:290,1,97.50000371933,8|0,0:0|0:0,0:0:0:0:
212,353,86127,1,8,0:0:0:0:
212,353,86427,5,0,0:0:0:0:
264,249,86727,1,10,0:0:0:0:
329,362,87027,1,10,0:0:0:0:
401,219,87327,1,10,0:0:0:0:
