osu file format v14

[General]
AudioFilename: audio.mp3
AudioLeadIn: 0
PreviewTime: 58227
Countdown: 0
SampleSet: Soft
StackLeniency: 0.4
Mode: 0
LetterboxInBreaks: 0
WidescreenStoryboard: 0

[Editor]
Bookmarks: 20427,29427,39627,49227
DistanceSpacing: 0.7
BeatDivisor: 4
GridSize: 4
TimelineZoom: 2.1

[Metadata]
Title:Inochi ni Kirawarete Iru.
TitleUnicode:命に嫌われている。
Artist:mafumafu
ArtistUnicode:まふまふ
Creator:KazuhikoRei
Version:Airin's Extra
Source:
Tags:Hated by life itself. Japanese Vocaloid Hatsune Miku 初音ミク Kanzaki Iori カンザキイオリ utaite cover AirinCat Serizawa Haruki Jack J_a_c_k
BeatmapID:1758428
BeatmapSetID:829296

[Difficulty]
HPDrainRate:6
CircleSize:3.8
OverallDifficulty:8.6
ApproachRate:9.2
SliderMultiplier:1.6
SliderTickRate:1

[Events]
//Background and Video events
0,0,"back.jpg",0,0
//Break Periods
//Storyboard Layer 0 (Background)
//Storyboard Layer 1 (Fail)
//Storyboard Layer 2 (Pass)
//Storyboard Layer 3 (Foreground)
//Storyboard Sound Samples

[TimingPoints]
27,300,4,2,1,40,1,0
10227,-125,4,2,1,40,0,0
19452,-125,4,2,1,5,0,0
19527,-100,4,2,1,40,0,0
19752,-100,4,2,1,5,0,0
19827,-83.3333333333333,4,2,1,40,0,0
20052,-83.3333333333333,4,2,1,5,0,0
20127,-125,4,2,1,40,0,0
20352,-125,4,2,1,5,0,0
20427,-125,4,2,1,50,0,0
25152,-125,4,2,1,5,0,0
25227,-125,4,2,1,50,0,0
26352,-125,4,2,1,5,0,0
26427,-125,4,2,1,50,0,0
35952,-125,4,2,1,5,0,0
36027,-125,4,2,1,50,0,0
37152,-125,4,2,1,5,0,0
37227,-125,4,2,1,50,0,0
38652,-125,4,2,1,5,0,0
38727,-100,4,2,1,50,0,0
38952,-100,4,2,1,5,0,0
39027,-83.3333333333333,4,2,1,50,0,0
39252,-83.3333333333333,4,2,1,5,0,0
39327,-166.666666666667,4,2,1,50,0,0
39552,-166.666666666667,4,2,1,5,0,0
39627,-99.9999999999999,4,2,3,40,0,0
40377,-99.9999999999999,4,2,6,50,0,0
40527,-99.9999999999999,4,2,3,40,0,0
41052,-99.9999999999999,4,2,3,5,0,0
41127,-99.9999999999999,4,2,3,40,0,0
41727,-99.9999999999999,4,2,1,55,0,0
41877,-99.9999999999999,4,2,3,40,0,0
42777,-99.9999999999999,4,2,6,50,0,0
42927,-99.9999999999999,4,2,3,40,0,0
43527,-99.9999999999999,4,2,1,55,0,0
43677,-99.9999999999999,4,2,3,40,0,0
43827,-99.9999999999999,4,2,1,55,0,0
43977,-99.9999999999999,4,2,3,40,0,0
45252,-99.9999999999999,4,2,3,5,0,0
45327,-99.9999999999999,4,2,3,40,0,0
46527,-99.9999999999999,4,2,1,70,0,0
46677,-99.9999999999999,4,2,3,40,0,0
48327,-99.9999999999999,4,2,1,70,0,0
48477,-99.9999999999999,4,2,3,40,0,0
48627,-99.9999999999999,4,2,1,70,0,0
48777,-99.9999999999999,4,2,3,40,0,0
49227,-100,4,2,3,40,0,0
51327,-100,4,2,1,70,0,0
51627,-100,4,2,3,40,0,0
53577,-100,4,2,1,70,0,0
53727,-100,4,2,3,50,0,0
53877,-100,4,2,1,70,0,0
54027,-100,4,2,3,45,0,0
55752,-100,4,2,3,5,0,0
55827,-100,4,2,3,45,0,0
55977,-100,4,2,1,70,0,0
56127,-100,4,2,3,45,0,0
56277,-100,4,2,1,70,0,0
56427,-100,4,2,3,55,0,0
56727,-100,4,2,3,57,0,0
57027,-100,4,2,3,63,0,0
57327,-100,4,2,3,67,0,0
57627,-100,4,2,4,28,0,0
57702,-100,4,2,4,31,0,0
57777,-100,4,2,4,34,0,0
57852,-100,4,2,4,37,0,0
57927,-100,4,2,4,40,0,0
58002,-100,4,2,4,43,0,0
58077,-100,4,2,4,46,0,0
58152,-100,4,2,4,48,0,0
58227,-100,4,2,4,50,0,0
58377,-100,4,3,1,50,0,0
58827,-90.9090909090909,4,2,5,73,0,1
60252,-90.9090909090909,4,2,5,5,0,1
60327,-90.9090909090909,4,2,5,73,0,1
65952,-90.9090909090909,4,2,5,5,0,1
66027,-90.9090909090909,4,2,5,73,0,1
67827,-90.9090909090909,4,2,5,40,0,1
67902,-90.9090909090909,4,2,5,43,0,1
67977,-90.9090909090909,4,2,5,45,0,1
68052,-90.9090909090909,4,2,5,47,0,1
68127,-90.9090909090909,4,2,5,53,0,1
68202,-90.9090909090909,4,2,5,57,0,1
68277,-90.9090909090909,4,2,5,60,0,1
68352,-90.9090909090909,4,2,5,65,0,1
68427,-90.9090909090909,4,2,5,73,0,1
73527,-90.9090909090909,4,2,6,73,0,1
73677,-90.9090909090909,4,2,5,73,0,1
75027,-76.9230769230769,4,2,5,73,0,1
76827,-100,4,2,5,73,0,1
78027,-133.333333333333,4,2,1,45,0,0

[Colours]
Combo1 : 151,129,216
Combo2 : 123,186,238
Combo3 : 124,220,218
Combo4 : 249,189,226

[HitObjects]
66,88,10227,6,0,L|78:152,1,64,2|0,0:0|0:0,0:0:0:0:
154,32,10527,1,0,1:0:0:0:
154,32,10827,5,6,0:0:0:0:
248,110,10977,2,0,L|260:30,1,64,0|0,0:0|0:0,0:0:0:0:
360,106,11277,2,0,L|349:187,1,64,10|0,0:0|0:0,0:0:0:0:
351,169,11727,2,0,P|407:141|483:159,1,128,10|0,0:0|0:0,0:0:0:0:
434,299,12177,2,0,L|425:235,2,64,2|0|8,0:0|0:0|0:0,0:0:0:0:
323,355,12627,2,0,L|256:368,1,64,0|0,0:0|0:0,0:0:0:0:
164,257,12927,2,0,L|246:276,1,64,10|0,0:0|0:0,0:0:0:0:
60,358,13227,6,0,P|58:282|21:226,1,128,2|0,0:0|0:0,0:0:0:0:
39,140,13677,2,0,L|117:124,1,64,10|0,0:0|0:0,0:0:0:0:
101,127,14127,2,0,P|101:46|140:1,1,128,10|0,0:0|0:0,0:0:0:0:
252,96,14577,2,0,L|165:82,2,64,2|8|0,0:0|0:0|0:0,0:0:0:0:
304,193,15027,2,0,L|281:273,1,64,10|0,0:0|0:0,0:0:0:0:
382,364,15327,2,0,L|370:301,1,64,8|0,0:0|0:0,0:0:0:0:
267,361,15627,6,0,P|197:358|137:345,1,128,2|0,0:0|0:0,0:0:0:0:
74,278,16077,2,0,L|58:203,1,64,10|0,0:0|0:0,0:0:0:0:
60,215,16527,2,0,L|77:140,1,64,10|0,0:0|0:0,0:0:0:0:
111,38,16827,6,0,P|182:51|250:38,1,128,2|0,0:0|0:0,0:0:0:0:
319,7,17277,2,0,L|390:31,1,64,10|0,0:0|0:0,0:0:0:0:
379,27,17727,2,0,L|461:17,1,64,10|0,0:0|0:0,0:0:0:0:
511,114,18027,6,0,P|482:169|462:262,1,128,2|0,0:0|0:0,0:0:0:0:
508,323,18477,1,8,0:0:0:0:
415,354,18627,2,0,L|268:368,1,128,0|8,0:0|0:0,0:0:0:0:
287,366,19227,6,0,P|238:336|182:330,1,96,0|0,0:0|0:0,0:0:0:0:
183,312,19527,6,0,P|239:282|302:281,1,120,10|0,0:0|0:0,0:0:0:0:
316,270,19827,6,0,P|240:227|181:235,1,143.999995605469,10|0,0:0|0:0,0:0:0:0:
167,227,20127,6,0,P|195:174|198:133,1,96,10|0,0:0|0:0,0:0:0:0:
195,105,20427,5,6,0:0:0:0:
84,146,20577,1,0,0:0:0:0:
72,0,20727,2,0,L|77:78,1,64,0|10,0:0|0:0,0:0:0:0:
96,245,21027,2,0,P|159:236|239:264,1,128,0|10,0:0|0:0,0:0:0:0:
311,292,21477,1,0,0:0:0:0:
287,155,21627,5,2,0:0:0:0:
315,306,21777,1,0,0:0:0:0:
397,215,21927,2,0,P|433:195|477:181,1,64,0|10,0:0|0:0,0:0:0:0:
272,150,22227,2,0,P|208:132|132:124,1,128,0|10,0:0|0:0,0:0:0:0:
147,124,22827,5,2,0:0:0:0:
64,250,22977,1,0,0:0:0:0:
38,141,23127,1,0,0:0:0:0:
54,264,23277,1,8,0:0:0:0:
178,234,23427,2,0,P|227:224|307:224,1,128,0|8,0:0|0:0,0:0:0:0:
406,251,23877,1,0,0:0:0:0:
492,160,24027,5,0,0:0:0:0:
401,266,24177,1,0,0:0:0:0:
348,107,24327,2,0,L|268:96,1,64,8|0,0:0|0:0,0:0:0:0:
435,50,24627,2,0,L|513:33,1,64,10|0,0:0|0:0,0:0:0:0:
335,14,24927,2,0,L|210:-5,1,96,10|0,0:0|0:0,0:0:0:0:
219,20,25227,6,0,L|201:92,1,64,2|0,0:0|0:0,0:0:0:0:
90,204,25527,1,0,0:0:0:0:
124,58,25677,1,8,0:0:0:0:
197,179,25827,1,0,0:0:0:0:
55,113,25977,1,0,0:0:0:0:
203,82,26127,2,0,P|247:97|282:130,1,96,10|0,0:0|0:0,0:0:0:0:
291,160,26427,6,0,L|272:240,1,64,2|0,0:0|0:0,0:0:0:0:
368,300,26727,2,0,L|360:235,1,64,0|10,0:0|0:0,0:0:0:0:
235,328,27027,1,0,0:0:0:0:
235,328,27327,5,10,0:0:0:0:
276,222,27477,1,0,0:0:0:0:
368,300,27627,2,0,P|404:311|449:316,1,64,2|0,0:0|0:0,0:0:0:0:
512,273,27927,1,0,0:0:0:0:
433,217,28077,2,0,P|434:178|442:141,1,64,8|0,0:0|0:0,0:0:0:0:
475,72,28377,1,0,0:0:0:0:
379,80,28527,2,0,P|314:72|237:45,2,128,8|0|8,0:0|0:0|0:0,0:0:0:0:
379,80,29427,6,0,P|343:91|310:97,1,64,10|0,0:0|0:0,0:0:0:0:
209,0,29727,2,0,P|241:0|273:5,1,64,10|0,0:0|0:0,0:0:0:0:
163,154,30027,1,6,0:0:0:0:
238,78,30177,1,0,0:0:0:0:
270,191,30327,2,0,L|261:264,1,64,0|10,0:0|0:0,0:0:0:0:
244,363,30627,2,0,P|193:321|114:315,1,128,0|10,0:0|0:0,0:0:0:0:
37,310,31077,1,0,0:0:0:0:
14,163,31227,5,0,0:0:0:0:
44,300,31377,1,2,0:0:0:0:
157,190,31527,2,0,P|193:175|223:171,1,64,0|8,0:0|0:0,0:0:0:0:
352,287,31827,2,0,P|285:266|220:266,1,128,0|10,0:0|0:0,0:0:0:0:
141,294,32277,1,0,0:0:0:0:
74,165,32427,5,2,0:0:0:0:
141,306,32577,1,0,0:0:0:0:
213,158,32727,2,0,P|247:140|283:131,1,64,0|8,0:0|0:0,0:0:0:0:
450,188,33027,1,0,0:0:0:0:
329,223,33177,1,0,0:0:0:0:
463,198,33327,1,10,0:0:0:0:
315,212,33477,1,0,0:0:0:0:
455,78,33627,5,0,0:0:0:0:
473,207,33777,1,2,0:0:0:0:
338,136,33927,2,0,P|273:117|193:115,1,128,8|10,0:0|0:0,0:0:0:0:
213,113,34527,5,8,0:0:0:0:
111,49,34677,1,0,0:0:0:0:
130,228,34827,2,0,P|195:209|275:207,1,128,2|0,0:0|0:0,0:0:0:0:
347,217,35277,1,10,0:0:0:0:
291,354,35427,5,0,0:0:0:0:
347,204,35577,1,0,0:0:0:0:
432,340,35727,2,0,L|508:341,1,64,10|0,0:0|0:0,0:0:0:0:
276,344,36027,2,0,L|141:354,1,128,2|0,0:0|0:0,0:0:0:0:
9,284,36477,1,10,0:0:0:0:
102,213,36627,2,0,P|114:242|120:272,1,64,0|0,0:0|0:0,0:0:0:0:
26,132,36927,6,0,P|66:107|127:106,1,96,10|0,0:0|0:0,0:0:0:0:
136,114,37227,2,0,P|191:154|267:158,1,128,2|0,0:0|0:0,0:0:0:0:
383,59,37677,2,0,P|374:23|362:-1,1,64,8|0,0:0|0:0,0:0:0:0:
279,61,37977,1,0,0:0:0:0:
395,143,38127,1,8,0:0:0:0:
395,143,38427,6,0,P|348:152|306:175,1,96,0|0,0:0|0:0,0:0:0:0:
287,198,38727,6,0,P|346:202|399:229,1,120,10|0,0:0|0:0,0:0:0:0:
412,248,39027,6,0,P|340:256|276:287,1,143.999995605469,10|0,0:0|0:0,0:0:0:0:
270,302,39327,6,0,P|315:311|356:334,1,71.9999978027344,10|0,0:0|0:0,0:0:0:0:
354,335,39627,6,0,P|294:333|187:362,1,160,6|0,0:0|0:0,0:0:0:0:
88,235,40077,2,0,P|131:247|166:277,1,80,2|0,0:0|0:0,0:0:0:0:
74,358,40377,1,8,0:0:0:0:
0,226,40527,1,8,0:0:0:0:
81,347,40677,1,0,0:0:0:0:
158,168,40827,6,0,P|217:149|288:169,1,120,2|0,0:0|0:0,0:0:0:0:
297,181,41127,2,0,L|311:279,1,80,0|2,0:0|0:0,0:0:0:0:
247,366,41427,1,0,0:0:0:0:
219,238,41577,1,2,0:0:0:0:
396,303,41727,2,0,P|445:298|492:273,1,80,8|2,0:0|0:0,0:0:0:0:
483,98,42027,5,6,0:0:0:0:
415,211,42177,1,0,0:0:0:0:
346,106,42327,2,0,P|296:102|246:118,1,80,0|2,0:0|0:0,0:0:0:0:
168,158,42627,1,0,0:0:0:0:
308,212,42777,1,8,0:0:0:0:
148,155,42927,2,0,P|101:158|60:176,1,80,8|0,0:0|0:0,0:0:0:0:
133,314,43227,5,2,0:0:0:0:
224,221,43377,1,2,0:0:0:0:
274,342,43527,2,0,P|322:357|375:354,1,80,8|2,0:0|0:0,0:0:0:0:
512,217,43827,2,0,P|464:232|411:229,1,80,8|2,0:0|0:0,0:0:0:0:
325,89,44127,2,0,P|364:91|402:104,1,80,8|8,0:0|3:0,0:0:0:0:
424,117,44352,1,8,3:0:0:0:
424,117,44427,5,6,0:0:0:0:
512,55,44577,1,0,0:0:0:0:
512,217,44727,1,0,0:0:0:0:
512,39,44877,1,2,0:0:0:0:
351,168,45027,2,0,P|291:150|218:174,1,120,0|0,0:0|0:0,0:0:0:0:
212,185,45327,2,0,L|204:291,1,80,8|0,0:0|0:0,0:0:0:0:
289,351,45627,5,2,0:0:0:0:
293,234,45777,1,0,0:0:0:0:
133,318,45927,2,0,P|85:318|36:296,1,80,0|2,0:0|0:0,0:0:0:0:
1,187,46227,1,0,0:0:0:0:
107,223,46377,1,2,0:0:0:0:
147,113,46527,2,0,P|194:90|229:88,1,80,8|2,0:0|0:0,0:0:0:0:
461,175,46827,6,0,P|387:172|294:218,1,160,6|0,0:0|0:0,0:0:0:0:
219,245,47277,1,2,0:0:0:0:
222,88,47427,2,0,B|242:176|191:160|223:257,1,160,0|8,0:0|0:0,0:0:0:0:
251,340,47877,1,0,0:0:0:0:
52,285,48027,5,2,0:0:0:0:
141,228,48177,2,0,L|233:248,1,80,2|8,0:0|0:0,0:0:0:0:
115,116,48477,1,2,0:0:0:0:
219,244,48627,2,0,B|290:260|290:260|321:252|321:252|394:269,1,160,8|8,0:0|0:0,0:0:0:0:
328,349,49077,1,2,0:0:0:0:
462,94,49227,6,0,P|475:171|485:272,1,160,6|2,0:0|0:0,0:0:0:0:
468,348,49677,1,0,0:0:0:0:
374,264,49827,2,0,L|294:272,1,80,2|0,0:0|0:0,0:0:0:0:
192,150,50127,2,0,L|272:142,1,80,2|0,0:0|0:0,0:0:0:0:
126,314,50427,5,2,0:0:0:0:
105,179,50577,1,0,0:0:0:0:
184,241,50727,1,2,0:0:0:0:
58,253,50877,1,0,0:0:0:0:
210,324,51027,2,0,B|318:319,1,80,2|0,0:0|0:0,0:0:0:0:
406,217,51327,2,0,B|298:222,1,80,8|8,0:0|0:0,0:0:0:0:
303,225,51552,1,8,0:0:0:0:
303,225,51627,5,6,0:0:0:0:
376,316,51777,1,0,0:0:0:0:
406,217,51927,1,2,0:0:0:0:
481,296,52077,1,0,0:0:0:0:
437,136,52227,2,0,L|442:42,1,80,2|0,0:0|0:0,0:0:0:0:
322,23,52527,1,2,0:0:0:0:
353,123,52677,1,0,0:0:0:0:
145,82,52827,5,2,0:0:0:0:
271,87,52977,1,0,0:0:0:0:
185,156,53127,1,2,0:0:0:0:
213,26,53277,1,0,0:0:0:0:
277,174,53427,2,0,L|274:261,1,80,2|8,0:0|0:0,0:0:0:0:
165,317,53727,2,0,L|168:230,1,80,2|8,0:0|0:0,0:0:0:0:
365,103,54027,5,6,0:0:0:0:
406,213,54177,1,0,0:0:0:0:
473,118,54327,1,2,0:0:0:0:
349,100,54477,2,0,L|253:84,1,80,0|2,0:0|0:0,0:0:0:0:
181,40,54777,1,0,0:0:0:0:
212,180,54927,5,2,0:0:0:0:
177,53,55077,1,0,0:0:0:0:
85,150,55227,2,0,L|-8:134,1,80,2|0,0:0|0:0,0:0:0:0:
226,181,55527,2,0,L|351:165,1,120,2|0,0:0|0:0,0:0:0:0:
369,169,55827,2,0,L|355:252,1,80,2|8,0:0|0:0,0:0:0:0:
501,337,56127,2,0,L|487:258,1,80,2|8,0:0|0:0,0:0:0:0:
272,350,56427,6,0,B|212:361|212:361|166:351|166:351|92:355,1,160,6|2,0:0|0:0,0:0:0:0:
79,190,56877,1,0,0:0:0:0:
224,190,57027,2,0,L|216:277,1,80,2|0,0:0|0:0,0:0:0:0:
93,191,57327,1,2,0:0:0:0:
229,103,57477,1,0,0:0:0:0:
102,275,57627,5,8,0:0:0:0:
62,273,57702,1,8,0:0:0:0:
27,253,57777,1,8,0:0:0:0:
7,218,57852,1,8,0:0:0:0:
6,178,57927,1,8,0:0:0:0:
24,142,58002,1,8,0:0:0:0:
57,117,58077,2,0,L|100:108,1,40,8|8,0:0|0:0,0:0:0:0:
213,211,58227,6,0,L|149:205,1,40,8|8,0:0|0:0,0:0:0:0:
229,103,58377,2,0,L|290:92,1,40,8|8,3:0|3:0,0:0:0:0:
334,213,58527,1,2,3:0:0:0:
328,250,58602,1,2,3:0:0:0:
313,280,58677,1,4,3:0:0:0:
282,302,58752,1,4,3:0:0:0:
252,312,58827,6,0,L|141:306,1,88.000002685547,6|0,0:0|0:0,0:0:0:0:
96,108,59127,1,8,0:0:0:0:
75,295,59277,1,0,0:0:0:0:
100,92,59427,1,2,0:0:0:0:
72,312,59577,1,2,0:0:0:0:
227,160,59727,1,0,0:0:0:0:
0,180,59877,1,8,0:0:0:0:
242,280,60027,6,0,P|304:262|369:271,1,132.00000402832,0|0,0:0|0:0,0:0:0:0:
399,274,60327,2,0,B|417:210|394:169|394:169|418:141|419:100,1,176.000005371094,8|2,0:0|0:0,0:0:0:0:
453,10,60777,1,2,0:0:0:0:
512,167,60927,1,8,0:0:0:0:
466,0,61077,1,0,0:0:0:0:
323,110,61227,6,0,P|231:132|142:102,1,176.000005371094,2|8,0:0|0:0,0:0:0:0:
57,43,61677,1,0,0:0:0:0:
198,12,61827,1,2,0:0:0:0:
74,144,61977,2,0,L|86:242,1,88.000002685547,2|8,0:0|0:0,0:0:0:0:
77,334,62277,1,2,0:0:0:0:
271,251,62427,5,2,0:0:0:0:
93,349,62577,1,0,0:0:0:0:
281,264,62727,2,0,P|326:260|384:283,1,88.000002685547,12|0,0:0|0:0,0:0:0:0:
208,351,63027,2,0,P|178:305|176:263,1,88.000002685547,12|2,1:2|0:0,0:0:0:0:
217,124,63327,1,12,1:2:0:0:
281,264,63477,1,2,0:0:0:0:
105,95,63627,6,0,P|128:46|167:16,1,88.000002685547,6|0,0:0|0:0,0:0:0:0:
274,0,63927,1,8,0:0:0:0:
217,124,64077,1,0,0:0:0:0:
400,114,64227,1,2,0:0:0:0:
200,129,64377,1,2,0:0:0:0:
374,5,64527,1,0,0:0:0:0:
302,169,64677,6,0,P|287:253|284:347,1,176.000005371094,8|2,0:0|0:0,0:0:0:0:
140,212,65127,1,8,0:0:0:0:
77,372,65277,1,0,0:0:0:0:
128,205,65427,1,2,0:0:0:0:
190,373,65577,1,2,0:0:0:0:
182,121,65727,2,0,P|115:106|53:140,1,132.00000402832,8|0,0:0|0:0,0:0:0:0:
43,147,66027,6,0,P|41:83|19:31,1,88.000002685547,6|0,0:0|0:0,0:0:0:0:
203,13,66327,1,8,0:0:0:0:
128,205,66477,2,0,P|116:246|118:290,1,88.000002685547,0|2,0:0|0:0,0:0:0:0:
211,345,66777,1,2,0:0:0:0:
337,207,66927,1,8,0:0:0:0:
208,365,67077,1,2,0:0:0:0:
279,127,67227,6,0,P|334:110|378:118,1,88.000002685547,0|2,0:0|0:0,0:0:0:0:
91,92,67527,2,0,P|37:71|-7:75,1,88.000002685547,12|2,0:0|0:0,0:0:0:0:
100,197,67827,1,10,0:0:0:0:
128,187,67902,1,8,0:0:0:0:
156,168,67977,1,8,0:0:0:0:
177,133,68052,1,8,0:0:0:0:
188,96,68127,2,0,L|182:40,1,44.0000013427735,10|8,0:0|0:0,0:0:0:0:
254,198,68277,2,0,L|247:256,1,44.0000013427735,8|8,0:0|0:0,0:0:0:0:
286,36,68427,5,6,0:0:0:0:
343,224,68577,1,0,0:0:0:0:
420,25,68727,1,8,0:0:0:0:
334,245,68877,1,0,0:0:0:0:
512,108,69027,1,2,0:0:0:0:
326,263,69177,1,0,0:0:0:0:
356,72,69327,1,8,0:0:0:0:
512,220,69477,1,0,0:0:0:0:
199,182,69627,6,0,P|149:197|103:229,1,88.000002685547,2|0,0:0|0:0,0:0:0:0:
25,42,69927,2,0,P|75:57|123:89,1,88.000002685547,8|0,0:0|0:0,0:0:0:0:
322,222,70227,2,0,P|325:178|315:135,1,88.000002685547,2|0,0:0|0:0,0:0:0:0:
118,215,70526,1,8,0:0:0:0:
221,307,70676,1,0,0:0:0:0:
192,100,70827,6,0,P|209:60|248:27,1,88.000002685547,6|0,0:0|0:0,0:0:0:0:
370,0,71127,1,8,0:0:0:0:
315,135,71277,1,0,0:0:0:0:
489,50,71427,1,2,0:0:0:0:
293,143,71577,1,0,0:0:0:0:
499,149,71727,1,8,0:0:0:0:
273,149,71877,1,0,0:0:0:0:
512,264,72027,5,2,0:0:0:0:
274,243,72177,1,0,0:0:0:0:
418,112,72327,2,0,B|413:165|413:165|431:221|431:221|419:252|425:295,1,176.000005371094,8|2,0:0|0:0,0:0:0:0:
336,306,72777,1,0,0:0:0:0:
272,148,72927,1,8,0:0:0:0:
346,327,73077,1,0,0:0:0:0:
179,197,73227,6,0,P|133:195|84:220,1,88.000002685547,6|2,0:0|0:0,0:0:0:0:
56,311,73527,1,8,0:0:0:0:
254,320,73677,2,0,B|251:273|251:273|275:210|275:210|272:134,1,176.000005371094,0|2,0:0|0:0,0:0:0:0:
209,12,74127,1,8,0:0:0:0:
179,197,74277,1,2,0:0:0:0:
369,130,74427,1,2,0:0:0:0:
144,94,74577,1,2,0:0:0:0:
390,134,74727,1,8,0:0:0:0:
265,315,74877,5,8,3:0:0:0:
265,315,74952,1,8,3:0:0:0:
265,315,75027,2,0,B|240:244|240:244|293:215|293:215|289:259,1,155.999992858887,8|0,3:0|0:0,0:0:0:0:
265,315,75327,2,0,B|209:304|209:304|168:315|168:315|94:313,1,155.999992858887,8|0,0:0|0:0,0:0:0:0:
92,308,75627,5,2,0:0:0:0:
28,120,75777,1,2,0:0:0:0:
72,300,75927,1,8,0:0:0:0:
213,136,76077,1,8,3:0:0:0:
213,136,76152,1,8,3:0:0:0:
213,136,76227,1,2,0:0:0:0:
137,220,76377,1,2,0:0:0:0:
207,36,76527,1,8,0:0:0:0:
311,192,76677,1,0,0:0:0:0:
99,53,76827,6,0,P|64:33|24:26,1,80,12|0,0:0|0:0,0:0:0:0:
299,86,77127,2,0,P|335:70|375:67,1,80,12|0,0:0|0:0,0:0:0:0:
263,265,77427,1,12,0:0:0:0:
213,136,77577,1,0,0:0:0:0:
291,349,77727,1,12,0:0:0:0:
364,178,77877,1,0,0:0:0:0:
203,334,78027,6,0,P|143:339|79:316,1,120.000004577637,6|0,0:0|0:0,0:0:0:0:
31,249,78477,2,0,L|49:178,1,60.0000022888184,10|0,0:0|0:0,0:0:0:0:
46,191,78927,2,0,P|111:183|160:129,1,120.000004577637,10|0,0:0|0:0,0:0:0:0:
51,44,79377,2,0,L|69:105,2,60.0000022888184,2|0|8,0:0|0:0|0:0,0:0:0:0:
161,48,79827,2,0,L|230:28,1,60.0000022888184,0|0,0:0|0:0,0:0:0:0:
331,116,80127,2,0,L|271:112,1,60.0000022888184,10|0,0:0|0:0,0:0:0:0:
455,14,80427,6,0,P|426:67|422:148,1,120.000004577637,2|0,0:0|0:0,0:0:0:0:
495,182,80877,2,0,L|482:259,1,60.0000022888184,10|0,0:0|0:0,0:0:0:0:
485,241,81327,6,0,P|425:237|360:284,1,120.000004577637,10|0,0:0|0:0,0:0:0:0:
459,380,81777,2,0,L|449:320,2,60.0000022888184,2|8|0,0:0|0:0|0:0,0:0:0:0:
341,352,82227,2,0,L|257:375,1,60.0000022888184,10|0,0:0|0:0,0:0:0:0:
192,262,82527,2,0,L|276:285,1,60.0000022888184,8|0,0:0|0:0,0:0:0:0:
87,335,82827,6,0,P|93:257|67:193,1,120.000004577637,2|0,0:0|0:0,0:0:0:0:
36,131,83277,2,0,L|96:104,1,60.0000022888184,10|0,0:0|0:0,0:0:0:0:
90,106,83727,2,0,L|158:119,1,60.0000022888184,10|0,0:0|0:0,0:0:0:0:
229,43,84027,6,0,P|274:26|357:31,1,120.000004577637,2|0,0:0|0:0,0:0:0:0:
434,78,84477,2,0,L|417:165,1,60.0000022888184,10|0,0:0|0:0,0:0:0:0:
422,136,84927,2,0,L|435:217,1,60.0000022888184,10|0,0:0|0:0,0:0:0:0:
505,306,85227,6,0,P|453:280|373:296,1,120.000004577637,2|0,0:0|0:0,0:0:0:0:
300,320,85677,1,8,0:0:0:0:
269,226,85827,2,0,L|292:91,1,120.000004577637,0|8,0:0|0:0,0:0:0:0:
289,107,86427,5,0,0:0:0:0:
187,177,86727,1,10,0:0:0:0:
124,72,87027,1,10,0:0:0:0:
289,107,87327,1,10,0:0:0:0:
